osu file format v9

[General]
AudioFilename: Sky Ferreira - One.mp3
AudioLeadIn: 0
PreviewTime: 33870
Countdown: 1
SampleSet: Normal
StackLeniency: 0.7
Mode: 0
LetterboxInBreaks: 0

[Editor]
DistanceSpacing: 1.2
BeatDivisor: 8
GridSize: 4

[Metadata]
Title:One
Artist:Sky Ferreira
Creator:Larto
Version:Normal
Source:
Tags:

[Difficulty]
HPDrainRate:3
CircleSize:3
OverallDifficulty:4
ApproachRate:4
SliderMultiplier:1.44
SliderTickRate:2

[Events]
//Background and Video events
0,0,"25_PurpleSky_scenic_wallpaper_x.jpg"
//Break Periods
2,59030,72870
//Storyboard Layer 0 (Background)
//Storyboard Layer 1 (Fail)
//Storyboard Layer 2 (Pass)
//Storyboard Layer 3 (Foreground)
//Storyboard Sound Samples
//Background Colour Transformations
3,100,163,162,255

[TimingPoints]
270,480,4,1,0,60,1,0
8910,480,4,1,0,60,1,0
19470,480,4,1,0,60,1,0
28110,480,4,1,0,60,1,0
28110,-83.3333333333333,4,1,0,60,0,0
31830,-71.4285714285714,4,1,0,60,0,0
35790,-100,4,1,0,60,0,1
58830,-100,4,1,0,60,0,0
84750,480,4,1,0,60,1,0
93390,480,4,1,0,60,1,0
93390,-83.3333333333333,4,1,0,60,0,0
97110,-71.4285714285714,4,1,0,60,0,0
101070,-100,4,1,0,60,0,1
124050,-200,4,1,0,60,0,0
124110,-133.333333333333,4,1,0,60,0,1
125070,-133.333333333333,4,2,0,60,0,0
135390,-100,4,1,0,60,0,0
135630,-100,4,1,0,60,0,1
135750,-100,4,1,0,60,0,0
138150,-100,4,2,0,60,0,0
138390,-100,4,1,0,60,0,0
139110,-100,4,2,0,60,0,0
139350,-100,4,1,0,60,0,0
141990,-133.333333333333,4,2,0,60,0,0
142230,-100,4,1,0,60,0,0
142950,-100,4,2,0,60,0,0
143190,-100,4,1,0,60,0,0
150990,-100,4,1,0,60,0,1
174030,-100,4,1,0,60,0,0

[Colours]
Combo1 : 255,174,243
Combo2 : 191,121,255
Combo3 : 214,214,254
Combo4 : 253,153,153
Combo5 : 253,153,153

[HitObjects]
80,80,8910,5,4
112,200,9390,1,8
184,168,9630,1,0
256,136,9870,2,2,B|432:136,1,144
352,272,10830,1,4
256,376,11310,1,8
152,304,11790,6,0,B|88:288|40:192|88:96|152:88,1,216,0|0
160,80,12750,37,4
256,192,13230,1,8
352,80,13710,1,6
256,192,14190,1,8
256,336,14670,1,2
168,224,15150,37,2
344,224,15630,5,2
344,80,16110,53,2
168,80,16590,5,2
256,224,17070,53,2
328,376,17550,6,0,B|160:376,3,144,2|2|2|2
48,320,19470,5,4
24,248,19710,1,0
72,184,19950,2,0,B|112:248|192:224|224:192,1,144,8|2
328,144,20910,2,0,B|288:80|208:104|176:136,1,144,8|2
296,224,21870,1,2
440,192,22350,6,2,B|464:72|376:0|352:0,1,216,2|0
288,16,23310,5,4
192,136,23790,2,0,B|112:160|40:104,1,144,8|2
192,216,24750,2,0,B|272:240|344:184,1,144,8|2
472,160,25710,5,2
496,240,25950,5,0
440,304,26190,54,0,B|296:368,1,144,2|2
72,304,27150,6,0,B|216:368,1,144,2|2
256,192,28110,53,2
128,72,28590,5,2
0,192,29070,53,2
128,312,29550,5,2
256,192,30030,53,2
328,236,30270,5,0
328,148,30510,53,2
184,148,30990,5,2
256,272,31470,53,2
436,180,31950,6,6,B|416:76|416:76|292:24,1,201.599995193482,6|2
184,38,32910,54,6,B|96:76|96:76|76:180,1,201.599995193482,6|2
180,352,33870,5,2
332,352,34350,1,2
332,192,34830,1,2
180,192,35310,1,8
72,96,35790,6,2,B|156:100|204:44,1,144,2|8
348,44,36750,2,0,B|448:156,1,144,6|0
443,232,37470,2,0,B|348:340,1,144,2|0
272,320,38190,5,8
196,300,38430,1,0
120,280,38670,2,2,B|120:112,1,144
256,68,39630,1,6
356,192,40110,5,8
336,348,40590,1,2
256,324,40830,1,0
176,348,41070,1,8
156,192,41550,1,2
36,88,42030,5,2
184,32,42510,5,2
328,88,42990,53,2
412,88,43230,5,0
476,32,43470,53,2
412,176,43950,5,2
336,316,44430,53,2
176,316,44910,5,2
100,176,45390,54,0,B|276:176,1,144,6|2
256,100,46110,5,0
268,24,46350,54,0,B|444:24,1,144,6|2
468,172,47310,21,6
392,148,47550,2,0,B|316:160|256:212,1,144,2|0
208,148,48270,2,2,B|154:194|78:206,1,144,2|8
8,240,48990,1,2
164,300,49470,5,0
240,320,49710,1,8
316,300,49950,1,0
392,280,50190,2,2,B|392:112,1,144
256,68,51150,1,6
156,192,51630,6,0,B|140:288|236:312,1,144,8|2
356,192,52590,2,0,B|372:96|276:72,1,144,8|2
256,232,53550,5,2
148,348,54030,5,2
40,232,54510,53,2
148,116,54990,5,2
112,272,55470,53,2
148,204,55710,5,0
188,272,55950,53,2
324,272,56430,5,2
256,128,56910,5,4
256,192,57030,12,2,58830
122,88,74190,5,0
47,227,74670,1,8
88,294,74910,1,0
159,260,75150,1,2
256,152,75630,1,8
353,260,76110,1,6
256,152,76590,1,8
132,100,77070,6,0,B|156:40|216:36|296:96|360:76|392:16,1,288,0|4
428,180,78510,37,8
376,240,78750,1,0
296,240,78990,2,2,B|136:240,1,144,2|8
36,140,79950,1,2
144,20,80430,37,2
256,120,80910,5,2
368,20,81390,53,2
256,120,81870,5,2
324,264,82350,53,2
256,224,82590,5,0
188,264,82830,53,2
324,184,83310,5,2
188,184,83790,53,2
256,308,84270,5,2
104,344,84750,6,4,B|28:308|28:224|64:152,1,216,4|0
96,80,85710,1,2
204,196,86190,1,8
256,140,86430,1,0
308,196,86670,1,2
416,80,87150,1,2
368,264,87630,6,4,B|352:316|320:340|256:352|192:340|160:316|144:264,1,288,4|4
104,196,88830,5,0
132,124,89070,2,8,B|264:204,1,144,8|2
380,124,90030,2,8,B|248:204,1,144,8|2
332,340,90990,5,2
180,340,91470,5,2
332,260,91950,53,2
256,260,92190,5,0
180,260,92430,53,2
260,144,92910,5,2
132,28,93390,54,0,B|64:100|124:192,1,172.800004119873,2|2
240,308,94350,6,0,B|308:236|248:144,1,172.800004119873,2|2
404,64,95310,54,0,B|476:136,1,86.4000020599366,2|0
464,212,95790,6,0,B|396:280,1,86.4000020599366,2|0
344,216,96270,53,2
168,216,96750,5,2
116,64,97230,53,2
256,84,97710,5,2
396,184,98190,53,2
256,164,98670,5,2
112,240,99150,53,4
180,384,99630,1,0
332,384,100110,1,0
400,240,100590,1,8
340,92,101070,22,4,B|240:176|120:128,1,216,4|0
56,104,102030,2,2,B|56:332,1,216
208,276,103230,5,0
184,196,103470,2,2,B|356:196,1,144
396,152,104190,1,0
328,108,104430,2,2,B|156:108,1,144
68,216,105390,5,8
148,228,105630,1,0
200,288,105870,2,2,B|284:316|352:276,1,144,2|8
452,160,106830,1,2
336,32,107310,5,2
256,156,107790,5,2
176,32,108270,53,2
256,156,108750,5,2
316,304,109230,53,2
256,256,109470,5,0
196,304,109710,53,2
172,140,110190,5,2
340,140,110670,53,6
172,140,111150,5,2
340,140,111630,53,6
172,140,112110,5,2
24,80,112590,6,2,B|-20:148|-4:224|68:276,1,216,2|0
124,320,113550,2,2,B|188:360|264:332,1,144,2|8
324,280,114270,1,2
304,108,114750,5,0
328,188,114990,2,2,B|156:188,1,144
116,232,115710,1,0
184,276,115950,2,2,B|356:276,1,144
464,196,116910,5,8
456,116,117150,1,0
388,76,117390,2,2,B|320:124|244:96,1,144,2|8
104,36,118350,1,2
68,192,118830,5,2
220,184,119310,5,2
172,340,119790,53,2
256,324,120030,5,0
340,340,120270,53,2
444,192,120750,5,2
292,184,121230,53,2
256,24,121710,5,2
256,192,122190,12,8,123630
186,192,124110,22,4,B|188:147|239:134|272:167|256:192|239:216|272:249|323:236|325:192,1,215.999993562699,4|2
364,80,125550,1,2
256,28,126030,1,2
148,80,126510,1,2
148,160,126750,1,0
148,240,126990,2,2,B|272:240,1,107.999996781349
256,360,127950,5,4
364,300,128430,1,0
256,240,128910,1,2
148,180,129390,1,0
256,120,129870,1,2
364,60,130350,1,2
364,140,130590,1,0
364,220,130830,2,2,B|240:220,1,107.999996781349
164,316,131790,5,4
128,192,132270,1,0
256,208,132750,1,4
328,100,133230,1,0
184,100,133710,5,4
256,208,134190,1,0
384,192,134670,1,4
348,316,135150,1,0
224,348,135630,6,0,B|76:344,1,144
196,232,136590,2,0,B|48:228,1,144
132,116,137550,1,0
256,48,138030,5,2
256,128,138270,1,0
256,212,138510,2,0,B|256:372,1,144,2|2
400,356,139470,6,0,B|512:256,1,144
507,123,140430,2,0,B|400:28,1,144
336,160,141390,1,0
256,48,141870,37,2
256,128,142110,1,0
256,212,142350,2,0,B|256:372,1,144,2|2
140,264,143310,5,0
192,144,143790,1,0
320,144,144270,1,0
372,264,144750,1,0
256,192,145230,12,4,147150
112,136,150990,6,2,B|176:148|236:112|248:28|236:-8,1,216,2|0
160,24,151950,1,2
256,168,152430,1,8
320,228,152670,2,2,B|424:248|456:196|468:168,1,144,2|0
468,108,153390,37,8
400,56,153630,1,0
312,56,153870,1,2
44,108,154350,1,2
112,56,154590,1,0
200,56,154830,1,2
256,220,155310,6,0,B|256:376,2,144,8|2|8
212,152,156510,1,0
300,152,156750,1,2
348,316,157230,21,2
164,316,157710,5,2
256,220,158190,53,2
256,48,158670,5,2
180,188,159150,53,2
256,144,159390,5,0
332,188,159630,53,2
256,340,160110,5,2
96,276,160590,53,2
168,120,161070,5,2
344,120,161550,53,2
416,276,162030,5,2
256,208,162510,21,6
180,248,162750,2,2,B|112:256|56:216|48:164,1,144,2|0
28,112,163470,2,2,B|240:44,1,216,2|2
472,180,164910,5,8
404,232,165150,1,0
316,232,165390,1,2
48,180,165870,1,2
116,232,166110,1,0
204,232,166350,1,2
316,120,166830,38,0,B|176:28,2,144,8|2|8
364,184,168030,1,0
352,268,168270,1,2
256,156,168750,37,2
160,268,169230,5,2
256,380,169710,53,2
372,252,170190,6,0,B|328:92,1,144,2|2
178,113,171150,54,0,B|140:252,1,144,2|2
256,192,172110,12,6,174030
