osu file format v9

[General]
AudioFilename: Sky Ferreira - One.mp3
AudioLeadIn: 0
PreviewTime: 33870
Countdown: 1
SampleSet: Normal
StackLeniency: 0.7
Mode: 0
LetterboxInBreaks: 0

[Editor]
DistanceSpacing: 1.2
BeatDivisor: 4
GridSize: 4

[Metadata]
Title:One
Artist:Sky Ferreira
Creator:Larto
Version:Insane
Source:
Tags:

[Difficulty]
HPDrainRate:6
CircleSize:5
OverallDifficulty:8
ApproachRate:8
SliderMultiplier:2.08
SliderTickRate:2

[Events]
//Background and Video events
0,0,"25_PurpleSky_scenic_wallpaper_x.jpg"
//Break Periods
2,59030,73440
//Storyboard Layer 0 (Background)
//Storyboard Layer 1 (Fail)
//Storyboard Layer 2 (Pass)
//Storyboard Layer 3 (Foreground)
//Storyboard Sound Samples
//Background Colour Transformations
3,100,163,162,255

[TimingPoints]
270,480,4,1,0,60,1,0
8910,480,4,1,0,60,1,0
19470,480,4,1,0,60,1,0
28110,480,4,1,0,60,1,0
28110,-83.3333333333333,4,1,0,60,0,0
31830,-71.4285714285714,4,1,0,60,0,0
35790,-100,4,1,0,60,0,1
58830,-100,4,1,0,60,0,0
84750,480,4,1,0,60,1,0
93390,480,4,1,0,60,1,0
93390,-83.3333333333333,4,1,0,60,0,0
97110,-71.4285714285714,4,1,0,60,0,0
101070,-100,4,1,0,60,0,1
124050,-133.333333333333,4,1,0,60,0,0
124110,-133.333333333333,4,1,0,60,0,1
125070,-133.333333333333,4,2,0,60,0,0
135390,-133.333333333333,4,1,0,60,0,0
135630,-133.333333333333,4,1,0,60,0,1
135750,-100,4,1,0,60,0,0
138150,-133.333333333333,4,2,0,60,0,0
138390,-133.333333333333,4,1,0,60,0,0
138630,-133.333333333333,4,2,0,60,0,0
138870,-133.333333333333,4,1,0,60,0,0
139110,-133.333333333333,4,2,0,60,0,0
139350,-133.333333333333,4,1,0,60,0,0
141990,-133.333333333333,4,2,0,60,0,0
142230,-133.333333333333,4,1,0,60,0,0
142470,-133.333333333333,4,2,0,60,0,0
142710,-133.333333333333,4,1,0,60,0,0
142950,-133.333333333333,4,2,0,60,0,0
143190,-133.333333333333,4,1,0,60,0,0
147270,-133.333333333333,4,2,0,60,0,0
150270,-133.333333333333,4,2,0,0,0,0
150750,-133.333333333333,4,2,0,60,0,0
150990,-100,4,1,0,60,0,1
174030,-100,4,1,0,60,0,0

[Colours]
Combo1 : 255,147,239
Combo2 : 211,164,255
Combo3 : 181,181,253
Combo4 : 253,153,153
Combo5 : 253,153,153

[HitObjects]
64,112,8910,1,0
172,80,9150,1,0
272,140,9390,2,2,B|344:176|292:252,1,104,2|0
256,328,9870,1,2
204,224,10110,1,0
144,320,10350,1,8
92,216,10590,1,0
40,112,10830,2,0,B|176:80,1,104,6|0
40,112,11310,1,2
256,24,11790,5,0
256,136,12030,1,0
256,248,12270,1,8
256,360,12510,1,0
352,300,12750,38,0,B|372:252|436:232,1,104,6|0
476,132,13230,1,8
428,236,13470,1,0
368,140,13710,1,2
256,156,13950,1,0
156,212,14190,1,8
120,320,14430,1,0
232,340,14670,2,0,B|276:292|248:232,1,104,2|0
188,140,15150,38,0,B|220:84|312:76,1,104,2|0
148,108,15630,6,0,B|180:164|272:172,1,104,2|0
104,156,16110,54,0,B|160:124|168:32,1,104,2|0
140,196,16590,6,0,B|108:140|16:132,1,104,2|0
104,236,17070,54,0,B|136:180|228:172,1,104,2|0
52,240,17550,6,0,B|112:217|188:270,1,104,2|0
48,296,18030,54,0,B|70:235|17:159,1,104,2|0
12,336,18510,6,0,B|44:280|136:272,1,104,2|0
0,288,18990,54,0,B|-10:351|56:415,1,104,2|0
140,356,19470,21,4
172,248,19710,1,0
280,284,19950,1,8
332,180,20190,1,0
224,140,20430,2,0,B|184:108|96:136,1,104,2|0
200,40,20910,2,0,B|240:72|328:44,1,104,2|0
408,16,21390,1,6
396,128,21630,1,0
504,96,21870,1,8
256,360,22350,5,0
256,248,22590,1,0
256,136,22830,1,8
256,24,23070,1,0
148,56,23310,6,0,B|140:128|44:132,1,104,6|0
4,208,23790,1,8
120,200,24030,1,0
232,216,24270,2,0,B|292:240|276:312,1,104,2|0
232,216,24750,1,8
272,108,24990,1,0
384,80,25230,2,0,B|352:144|428:176,1,104,2|0
452,276,25710,6,0,B|352:248,1,104,2|0
336,304,26190,6,0,B|364:204,1,104,2|0
416,220,26670,54,0,B|316:192,1,104,2|0
356,152,27150,6,0,B|276:232,1,104,2|0
332,252,27630,54,0,B|216:192,1,104,2|0
240,272,28110,6,0,B|244:128,1,124.800002975464,6|0
308,144,28590,54,0,B|164:148,1,124.800002975464,2|0
180,84,29070,6,0,B|184:228,1,124.800002975464,2|0
240,228,29550,54,0,B|108:188,1,124.800002975464,2|0
100,256,30030,6,0,B|140:124,1,124.800002975464,2|0
72,204,30510,54,0,B|137:325,1,124.800002975464,2|0
108,364,30990,6,0,B|164:232,1,124.800002975464,2|0
216,244,31470,54,0,B|79:257,1,124.800002975464,2|0
64,324,31950,6,0,B|124:184,1,145.599996528626,2|0
192,236,32430,54,0,B|52:148,1,145.599996528626,2|0
16,196,32910,6,0,B|148:112,1,145.599996528626,2|0
184,176,33390,54,0,B|88:56,1,145.599996528626,2|0
16,124,33870,5,6
124,344,34350,1,2
388,344,34830,1,2
496,124,35310,1,8
256,192,35790,6,0,B|188:240|88:172|116:84,1,208,6|8
228,36,36510,1,0
344,108,36750,2,0,B|480:276,1,208,6|0
480,176,37470,2,0,B|344:344,1,208,2|0
336,344,38070,1,0
320,344,38190,1,8
308,340,38310,1,0
304,332,38430,1,0
296,324,38550,1,0
288,320,38670,1,2
280,316,38790,1,0
272,312,38910,1,2
260,312,39030,1,0
248,312,39150,1,2
236,316,39270,1,2
224,320,39390,1,2
216,324,39510,1,2
208,328,39630,1,6
16,172,40110,6,0,B|84:148|100:52,1,104,8|0
196,36,40590,2,0,B|220:104|316:120,1,104,2|0
368,32,41070,1,8
332,152,41310,1,0
212,188,41550,2,0,B|152:192|124:280,1,104,6|0
44,340,42030,22,0,B|168:380,1,104,2|0
44,340,42510,6,0,B|84:216,1,104,2|0
176,272,42990,54,0,B|52:232,1,104,2|0
176,272,43470,6,0,B|136:396,1,104,2|0
183,278,43950,54,0,B|299:226,1,104,2|0
277,235,44430,6,0,B|371:192,1,104,2|0
371,191,44910,54,0,B|465:148,1,104,2|0
420,168,45390,6,0,B|300:168,1,104,6|0
364,168,45870,54,0,B|364:48,1,104,6|0
364,112,46350,6,0,B|484:112,1,104,6|0
420,112,46830,54,0,B|420:232,1,104,6|0
400,308,47310,21,2
308,264,47550,2,2,B|212:200|88:244|72:272,1,208
32,280,48270,2,2,B|145:257|201:138|193:107,1,208,2|8
200,64,48990,2,0,B|160:288,1,208,6|0
160,280,49590,1,0
160,292,49710,1,8
164,300,49830,1,0
172,308,49950,1,0
184,308,50070,1,0
192,304,50190,1,2
200,296,50310,1,0
204,292,50430,1,2
208,284,50550,1,0
212,276,50670,1,2
220,268,50790,1,2
228,264,50910,1,2
240,264,51030,1,2
248,268,51150,1,6
336,344,51390,5,0
440,296,51630,1,8
408,184,51870,1,0
328,100,52110,2,0,B|304:152|220:140,1,104,2|0
124,144,52590,1,8
208,64,52830,1,0
192,176,53070,2,0,B|168:248|84:236,1,104,6|0
214,314,53550,22,0,B|214:381|312:392,1,104,2|0
324,300,54030,6,0,B|377:343|447:274,1,104,2|0
383,206,54510,54,0,B|450:192|440:94,1,104,2|0
348,100,54990,6,0,B|379:40|296:-12,1,104,2|0
243,62,55470,54,0,B|215:2|121:30,1,104,2|0
148,119,55950,6,0,B|82:102|46:193,1,104,2|0
132,230,56430,54,0,B|77:269|125:355,1,104,2|0
256,192,56910,37,4
256,192,57030,12,8,58350
256,192,58830,37,2
64,96,74190,5,4
24,320,74670,1,8
104,240,74910,1,0
192,168,75150,2,0,B|184:240|248:256,1,104,2|0
312,336,75630,1,8
336,224,75870,1,0
448,200,76110,2,0,B|504:176|480:64,1,104,2|0
416,48,76590,1,2
124,72,77070,5,4
212,152,77310,1,0
300,232,77550,1,8
388,312,77790,1,0
276,340,78030,6,0,B|232:380|152:336,1,104,6|0
64,364,78510,1,8
28,256,78750,1,0
128,248,78990,2,0,B|184:212|252:252,1,104,2|0
128,248,79470,1,8
92,140,79710,1,0
196,88,79950,2,0,B|252:124|320:84,1,104,2|0
392,32,80430,6,0,B|456:136,1,104,2|0
448,120,80910,6,0,B|384:224,1,104,2|0
393,208,81390,54,0,B|289:272,1,104,2|0
304,262,81870,6,0,B|200:198,1,104,2|0
215,207,82350,54,0,B|151:311,1,104,2|0
160,295,82830,6,0,B|96:191,1,104,2|0
105,206,83310,54,0,B|188:120,1,104,2|0
177,131,83790,6,0,B|263:213,1,104,2|0
251,203,84270,54,0,B|332:116,1,104,2|0
388,60,84750,21,4
456,124,84990,1,0
464,136,85110,1,0
472,148,85230,1,8
496,260,85470,1,0
420,344,85710,2,0,B|348:324|344:240,1,104,2|0
420,344,86190,1,2
312,384,86430,1,0
248,288,86670,2,0,B|232:232|177:218,1,104,6|0
64,216,87150,2,2,B|52:104|152:52|192:56,1,208,2|0
256,12,87870,5,0
276,28,87990,1,0
280,52,88110,1,8
260,68,88230,1,0
240,84,88350,1,2
244,108,88470,1,0
256,124,88590,1,4
360,176,88830,5,0
396,284,89070,2,0,B|332:268|292:348,1,104,8|0
196,352,89550,2,0,B|112:272,1,104,2|0
44,196,90030,1,8
120,280,90270,1,0
176,180,90510,2,0,B|204:108|144:60,1,104,2|0
176,180,90990,6,0,B|292:260,1,104,6|0
348,312,91470,6,0,B|464:232,1,104,2|0
348,208,91950,54,0,B|348:312,1,104,2|0
236,336,92430,6,0,B|136:292,1,104,2|0
140,192,92910,54,0,B|140:324,1,104,2|0
16,192,93390,6,0,B|164:192,1,124.800002975464,2|0
256,132,93870,54,0,B|256:280,1,124.800002975464,2|0
371,192,94350,6,0,B|496:192,1,124.800002975464,2|0
444,124,94830,54,0,B|328:36,1,124.800002975464,2|0
320,132,95310,6,0,B|188:132,1,124.800002975464,2|0
167,48,95790,54,0,B|68:124,1,124.800002975464,2|0
100,244,96270,6,0,B|196:352,1,124.800002975464,2|0
329,337,96750,54,0,B|412:244,1,124.800002975464,2|0
256,372,97230,6,0,B|256:204,1,145.599996528626,2|0
256,12,97710,54,0,B|256:180,1,145.599996528626,2|0
456,192,98190,6,0,B|307:192,1,145.599996528626,2|0
56,192,98670,54,0,B|204:192,1,145.599996528626,2|0
432,56,99150,5,4
388,344,99630,1,0
124,344,100110,1,0
80,56,100590,1,8
256,192,101070,6,2,B|232:232|160:240|120:128|216:112,1,208,6|8
336,136,101790,1,0
448,88,102030,2,2,B|488:136|472:216|424:248|360:248,1,208,2|8
464,336,102750,2,2,B|416:376|336:360|304:312|304:248,1,208,2|0
296,248,103350,1,0
280,232,103470,1,8
264,224,103590,1,0
240,232,103710,1,0
224,240,103830,1,0
204,248,103950,1,2
184,248,104070,1,0
168,240,104190,1,2
152,224,104310,1,0
144,208,104430,1,2
140,188,104550,1,2
140,168,104670,1,2
144,152,104790,1,2
156,136,104910,1,6
216,48,105150,5,0
288,124,105390,2,0,B|360:152|416:108,1,104,8|0
340,32,105870,1,2
288,124,106110,1,0
288,228,106350,2,0,B|216:256|160:212,1,104,8|0
104,164,106830,1,6
20,224,107070,1,0
48,124,107310,22,0,B|48:48|136:48,1,104,2|0
212,52,107790,6,0,B|212:128|300:128,1,104,2|0
212,56,108270,54,0,B|212:132|124:132,1,104,2|0
132,232,108750,6,0,B|56:232|56:320,1,104,2|0
212,324,109230,54,0,B|288:324|288:236,1,104,2|0
372,204,109710,6,0,B|296:204|296:116,1,104,2|0
348,264,110190,54,0,B|424:264|424:352,1,104,2|0
364,140,110670,6,0,B|440:140|440:52,1,104,2|0
332,8,111150,54,0,B|256:8|252:88,1,104,2|0
180,8,111630,6,0,B|256:8|260:88,1,104,2|0
256,200,112110,54,0,B|256:316,1,104,2|0
140,344,112590,21,6
48,264,112830,2,2,B|128:200|68:96|8:100,1,208
16,188,113550,2,0,B|220:112,1,208,8|0
280,80,114270,2,2,B|212:76|168:152|192:200|228:244,1,208,2|0
228,244,114870,1,0
240,252,114990,1,8
256,256,115110,1,0
272,248,115230,1,0
284,236,115350,1,0
296,228,115470,1,2
308,220,115590,1,0
324,216,115710,1,2
340,220,115830,1,0
356,224,115950,1,2
372,228,116070,1,2
388,224,116190,1,2
400,212,116310,1,2
408,200,116430,1,6
408,84,116670,5,0
300,44,116910,2,0,B|284:112|200:100,1,104,8|0
132,96,117390,2,0,B|116:212,1,104,2|0
100,312,117870,1,8
188,240,118110,1,0
292,288,118350,2,0,B|344:300|376:280|384:232,1,104,2|0
424,144,118830,38,0,B|360:138|360:138|328:196,1,104,2|0
324,31,119310,54,0,B|280:76|280:76|304:138,1,104,2|0
174,37,119790,6,0,B|181:100|181:100|244:120,1,104,2|0
84,158,120270,54,0,B|138:192|138:192|193:155,1,104,2|0
122,304,120750,6,0,B|182:283|182:283|188:217,1,104,2|0
258,366,121230,54,0,B|280:307|280:307|233:260,1,104,2|0
393,299,121710,6,0,B|360:245|360:245|295:252,1,104,2|0
256,192,122190,5,4
256,192,122310,12,8,123630
308,224,124110,6,0,B|228:308|128:272|80:204|88:136,1,311.999990701676,6|2
92,144,125550,1,2
96,148,126030,1,2
100,152,126510,1,2
136,304,126750,1,0
256,276,126990,1,2
224,168,127230,1,0
180,236,127470,1,2
256,276,127710,1,0
276,212,127950,5,4
280,216,128430,1,2
284,220,128910,1,2
288,224,129390,1,2
292,228,129870,1,2
296,232,130350,1,2
400,56,130590,1,0
360,212,130830,1,2
340,76,131070,1,0
416,172,131310,1,2
292,124,131550,1,0
356,144,131790,5,4
256,180,132270,1,0
156,144,132750,1,4
256,180,133230,1,0
423,118,133710,5,4
256,180,134190,1,0
82,118,134670,1,4
256,180,135150,1,0
256,180,135630,5,4
144,352,136110,1,0
368,352,136590,1,0
256,180,137070,1,0
256,32,137550,1,0
116,52,138030,5,2
172,108,138270,1,0
228,164,138510,1,2
284,220,138750,1,2
340,276,138990,1,2
396,332,139230,1,2
256,352,139470,5,4
96,192,139950,1,0
256,32,140430,1,0
416,192,140910,1,0
256,352,141390,1,0
116,332,141870,5,2
172,276,142110,1,0
228,220,142350,1,2
284,164,142590,1,2
340,108,142830,1,2
396,52,143070,1,2
256,28,143310,21,4
256,356,143790,1,0
256,109,144270,1,0
256,274,144750,1,0
256,192,145230,1,4
256,192,145350,12,4,147150
32,96,150990,6,2,B|108:12|232:44,1,208,6|8
312,88,151710,1,0
380,168,151950,2,2,B|416:244|364:328|284:336,1,208
304,228,152670,2,0,B|488:332,1,208
504,344,153270,1,0
496,320,153390,1,8
492,296,153510,1,0
492,272,153630,1,0
492,248,153750,1,0
492,224,153870,1,2
472,208,153990,1,0
452,192,154110,1,2
440,172,154230,1,0
432,148,154350,1,2
408,148,154470,1,2
384,140,154590,1,2
360,128,154710,1,2
340,108,154830,1,6
224,64,155070,5,0
104,96,155310,2,0,B|48:156|116:212,1,104,8|0
168,288,155790,1,2
260,204,156030,1,0
320,312,156270,2,8,B|388:316|416:228,1,104,8|0
444,144,156750,2,0,B|340:104,1,104,6|0
232,52,157230,6,0,B|160:72|168:148,1,104,2|0
44,132,157710,6,0,B|116:112|108:36,1,104,2|0
132,184,158190,54,0,B|204:204|196:280,1,104,2|0
320,240,158670,6,0,B|248:220|256:144,1,104,2|0
384,96,159150,54,0,B|312:116|320:192,1,104,2|0
452,240,159630,6,0,B|380:220|388:144,1,104,2|0
452,240,160110,54,0,B|380:260|388:336,1,104,2|0
256,280,160590,6,0,B|236:352|160:344,1,104,2|0
256,280,161070,54,0,B|184:260|192:184,1,104,2|0
256,280,161550,6,0,B|276:208|352:216,1,104,2|0
256,280,162030,54,0,B|328:300|320:376,1,104,2|0
184,364,162510,21,6
80,304,162750,2,2,B|152:260|148:168|104:112,1,208
40,216,163470,2,2,B|108:265|191:225|226:163,1,208,2|8
320,84,164190,2,2,B|440:268,1,208,2|0
444,280,164790,1,0
432,304,164910,1,8
412,320,165030,1,0
388,324,165150,1,0
364,320,165270,1,0
340,308,165390,1,2
316,300,165510,1,0
292,296,165630,1,2
268,300,165750,1,0
244,304,165870,1,2
224,320,165990,1,2
208,340,166110,1,2
184,348,166230,1,2
160,336,166350,1,6
48,284,166590,5,0
52,160,166830,2,8,B|116:152|140:92,1,104,8|0
256,76,167310,2,2,B|356:152,1,104,2|0
376,260,167790,2,8,B|312:252|288:192,1,104,8|0
172,176,168270,2,2,B|72:252,1,104,6|0
128,356,168750,22,0,B|232:296,1,104,2|0
384,356,169230,6,0,B|280:296,1,104,2|0
128,272,169710,54,0,B|232:212,1,104,2|0
384,272,170190,6,0,B|280:212,1,104,2|0
128,180,170670,54,0,B|232:120,1,104,2|0
384,180,171150,6,0,B|280:120,1,104,2|0
256,44,171630,53,2
256,340,172110,21,6
256,192,172230,12,8,173550
256,44,174030,37,6
