osu file format v9

[General]
AudioFilename: Sky Ferreira - One.mp3
AudioLeadIn: 0
PreviewTime: 33870
Countdown: 1
SampleSet: Normal
StackLeniency: 0.7
Mode: 0
LetterboxInBreaks: 0

[Editor]
DistanceSpacing: 1
BeatDivisor: 4
GridSize: 4

[Metadata]
Title:One
Artist:Sky Ferreira
Creator:Larto
Version:Easy
Source:
Tags:

[Difficulty]
HPDrainRate:1
CircleSize:3
OverallDifficulty:2
ApproachRate:2
SliderMultiplier:1.28
SliderTickRate:2

[Events]
//Background and Video events
0,0,"25_PurpleSky_scenic_wallpaper_x.jpg"
//Break Periods
2,59030,72630
//Storyboard Layer 0 (Background)
//Storyboard Layer 1 (Fail)
//Storyboard Layer 2 (Pass)
//Storyboard Layer 3 (Foreground)
//Storyboard Sound Samples
//Background Colour Transformations
3,100,163,162,255
3,147150,255,255,255
3,147630,205,205,205
3,147870,0,0,0

[TimingPoints]
270,480,4,1,0,60,1,0
8910,480,4,1,0,60,1,0
19470,480,4,1,0,60,1,0
28110,480,4,1,0,60,1,0
28110,-83.3333333333333,4,1,0,60,0,0
31830,-71.4285714285714,4,1,0,60,0,0
35790,-100,4,1,0,60,0,1
58830,-100,4,1,0,60,0,0
84750,480,4,1,0,60,1,0
93390,480,4,1,0,60,1,0
93390,-83.3333333333333,4,1,0,60,0,0
97110,-71.4285714285714,4,1,0,60,0,0
101070,-100,4,1,0,60,0,1
124050,-200,4,1,0,60,0,0
124110,-133.333333333333,4,1,0,60,0,1
125070,-133.333333333333,4,2,0,60,0,0
135390,-100,4,1,0,60,0,0
135630,-100,4,1,0,60,0,1
135750,-100,4,1,0,60,0,0
138150,-100,4,2,0,60,0,0
138390,-100,4,1,0,60,0,0
139110,-100,4,2,0,60,0,0
139350,-100,4,1,0,60,0,0
141990,-133.333333333333,4,2,0,60,0,0
142230,-100,4,1,0,60,0,0
142950,-100,4,2,0,60,0,0
143190,-100,4,1,0,60,0,0
150990,-100,4,1,0,60,0,1
174030,-100,4,1,0,60,0,0

[Colours]
Combo1 : 255,174,243
Combo2 : 191,121,255
Combo3 : 214,214,254
Combo4 : 253,153,153
Combo5 : 253,153,153

[HitObjects]
144,128,8910,5,4
256,52,9390,1,8
368,128,9870,1,2
256,196,10350,1,8
192,312,10830,2,0,B|320:312,1,128,6|2
460,312,11790,6,0,B|464:144|312:132,1,256,0|4
180,180,13230,38,8,B|188:308,1,128,8|2
324,308,14190,2,8,B|332:180,1,128,8|2
324,40,15150,37,2
256,164,15630,5,2
188,40,16110,53,2
328,120,16590,5,2
184,120,17070,53,2
80,228,17550,6,4,B|84:340|176:376|256:420|336:376|428:340|432:228,1,512,4|4
344,100,19950,5,8
256,192,20430,1,2
168,100,20910,1,8
60,188,21390,2,0,B|60:328,1,128,4|2
172,228,22350,6,2,B|180:304|256:340|336:304|340:228,1,256,2|4
256,148,23790,6,0,B|256:4,2,128,8|2|8
256,268,25230,1,2
132,192,25710,5,2
172,328,26190,5,2
340,328,26670,53,2
380,192,27150,5,2
256,92,27630,53,2
96,64,28110,6,4,B|28:116|-12:192|28:268|96:320,1,307.200007324219,4|2
256,280,29550,53,2
416,320,30030,6,4,B|484:268|524:192|484:116|416:64,1,307.200007324219,4|2
256,104,31470,53,2
84,192,31950,6,2,B|108:268|196:288|240:268,1,179.199995727539
428,304,32910,54,2,B|404:228|316:208|272:228,1,179.199995727539
140,124,33870,5,2
192,248,34350,1,2
320,248,34830,1,2
372,124,35310,1,8
260,40,35790,6,6,B|192:116|104:128|24:100,1,256,6|2
124,288,37470,1,2
196,168,37950,5,0
256,220,38190,2,0,B|364:308,1,128,8|2
256,220,39150,2,0,B|148:308,1,128,2|2
136,160,40110,5,8
256,80,40590,1,2
376,160,41070,1,8
372,300,41550,1,2
256,376,42030,6,0,B|108:376,1,128,2|2
192,256,42990,6,0,B|340:256,1,128,2|2
384,136,43950,54,0,B|236:136,1,128,2|2
128,136,44910,5,2
176,16,45390,53,6
336,16,45870,5,2
384,136,46350,53,2
336,256,46830,5,2
176,256,47310,5,6
100,240,47550,2,2,B|28:212|12:112|48:56,2,192
200,160,49470,5,0
256,220,49710,2,0,B|148:308,1,128,8|2
256,220,50670,2,0,B|364:308,1,128,2|2
408,156,51630,5,8
328,36,52110,1,6
184,36,52590,1,8
104,156,53070,1,2
76,296,53550,6,0,B|216:340,1,128,2|2
313,334,54510,6,0,B|436:296,1,128,2|2
404,160,55470,53,2
256,192,55950,5,2
108,160,56430,53,2
256,192,56910,12,2,58830
256,192,74190,21,4
128,256,74670,1,8
176,128,75150,2,2,B|208:80|256:72|304:80|336:128,1,192,2|0
368,200,76110,1,4
256,280,76590,1,8
144,200,77070,6,0,B|80:200|24:112|80:24|144:24,1,256,0|4
256,104,78510,5,8
328,224,78990,1,2
184,224,79470,1,8
256,344,79950,1,2
392,312,80430,5,2
472,192,80910,5,2
392,72,81390,53,2
256,128,81870,6,0,B|256:256,1,128,2|2
120,312,82830,53,2
40,192,83310,5,2
120,72,83790,53,2
256,128,84270,5,2
384,184,84750,6,0,B|488:160|496:40|480:32,1,192,4|0
408,40,85710,1,2
256,40,86190,1,8
104,40,86670,1,2
176,160,87150,1,8
336,160,87630,6,0,B|344:208|256:320|168:208|176:160,1,256,0|4
288,64,89070,5,8
432,80,89550,1,2
456,216,90030,1,8
336,288,90510,1,2
176,288,90990,5,6
256,168,91470,5,2
336,288,91950,53,2
336,144,92430,5,2
176,144,92910,53,2
32,64,93390,6,0,B|96:16|208:88|280:24,1,230.400005493164,4|0
336,48,94350,53,2
464,160,94830,5,2
480,320,95310,54,0,B|416:368|304:296|232:360,1,230.400005493164,4|0
176,336,96270,5,2
48,224,96750,53,2
184,128,97230,6,0,B|328:16,1,179.199995727539,6|2
184,16,98190,54,0,B|328:128,1,179.199995727539,6|2
432,192,99150,5,4
320,248,99630,1,0
192,248,100110,1,0
80,192,100590,1,8
136,80,101070,6,6,B|231:115|315:84|372:22,1,256,6|2
472,208,102750,1,2
316,168,103230,5,0
256,220,103470,2,0,B|148:308,1,128,8|2
256,220,104430,2,0,B|364:308,1,128,2|2
376,160,105390,5,8
256,80,105870,1,2
136,160,106350,1,8
140,300,106830,1,2
256,376,107310,6,0,B|404:376,1,128,2|2
320,256,108270,6,0,B|172:256,1,128,2|2
128,136,109230,54,0,B|276:136,1,128,2|2
384,136,110190,5,2
336,16,110670,53,6
176,16,111150,5,2
128,136,111630,53,2
176,256,112110,5,2
336,256,112590,5,6
412,240,112830,2,2,B|484:212|500:112|464:56,2,192
312,160,114750,5,0
256,220,114990,2,0,B|364:308,1,128,8|2
256,220,115950,2,0,B|148:308,1,128,2|2
104,156,116910,5,8
184,36,117390,1,6
328,36,117870,1,8
408,156,118350,1,2
436,296,118830,6,0,B|296:340,1,128,2|2
199,334,119790,6,0,B|76:296,1,128,2|2
108,160,120750,53,2
256,192,121230,5,2
404,160,121710,53,2
256,192,122190,12,6,124110
112,136,125070,21,2
208,80,125550,1,2
304,136,126030,1,2
400,80,126510,2,2,B|448:128|480:184|448:248|400:288,1,239.999992847443
340,336,127950,5,4
256,264,128430,1,0
172,336,128910,1,2
192,224,129390,1,0
320,224,129870,1,0
364,108,130350,6,2,B|336:24|256:8|176:24|148:108,1,287.999991416931,2|6
120,240,132270,5,0
256,240,132750,1,2
392,240,133230,1,0
460,128,133710,5,2
324,128,134190,1,0
188,128,134670,1,2
52,128,135150,1,0
168,48,135630,5,0
120,180,136110,1,0
168,312,136590,1,0
216,180,137070,1,0
168,48,137550,1,0
296,108,138030,5,2
396,256,138510,1,2
496,108,138990,1,8
344,48,139470,5,0
392,180,139950,1,0
344,312,140430,1,0
296,180,140910,1,0
344,48,141390,1,0
216,108,141870,37,2
116,256,142350,1,2
16,108,142830,1,8
168,184,143310,6,0,B|256:276,1,128,0|0
344,184,144270,2,0,B|256:276,1,128,0|0
256,192,145230,12,4,147150
40,60,150990,6,0,B|16:136|60:192|68:184,1,128,6|8
216,236,151950,2,2,B|284:208|316:152|296:64,1,192
76,192,153390,37,8
172,328,153870,1,0
340,328,154350,1,2
436,192,154830,1,6
292,168,155310,6,0,B|324:220|304:288|272:304,1,128,8|2
212,176,156270,2,0,B|180:124|200:56|232:40,1,128,8|2
304,4,157230,21,2
398,62,157710,5,2
445,160,158190,53,2
432,270,158670,5,2
361,352,159150,53,2
256,384,159630,5,2
150,353,160110,53,2
79,270,160590,5,2
64,161,161070,53,2
111,62,161550,5,2
205,5,162030,53,2
256,116,162510,21,6
192,164,162750,2,2,B|132:204|56:184|24:120,2,192
300,324,164910,6,0,B|436:244,1,128,8|2
288,224,165870,2,2,B|152:144,1,128,2|2
80,76,166830,5,8
196,20,167310,2,0,B|212:92|276:104|308:92,1,128,2|8
408,56,168270,1,6
356,172,168750,5,2
256,252,169230,5,2
156,172,169710,53,2
296,124,170190,5,2
340,268,170670,53,2
172,268,171150,5,2
216,124,171630,53,2
256,192,172110,12,6,174030
