osu file format v12

[General]
AudioFilename: Skullee - Nyanskull (FTL EP) [MOOMBAH] [FD] (HD-720p).mp3
AudioLeadIn: 0
PreviewTime: 18544
Countdown: 1
SampleSet: Normal
StackLeniency: 0.7
Mode: 0
LetterboxInBreaks: 1
WidescreenStoryboard: 1

[Editor]
Bookmarks: 33544,35998,53453,61634,79634,88362,114544,188725
DistanceSpacing: 0.9
BeatDivisor: 4
GridSize: 16

[Metadata]
Title:Nyanskull
TitleUnicode:Nyanskull
Artist:Skullee
ArtistUnicode:Skullee
Creator:T_Terry_T
Version:Normal - Version 1
Source:Internet
Tags:nyancat nyan cat
BeatmapID:321172
BeatmapSetID:126385

[Difficulty]
HPDrainRate:5
CircleSize:5
OverallDifficulty:5
ApproachRate:5
SliderMultiplier:1.5
SliderTickRate:3

[Events]
//Background and Video events
0,0,"Background - ____nyan_cat_mountain_lion___wallpaper_by_sonyrootkit-d4q0umz.jpg",0,0
//Break Periods
2,33470,34798
2,79289,87162
//Storyboard Layer 0 (Background)
//Storyboard Layer 1 (Fail)
//Storyboard Layer 2 (Pass)
//Storyboard Layer 3 (Foreground)
//Storyboard Sound Samples
//Background Colour Transformations
3,100,163,162,255

[TimingPoints]
1090,545.454545454546,4,1,0,5,1,0
1090,-200,4,1,0,0,0,0
18544,-100,4,1,0,0,0,0
53453,-100,4,1,0,0,0,0
61634,-100,4,1,0,0,0,1
61907,-100,4,1,0,0,0,0

[Colours]
Combo1 : 100,50,255
Combo2 : 254,0,0
Combo3 : 253,155,0
Combo4 : 255,255,0
Combo5 : 50,255,0
Combo6 : 0,55,255

[HitObjects]
192,96,1090,2,0,L|192:192,5,75
192,224,4362,1,0,0:0:0:0:
192,288,4908,1,0,0:0:0:0:
320,288,5453,2,0,L|320:213,5,75
320,160,8725,1,0,0:0:0:0:
320,96,9271,1,0,0:0:0:0:
224,96,9817,6,0,L|176:176,5,75
160,224,13089,1,0,0:0:0:0:
208,272,13635,1,0,0:0:0:0:
288,288,14180,2,0,L|326:223,5,75
352,160,17452,1,0,0:0:0:0:
304,112,17998,1,0,0:0:0:0:
256,64,18545,6,0,L|144:176,1,150
128,208,19362,1,0,0:0:0:0:
176,256,19634,2,0,L|282:149,1,150
304,112,20451,1,0,0:0:0:0:
256,64,20725,2,0,L|144:176,1,150
128,208,21542,1,0,0:0:0:0:
176,256,21816,2,0,P|240:224|272:160,2,131.25
160,240,22907,6,0,L|266:133,1,150
288,112,23725,1,0,0:0:0:0:
336,176,23998,2,0,L|229:282,1,150
208,304,24816,1,0,0:0:0:0:
160,240,25089,2,0,L|266:133,1,150
288,112,25907,1,0,0:0:0:0:
352,160,26181,2,0,B|240:272|240:272|128:272,1,262.5
112,256,27271,6,0,L|224:144,1,150
240,128,28088,1,0,0:0:0:0:
304,176,28362,2,0,L|197:282,1,150
176,304,29179,1,0,0:0:0:0:
112,256,29453,2,0,L|224:144,1,150
240,128,30270,1,0,0:0:0:0:
269,190,30544,2,0,P|234:244|176:272,2,131.25
288,208,31633,6,0,L|182:315,1,150
160,336,32451,1,0,0:0:0:0:
112,288,32725,2,0,L|218:181,1,150
288,304,35998,6,0,L|208:304,1,75
144,304,36544,1,0,0:0:0:0:
144,224,37089,2,0,L|144:144,1,75
144,80,37634,1,0,0:0:0:0:
224,80,38180,2,0,L|304:80,1,75
368,80,38726,1,0,0:0:0:0:
368,160,39271,2,0,L|368:296,2,131.25
368,80,40362,6,0,L|293:80,1,75
224,80,40908,1,0,0:0:0:0:
144,80,41453,2,0,L|144:155,1,75
144,224,41998,1,0,0:0:0:0:
144,304,42544,2,0,L|219:304,1,75
288,304,43090,1,0,0:0:0:0:
368,304,43634,2,0,P|416:256|368:224,2,131.25
320,256,44725,5,0,0:0:0:0:
320,192,44998,1,0,0:0:0:0:
320,128,45270,1,0,0:0:0:0:
320,128,45816,1,0,0:0:0:0:
256,128,46089,1,0,0:0:0:0:
192,128,46362,1,0,0:0:0:0:
192,128,46907,1,0,0:0:0:0:
192,192,47180,1,0,0:0:0:0:
192,256,47453,1,0,0:0:0:0:
256,256,47998,1,0,0:0:0:0:
320,256,48544,1,0,0:0:0:0:
320,256,49089,5,0,0:0:0:0:
288,224,49362,1,0,0:0:0:0:
256,192,49634,1,0,0:0:0:0:
320,128,50180,1,0,0:0:0:0:
288,160,50453,1,0,0:0:0:0:
256,192,50725,1,0,0:0:0:0:
192,128,51270,1,0,0:0:0:0:
224,160,51543,1,0,0:0:0:0:
256,192,51816,1,0,0:0:0:0:
192,256,52361,1,0,0:0:0:0:
224,224,52634,1,0,0:0:0:0:
256,192,52907,1,0,0:0:0:0:
256,192,53180,1,0,0:0:0:0:
256,192,53453,12,0,61634,0:0:0:0:
256,32,62180,5,0,0:0:0:0:
256,112,62453,1,0,0:0:0:0:
256,192,62725,1,0,0:0:0:0:
176,256,63271,2,0,L|336:256,1,150
336,256,64362,1,0,0:0:0:0:
256,256,64635,1,0,0:0:0:0:
176,256,64908,1,0,0:0:0:0:
176,160,65454,1,0,0:0:0:0:
256,192,65999,1,0,0:0:0:0:
256,352,66544,5,0,0:0:0:0:
256,272,66817,1,0,0:0:0:0:
256,192,67089,1,0,0:0:0:0:
176,128,67635,2,0,L|336:128,1,150
336,128,68725,1,0,0:0:0:0:
256,128,68998,1,0,0:0:0:0:
176,128,69271,1,0,0:0:0:0:
176,224,69817,1,0,0:0:0:0:
256,192,70362,1,0,0:0:0:0:
416,192,70907,5,0,0:0:0:0:
336,192,71180,1,0,0:0:0:0:
256,192,71453,1,0,0:0:0:0:
176,112,71998,2,0,L|176:272,1,150
176,272,73089,1,0,0:0:0:0:
176,192,73362,1,0,0:0:0:0:
176,112,73634,1,0,0:0:0:0:
288,112,74180,1,0,0:0:0:0:
256,192,74725,1,0,0:0:0:0:
96,192,75271,5,0,0:0:0:0:
176,192,75544,1,0,0:0:0:0:
256,192,75817,1,0,0:0:0:0:
336,112,76362,2,0,L|336:272,1,150
336,272,77453,1,0,0:0:0:0:
336,192,77726,1,0,0:0:0:0:
336,112,77998,1,0,0:0:0:0:
224,112,78544,1,0,0:0:0:0:
256,192,79089,1,0,0:0:0:0:
80,48,88362,6,0,L|192:160,1,150
192,160,89453,2,0,L|304:272,1,150
304,272,90544,1,0,0:0:0:0:
384,272,91088,1,0,0:0:0:0:
304,272,91634,1,0,0:0:0:0:
224,272,92180,1,0,0:0:0:0:
432,48,92725,6,0,L|320:160,1,150
320,160,93816,2,0,L|208:272,1,150
208,272,94907,1,0,0:0:0:0:
128,272,95451,1,0,0:0:0:0:
208,272,95997,1,0,0:0:0:0:
288,272,96544,1,0,0:0:0:0:
80,336,97089,6,0,L|192:224,1,150
192,224,98180,2,0,L|304:112,1,150
304,112,99271,1,0,0:0:0:0:
384,112,99815,1,0,0:0:0:0:
304,112,100361,1,0,0:0:0:0:
224,112,100907,1,0,0:0:0:0:
432,336,101452,6,0,L|320:224,1,150
320,224,102543,2,0,L|208:112,1,150
208,112,103634,1,0,0:0:0:0:
128,112,104178,1,0,0:0:0:0:
208,112,104724,1,0,0:0:0:0:
288,112,105271,1,0,0:0:0:0:
256,192,105816,5,0,0:0:0:0:
256,192,106362,1,0,0:0:0:0:
256,192,106907,1,0,0:0:0:0:
256,192,107453,1,0,0:0:0:0:
256,88,107998,2,0,L|312:200,1,112.5
306,195,108544,2,0,L|256:296,1,112.5
256,296,109089,2,0,L|200:184,1,112.5
205,188,109634,2,0,L|256:88,1,112.5
256,144,110180,5,0,0:0:0:0:
256,192,110453,1,0,0:0:0:0:
208,192,110725,1,0,0:0:0:0:
256,192,110998,1,0,0:0:0:0:
256,240,111271,1,0,0:0:0:0:
256,192,111544,1,0,0:0:0:0:
304,192,111816,1,0,0:0:0:0:
256,192,112089,1,0,0:0:0:0:
256,192,112362,12,0,114407,0:0:0:0:
104,96,114544,6,0,L|256:96,1,150
256,144,115634,2,0,L|408:144,1,150
400,192,116725,2,0,L|250:192,1,150
256,192,117408,12,0,118634,0:0:0:0:
256,192,118907,6,0,L|144:80,1,150
128,64,119725,1,0,0:0:0:0:
128,64,119998,2,0,L|234:170,1,150
256,192,120816,1,0,0:0:0:0:
256,192,121089,2,0,L|144:80,1,150
144,80,121907,1,0,0:0:0:0:
144,80,122180,1,0,0:0:0:0:
256,192,122725,1,0,0:0:0:0:
256,192,123271,6,0,L|368:80,1,150
384,64,124089,1,0,0:0:0:0:
384,64,124362,2,0,L|277:170,1,150
256,192,125180,1,0,0:0:0:0:
256,192,125453,2,0,L|368:80,1,150
368,80,126271,1,0,0:0:0:0:
368,80,126544,1,0,0:0:0:0:
256,192,127089,1,0,0:0:0:0:
256,192,127634,6,0,L|368:304,1,150
384,320,128452,1,0,0:0:0:0:
384,320,128725,2,0,L|277:213,1,150
256,192,129543,1,0,0:0:0:0:
256,192,129816,2,0,L|368:304,1,150
368,304,130634,1,0,0:0:0:0:
368,304,130907,1,0,0:0:0:0:
256,192,131452,1,0,0:0:0:0:
256,192,131998,6,0,L|144:304,1,150
128,320,132816,1,0,0:0:0:0:
128,320,133089,2,0,L|234:213,1,150
234,213,133771,2,0,P|448:192|240:96,1,600
96,80,136362,6,0,B|96:144|128:192|208:192,5,150
256,192,139634,1,0,0:0:0:0:
256,128,139907,1,0,0:0:0:0:
256,64,140180,1,0,0:0:0:0:
336,64,140452,1,0,0:0:0:0:
416,80,140725,6,0,B|416:144|384:192|304:192,5,150
256,192,143998,1,0,0:0:0:0:
256,256,144271,1,0,0:0:0:0:
256,320,144544,1,0,0:0:0:0:
176,320,144816,1,0,0:0:0:0:
96,304,145089,6,0,B|96:240|128:192|208:192,5,150
256,192,148362,1,0,0:0:0:0:
256,256,148635,1,0,0:0:0:0:
256,320,148908,1,0,0:0:0:0:
336,320,149180,1,0,0:0:0:0:
416,304,149453,6,0,B|416:240|384:192|304:192,5,150
256,192,152726,1,0,0:0:0:0:
256,128,152999,1,0,0:0:0:0:
256,64,153272,1,0,0:0:0:0:
176,64,153544,1,0,0:0:0:0:
115,120,153816,6,0,P|81:216|176:256,1,225
224,208,154907,1,0,0:0:0:0:
224,272,155453,1,0,0:0:0:0:
288,288,155998,2,0,P|368:224|288:160,1,225
240,112,157089,1,0,0:0:0:0:
176,64,157634,1,0,0:0:0:0:
176,128,158180,6,0,P|96:192|176:256,1,225
224,208,159271,1,0,0:0:0:0:
224,272,159816,1,0,0:0:0:0:
288,288,160362,2,0,P|368:224|288:160,1,225
256,112,161453,2,0,B|192:96|192:96|208:32,2,131.25
288,112,162544,6,0,P|368:176|288:240,1,225
224,192,163635,1,0,0:0:0:0:
224,256,164180,1,0,0:0:0:0:
160,272,164726,2,0,P|80:208|160:144,1,225
208,96,165816,1,0,0:0:0:0:
288,144,166361,1,0,0:0:0:0:
336,192,166907,6,0,P|416:256|336:320,1,225
288,272,167998,1,0,0:0:0:0:
288,336,168543,1,0,0:0:0:0:
224,352,169089,2,0,P|144:288|224:224,1,225
272,192,170180,1,0,0:0:0:0:
320,144,170453,1,0,0:0:0:0:
256,144,170725,1,0,0:0:0:0:
192,144,170998,1,0,0:0:0:0:
160,96,171271,6,0,L|320:96,1,150
336,96,172089,1,0,0:0:0:0:
368,96,172362,2,0,L|368:256,1,150
368,288,173180,1,0,0:0:0:0:
336,288,173453,2,0,L|176:288,1,150
144,288,174271,1,0,0:0:0:0:
144,256,174544,2,0,B|134:112|310:208|294:80,1,262.5
336,80,175634,6,0,L|176:80,1,150
160,80,176452,1,0,0:0:0:0:
160,112,176725,2,0,L|160:272,1,150
160,304,177543,1,0,0:0:0:0:
192,304,177816,2,0,L|352:304,1,150
368,304,178634,1,0,0:0:0:0:
368,256,178907,2,0,B|378:112|202:208|218:80,1,262.5
160,64,179998,6,0,L|320:64,1,150
336,64,180816,1,0,0:0:0:0:
336,96,181089,2,0,L|336:256,1,150
336,288,181907,1,0,0:0:0:0:
304,288,182180,2,0,L|144:288,1,150
160,240,182998,1,0,0:0:0:0:
198,160,183271,1,0,0:0:0:0:
304,144,183816,1,0,0:0:0:0:
256,192,184362,12,0,188725,0:0:0:0:
