osu file format v11

[General]
AudioFilename: Skrillex Summit (feat. Ellie Goulding).mp3
AudioLeadIn: 1004
PreviewTime: 252341
Countdown: 0
SampleSet: Soft
StackLeniency: 0.3
Mode: 0
LetterboxInBreaks: 0
EpilepsyWarning: 1

[Editor]
Bookmarks: 188596,219774,308917,336346
DistanceSpacing: 1.1
BeatDivisor: 4
GridSize: 4

[Metadata]
Title:Summit (feat. Ellie Goulding)
TitleUnicode:Summit (feat. Ellie Goulding)
Artist:Skrillex
ArtistUnicode:Skrillex
Creator:VelperK
Version:Verdi's Summit
Source:
Tags:dubstep electro bangarang EP 4 LSD verdisphena sonny moore
BeatmapID:212985
BeatmapSetID:74487

[Difficulty]
HPDrainRate:8
CircleSize:4
OverallDifficulty:8
ApproachRate:8
SliderMultiplier:1.6
SliderTickRate:1

[Events]
//Background and Video events
0,0,"Awesome.jpg"
Video,0,"Skrillex!.avi"
//Break Periods
2,55203,61310
2,113045,116167
2,119902,123024
2,126759,129881
2,165117,171024
2,219974,224596
2,226831,232738
//Storyboard Layer 0 (Background)
//Storyboard Layer 1 (Fail)
//Storyboard Layer 2 (Pass)
//Storyboard Layer 3 (Foreground)
//Storyboard Sound Samples
//Background Colour Transformations
3,100,255,255,128

[TimingPoints]
346,428.571428571429,4,2,0,60,1,0
32917,-200,4,2,0,60,0,0
34631,-100,4,2,0,60,0,0
62060,-100,4,3,0,15,0,0
63988,-133.333333333333,4,3,0,15,0,0
65381,-133.333333333333,4,3,0,5,0,0
67203,-133.333333333333,4,2,0,10,0,0
67417,-133.333333333333,4,2,0,20,0,0
67631,-133.333333333333,4,2,0,30,0,0
67846,-133.333333333333,4,2,0,40,0,0
68060,-133.333333333333,4,2,0,50,0,0
68274,-133.333333333333,4,2,0,60,0,0
68917,-117.647058823529,4,2,0,60,0,0
72346,-100,4,3,0,20,0,0
75774,-117.647058823529,4,2,0,60,0,0
79203,-200,4,3,0,20,0,0
80060,-200,4,3,0,30,0,0
80917,-200,4,3,0,40,0,0
81774,-200,4,3,0,50,0,0
82417,-100,4,2,0,60,0,0
82631,-100,4,2,0,60,0,1
83060,-100,4,2,0,60,0,0
89488,-100,4,2,0,60,0,1
89917,-100,4,2,0,60,0,0
96346,-100,4,2,0,60,0,1
96774,-100,4,2,0,60,0,0
103203,-100,4,2,0,60,0,1
103631,-100,4,2,0,60,0,0
111774,-200,4,2,0,60,0,0
130631,-133.333333333333,4,2,0,60,0,0
134060,-100,4,2,0,60,0,0
163203,-200,4,3,0,60,0,0
171560,-200,4,2,0,60,0,0
175203,-200,4,3,0,5,0,0
178417,-133.333333333333,4,2,0,60,0,0
182060,-200,4,3,0,20,0,0
185488,-133.333333333333,4,2,0,60,0,0
188917,-200,4,3,0,20,0,0
189774,-200,4,3,0,30,0,0
190631,-200,4,3,0,40,0,0
191488,-200,4,3,0,50,0,0
192346,-83.3333333333333,4,1,0,70,0,1
197488,-83.3333333333333,4,1,0,70,0,0
199203,-83.3333333333333,4,1,0,70,0,1
202631,-83.3333333333333,4,1,0,70,0,0
206060,-83.3333333333333,4,1,0,80,0,1
209488,-83.3333333333333,4,1,0,80,0,0
212917,-83.3333333333333,4,1,0,80,0,1
216346,-83.3333333333333,4,1,0,80,0,0
219774,-83.3333333333333,4,1,0,80,0,1
220631,-83.3333333333333,4,2,0,5,0,0
225024,-83.3333333333333,4,2,0,15,0,0
226631,-133.333333333333,4,3,0,25,0,0
232203,-133.333333333333,4,3,0,20,0,0
247310,-133.333333333333,4,3,0,5,0,0
254060,-100,4,2,0,30,0,0
267774,-100,4,2,0,50,0,0
279774,-200,4,1,0,50,0,0
281488,-100,4,1,0,70,0,1
308917,-100,4,2,0,70,0,0
309774,-200,4,2,0,70,0,0
310631,-100,4,2,0,70,0,0
312774,-133.333333333333,4,2,0,70,0,0
314060,-100,4,2,0,70,0,0
316631,-200,4,2,0,70,0,0
317488,-100,4,2,0,70,0,0
319631,-133.333333333333,4,2,0,70,0,0
320917,-100,4,2,0,70,0,0
322631,-133.333333333333,4,2,0,70,0,0
333346,-133.333333333333,4,2,0,5,0,0

[Colours]
Combo1 : 64,128,128
Combo2 : 128,255,128
Combo3 : 0,255,255
Combo4 : 0,0,64
Combo5 : 128,64,0

[HitObjects]
136,208,27774,1,0,1:0:0
224,200,27988,1,0,0:0:0
48,200,28203,2,0,P|32:288,1,80,2|0,0:0|0:0,0:0:0
136,208,28631,2,0,P|104:40,1,160,8|2,1:0|0:0,0:0:0
224,200,29274,5,0,0:0:0
312,208,29488,2,0,P|336:376,1,160,0|2,1:0|0:0,0:0:0
224,200,30131,2,0,P|256:96,1,80,0|8,0:0|1:0,0:0:0
400,232,30560,2,0,P|474:311,1,80,0|2,0:0|0:0,0:0:0
224,352,30988,2,0,P|117:376,1,80,0|0,0:0|1:0,0:0:0
145,369,31631,5,2,0:0:0
112,288,31846,1,0,0:0:0
240,160,32060,1,8,1:0:0
206,241,32275,1,0,0:0:0
72,160,32488,1,2,0:0:0
38,79,32703,1,0,0:0:0
240,160,32917,5,4,0:0:0
320,112,33131,2,0,P|304:64,1,40,2|0,0:0|1:0,0:0:0
392,176,33560,2,0,P|379:213,1,40,2|4,0:0|0:0,0:0:0
456,272,33988,1,2,0:0:0
504,168,34203,1,8,1:0:0
440,56,34417,1,2,0:0:0
504,168,34631,5,4,1:0:0
456,272,34846,1,0,0:0:0
352,328,35060,2,0,P|256:312,1,80,2|0,0:0|0:0,0:0:0
456,272,35488,1,8,1:0:0
273,314,35917,1,2,0:0:0
248,232,36131,1,0,0:0:0
256,144,36346,6,0,P|248:40,1,80,0|0,1:0|0:0,0:0:0
136,184,36774,2,0,P|142:263,1,80,2|0,0:0|0:0,0:0:0
16,352,37203,2,0,P|22:272,1,80,8|0,1:0|0:0,0:0:0
56,48,37631,2,0,P|49:127,1,80,2|0,0:0|0:0,0:0:0
136,184,38060,5,0,1:0:0
360,128,38488,1,2,0:0:0
272,128,38703,1,0,0:0:0
232,208,38917,2,0,P|240:248|232:304,1,80,8|0,1:0|0:0,0:0:0
184,104,39346,2,0,P|180:65|188:25,1,80,2|0,0:0|0:0,0:0:0
232,208,39774,5,4,0:0:0
280,280,39988,1,2,0:0:0
360,240,40203,1,8,1:0:0
360,240,40310,1,0,0:0:0
360,240,40417,1,2,0:0:0
320,160,40631,1,4,0:0:0
184,296,40846,2,0,P|200:336|232:376,2,80,2|8|2,0:0|1:0|0:0,0:0:0
408,160,41488,6,0,P|432:192|448:240,1,80,4|0,1:0|0:0,0:0:0
392,320,41917,2,0,P|352:324|302:314,1,80,2|0,0:0|0:0,0:0:0
272,232,42346,2,0,P|287:195|321:157,2,80,8|0|2,1:0|0:0|0:0,0:0:0
184,224,42988,1,0,0:0:0
184,224,43203,6,0,P|104:216|24:192,1,160,0|2,1:0|0:0,0:0:0
27,193,43846,2,8,P|32:152|32:104,1,80,0|8,0:0|1:0,0:0:0
232,56,44274,2,0,P|232:94|236:135,1,80,0|2,0:0|0:0,0:0:0
304,192,44703,1,0,0:0:0
392,216,44917,5,0,1:0:0
392,216,45346,1,2,0:0:0
248,272,45560,1,0,0:0:0
272,112,45774,1,0,1:0:0
344,328,45988,5,0,0:0:0
400,96,46203,1,2,0:0:0
160,184,46417,1,0,0:0:0
344,344,46631,6,0,P|456:360,1,80,4|2,0:0|0:0,0:0:0
152,168,47060,2,0,P|82:256,1,80,8|2,1:0|0:0,0:0:0
416,88,47488,2,0,P|373:-16,1,80,6|2,0:0|0:0,0:0:0
344,344,47917,2,0,P|456:360,1,80,0|2,0:0|0:0,0:0:0
272,296,48346,5,4,1:0:0
144,280,48560,1,0,0:0:0
24,328,48774,2,0,P|8:240,1,80,2|0,0:0|0:0,0:0:0
48,96,49203,5,8,1:0:0
176,48,49417,1,0,0:0:0
304,88,49631,2,0,P|320:176,1,80,2|0,0:0|0:0,0:0:0
324,296,50060,5,0,1:0:0
420,194,50274,1,0,0:0:0
131,199,50488,5,2,0:0:0
171,333,50702,1,0,0:0:0
312,80,50917,5,8,1:0:0
176,48,51131,1,0,0:0:0
256,192,51346,5,2,0:0:0
256,192,51560,1,0,0:0:0
420,194,51774,5,0,1:0:0
420,194,52203,6,0,P|424:112,1,80,2|0,0:0|0:0,0:0:0
512,296,52631,2,0,P|508:375,1,80,8|0,1:0|0:0,0:0:0
288,320,53060,2,0,P|291:240,1,80,2|0,0:0|0:0,0:0:0
423,114,53488,5,4,0:0:0
280,96,62060,5,0,0:0:0
304,184,62274,1,0,0:0:0
216,208,62488,1,0,0:0:0
192,120,62703,1,0,0:0:0
192,120,63131,5,0,0:0:0
128,184,63346,1,0,0:0:0
216,208,63560,1,0,0:0:0
216,208,63988,1,0,0:0:0
216,208,64417,2,0,P|224:240|224:272,1,60.0000022888184
328,328,64846,2,0,P|328:301|336:269,1,60.0000022888184
416,224,65274,1,0,0:0:0
256,192,65381,12,0,68703,0:0:0
144,240,68917,5,4,0:0:0
216,256,69131,1,0,0:0:0
280,216,69346,1,2,0:0:0
280,144,69560,1,0,0:0:0
280,144,69988,6,0,P|272:64,1,68.0000012969971,0|2,0:0|0:0,0:0:0
280,216,70417,1,0,0:0:0
128,232,70846,1,0,0:0:0
224,344,71274,1,0,0:0:0
280,296,71488,2,0,P|320:288|360:296,1,68.0000012969971,2|0,0:0|0:0,0:0:0
496,248,71917,2,0,P|456:256|416:248,1,68.0000012969971,2|0,0:0|0:0,0:0:0
512,160,72346,5,4,0:0:0
440,144,72560,1,4,0:0:0
488,88,72774,1,4,0:0:0
416,72,72988,1,4,0:0:0
360,128,73203,1,4,0:0:0
288,112,73417,1,4,0:0:0
336,56,73631,1,4,0:0:0
264,40,73845,1,4,0:0:0
216,96,74060,1,0,0:0:0
160,168,74274,5,0,0:0:0
104,240,74488,1,0,0:0:0
160,304,74703,2,0,P|248:328,1,80
48,336,75238,1,0,0:0:0
16,176,75560,1,0,0:0:0
72,128,75774,6,0,P|75:93|72:48,1,68.0000012969971
224,24,76203,2,0,P|225:56|222:91,1,68.0000012969971,2|0,0:0|0:0,0:0:0
288,360,76846,2,0,P|286:327|289:292,1,68.0000012969971,0|2,0:0|0:0,0:0:0
424,216,77274,2,0,P|448:272|392:344,1,136.000002593994
414,333,78131,5,0,0:0:0
424,256,78346,1,2,0:0:0
432,184,78560,1,0,0:0:0
440,112,78774,1,0,0:0:0
448,40,78988,1,0,0:0:0
376,64,79203,6,0,P|328:56,3,40
256,112,80060,2,0,P|208:104,3,40,0|0|0|0,0:0|0:0|0:0|0:0,0:0:0
160,184,80917,2,0,P|112:176,3,40
40,232,81774,2,0,P|-8:224,3,40,0|0|0|0,0:0|0:0|0:0|0:0,0:0:0
112,304,82631,6,0,P|152:320|200:312,1,80,4|0,1:0|0:0,0:0:0
288,168,83060,2,0,P|254:194|237:240,1,80,2|0,0:0|0:0,0:0:0
296,384,83488,2,0,P|329:357|346:311,1,80,8|0,1:0|0:0,0:0:0
480,224,83917,2,0,P|440:208|392:216,1,80,2|0,0:0|0:0,0:0:0
432,296,84346,5,0,1:0:0
480,224,84560,1,2,0:0:0
344,40,84988,1,2,0:0:0
416,96,85203,2,0,P|456:88|496:96,1,80,8|0,1:0|0:0,0:0:0
288,160,85631,2,0,P|248:168|209:160,1,80,2|0,0:0|0:0,0:0:0
184,80,86060,5,0,1:0:0
208,256,86274,1,0,0:0:0
48,168,86488,2,0,P|64:72,1,80,2|0,0:0|0:0,0:0:0
209,161,86917,5,8,1:0:0
142,326,87131,1,0,0:0:0
47,169,87345,2,0,P|108:93,1,80,2|0,0:0|0:0,0:0:0
104,248,87774,6,0,P|43:324,1,80,0|0,1:0|0:0,0:0:0
290,374,88203,2,0,P|240:312,1,80,2|0,0:0|0:0,0:0:0
448,200,88631,2,0,P|398:262,1,80,8|0,1:0|0:0,0:0:0
408,288,88953,1,2,0:0:0
422,63,89167,1,0,0:0:0
432,88,89274,1,2,0:0:0
336,152,89488,6,0,P|248:104,1,80,4|0,1:0|0:0,0:0:0
88,232,89917,2,0,P|173:179,1,80,2|0,0:0|0:0,0:0:0
128,104,90346,1,8,1:0:0
256,248,90560,2,0,P|187:289,2,80,0|2|0,0:0|0:0|0:0,0:0:0
96,336,91203,5,0,1:0:0
88,232,91417,1,2,0:0:0
408,352,91846,1,2,0:0:0
400,248,92060,1,8,1:0:0
232,264,92274,1,0,0:0:0
326,309,92488,1,2,0:0:0
397,149,92703,1,0,0:0:0
312,208,92917,1,0,1:0:0
480,296,93131,6,0,P|496:192,1,80,0|2,0:0|0:0,0:0:0
328,40,93560,2,0,P|315:119,1,80,0|8,0:0|1:0,0:0:0
496,104,93988,2,2,P|508:24,2,80
408,80,94631,5,0,1:0:0
352,152,94846,1,0,0:0:0
264,128,95060,2,0,P|232:40,1,80,2|0,0:0|0:0,0:0:0
104,176,95488,2,0,P|76:251,1,80,8|0,1:0|0:0,0:0:0
88,280,95810,1,2,1:2:0
264,344,96024,1,0,0:0:0
252,315,96131,1,2,1:2:0
464,368,96346,6,0,P|432:256,1,80,4|0,1:0|0:0,0:0:0
512,96,96774,2,0,P|490:172,1,80,2|0,0:0|0:0,0:0:0
490,172,97096,1,0,0:0:0
490,172,97203,1,8,1:0:0
408,136,97417,1,0,0:0:0
336,184,97631,2,0,P|360:272,1,80,2|0,0:0|0:0,0:0:0
224,176,98060,6,0,P|245:98,1,80,0|0,1:0|0:0,0:0:0
245,98,98703,1,2,0:0:0
72,136,98917,1,8,1:0:0
112,304,99131,1,0,0:0:0
288,272,99346,1,2,0:0:0
245,98,99560,1,0,0:0:0
72,136,99774,6,0,P|48:224,1,80,0|0,1:0|0:0,0:0:0
216,328,100203,2,0,P|194:250,1,80,2|0,0:0|0:0,0:0:0
194,250,100524,1,0,0:0:0
194,250,100631,1,8,1:0:0
336,96,100846,2,0,P|312:184,1,80,0|2,0:0|0:0,0:0:0
472,328,101274,2,0,P|450:250,1,80,0|0,0:0|1:0,0:0:0
488,112,101703,5,0,0:0:0
336,96,101917,2,0,P|232:112,1,80,2|0,0:0|0:0,0:0:0
40,200,102346,2,0,P|144:216,1,80,8|0,1:0|0:0,0:0:0
119,212,102667,1,2,0:0:0
320,288,102881,1,0,0:0:0
320,288,102988,1,2,0:0:0
64,344,103203,6,0,P|-32:328,1,80,4|0,1:0|0:0,0:0:0
144,256,103631,2,0,P|240:240,1,80,2|0,0:0|0:0,0:0:0
40,160,104060,1,8,1:0:0
40,160,104488,2,0,P|48:112|48:48,1,80,2|0,0:0|0:0,0:0:0
40,256,104917,5,0,1:0:0
368,208,105346,1,2,0:0:0
288,176,105560,1,0,0:0:0
232,240,105774,2,0,P|224:280|240:328,1,80,8|0,1:0|0:0,0:0:0
424,360,106203,2,0,P|433:322|425:282,1,80,2|0,0:0|0:0,0:0:0
288,176,106631,6,0,P|296:80,1,80,0|0,1:0|0:0,0:0:0
152,80,107060,2,0,P|158:159,1,80,2|0,0:0|0:0,0:0:0
408,128,107488,2,0,P|414:48,1,80,8|0,1:0|0:0,0:0:0
64,40,107917,2,0,P|70:119,1,80,2|0,0:0|0:0,0:0:0
24,272,108346,5,0,1:0:0
152,304,108560,1,0,0:0:0
280,272,108774,2,0,P|384:296,1,80,2|0,0:0|1:0,0:0:0
176,192,109203,2,0,P|176:136|176:136|168:56,2,120,8|8|8,1:0|1:0|1:0,0:0:0
24,160,110060,5,0,0:0:0
88,120,110274,1,0,0:0:0
24,88,110488,1,0,0:0:0
24,160,110703,1,0,0:0:0
92,192,110917,1,0,0:0:0
156,152,111131,1,0,0:0:0
152,80,111346,1,0,0:0:0
88,44,111560,1,0,0:0:0
152,80,111774,6,0,P|200:72,1,40
292,88,112203,2,0,P|340:80,1,40
440,88,112631,2,0,P|488:80,1,40
488,224,116917,5,0,0:0:0
424,264,117131,1,0,0:0:0
488,296,117345,1,0,0:0:0
488,224,117560,1,0,0:0:0
420,192,117774,1,0,0:0:0
356,232,117988,1,0,0:0:0
360,304,118203,1,0,0:0:0
424,340,118417,1,0,0:0:0
360,304,118631,6,0,P|312:312,1,40
220,296,119060,2,0,P|172:304,1,40
72,296,119488,2,0,P|24:304,1,40
488,160,123774,5,0,0:0:0
424,120,123988,1,0,0:0:0
488,88,124202,1,0,0:0:0
488,160,124417,1,0,0:0:0
420,192,124631,1,0,0:0:0
356,152,124845,1,0,0:0:0
360,80,125060,1,0,0:0:0
424,44,125274,1,0,0:0:0
360,80,125488,6,0,P|312:72,1,40
220,88,125917,2,0,P|172:80,1,40
72,88,126345,2,0,P|24:80,1,40
24,328,130631,6,0,P|24:248,1,60.0000022888184
112,256,131060,2,0,P|112:176,1,60.0000022888184,0|0,0:0|0:0,0:0:0
200,168,131488,2,0,P|200:88,1,60.0000022888184
288,96,131917,2,0,P|288:16,1,60.0000022888184,0|0,0:0|0:0,0:0:0
372,132,132346,2,0,P|372:192,1,60.0000022888184,0|0,0:0|0:0,0:0:0
288,288,132775,2,0,P|288:228,1,60.0000022888184
420,300,133203,2,0,P|420:360,1,60.0000022888184,0|0,0:0|0:0,0:0:0
420,360,134060,5,2,0:0:0
460,344,134274,1,0,0:0:0
460,300,134488,1,0,0:0:0
268,216,134703,5,2,0:0:0
262,262,134917,1,0,0:0:0
303,286,135131,1,0,0:0:0
510,190,135346,5,2,0:0:0
460,152,135560,1,0,0:0:0
403,184,135774,1,0,0:0:0
100,206,135988,5,2,0:0:0
178,266,136202,1,0,0:0:0
268,216,136416,1,0,0:0:0
335,20,136631,5,2,0:0:0
209,47,136845,1,0,0:0:0
184,180,137059,1,2,0:0:0
268,280,137274,1,2,0:0:0
208,160,137488,6,0,P|164:152|120:148,1,80,4|0,1:0|0:0,0:0:0
60,204,137917,1,2,0:0:0
128,256,138131,1,0,0:0:0
64,316,138346,1,8,1:0:0
380,360,138774,2,0,P|460:344,1,80,2|0,0:0|0:0,0:0:0
288,356,139203,5,0,1:0:0
384,208,139417,2,0,P|372:104,1,80,0|2,0:0|0:0,0:0:0
192,288,139846,2,0,P|180:184,1,80,0|8,0:0|1:0,0:0:0
256,44,140274,2,0,P|265:123,1,80,0|2,0:0|0:0,0:0:0
265,123,140917,5,0,1:0:0
100,184,141346,2,0,P|288:216,1,160,0|10,0:0|1:0,0:0:0
488,336,141988,2,0,P|348:260|348:260|336:152,1,240,2|0,0:0|1:0,0:0:0
396,104,142846,1,2,0:0:0
460,164,143060,1,8,1:0:0
460,164,143167,1,0,0:0:0
460,164,143274,2,0,P|472:208|468:256,1,80,2|0,0:0|1:0,0:0:0
224,384,143703,2,0,P|222:349|234:305,1,80,2|8,0:0|1:0,0:0:0
324,308,144131,1,2,0:0:0
136,344,144346,5,4,1:0:0
160,168,144560,1,0,0:0:0
8,304,144774,2,0,P|4:216,1,80,2|0,0:0|0:0,0:0:0
192,256,145203,1,8,1:0:0
96,116,145417,6,0,P|40:100|-8:100,1,80,0|2,0:0|0:0,0:0:0
48,196,145846,1,0,0:0:0
248,232,146060,1,0,1:0:0
405,149,146274,2,0,P|446:108|470:66,1,80,0|2,0:0|0:0,0:0:0
360,68,146703,1,0,0:0:0
248,232,146917,2,0,P|263:288|287:329,1,80,8|0,1:0|0:0,0:0:0
356,340,147774,5,0,1:0:0
484,220,148203,2,0,P|504:284|428:296,1,160,2|8,0:0|1:0,0:0:0
212,308,148846,2,0,P|252:212|360:260,1,240,2|0,0:0|1:0,0:0:0
148,376,149703,5,2,0:0:0
112,296,149917,2,0,P|56:272,1,40,2|2,0:0|0:0,0:0:0
40,184,150131,2,0,P|76:160|128:152,1,80,2|8,0:0|1:0,0:0:0
320,100,150560,2,0,P|284:108|248:132,1,80,2|0,0:0|1:0,0:0:0
320,184,150988,1,0,0:0:0
396,232,151203,6,0,P|407:196|404:153,2,80,4|0|2,1:0|0:0|0:0,0:0:0
320,272,151846,2,0,P|322:315|311:350,2,80,0|8|0,0:0|1:0|0:0,0:0:0
248,224,152488,2,0,P|208:212|160:208,1,80,2|0,0:0|0:0,0:0:0
56,272,152917,6,0,P|44:307|47:350,1,80,0|0,1:0|0:0,0:0:0
152,296,153346,1,2,0:0:0
164,124,153560,6,0,P|139:96|100:77,1,80,0|8,0:0|1:0,0:0:0
96,196,153989,1,0,0:0:0
96,196,154631,2,0,P|160:144|240:176,1,160,0|2,1:0|0:0,0:0:0
300,216,155274,1,0,0:0:0
228,268,155488,1,8,1:0:0
152,224,155703,2,0,P|168:128|304:152,1,240,0|0,0:0|1:0,0:0:0
300,216,156560,5,2,0:0:0
408,356,156774,1,8,1:0:0
268,299,156988,1,2,0:0:0
444,276,157202,1,0,1:0:0
323,371,157417,1,2,0:0:0
392,208,157631,1,8,1:0:0
323,371,157846,5,0,0:0:0
392,208,158060,2,0,P|384:96,1,80,4|0,1:0|0:0,0:0:0
125,128,158488,2,0,P|120:208,1,80,2|0,0:0|0:0,0:0:0
304,144,158917,6,0,P|264:56,1,80,8|0,1:0|0:0,0:0:0
208,240,159346,2,0,P|248:328,1,80,2|0,0:0|0:0,0:0:0
208,144,159774,6,0,P|120:184,1,80,0|0,1:0|1:0,0:0:0
304,240,160203,2,0,P|392:200,1,80,2|0,0:0|0:0,0:0:0
208,144,160631,2,0,P|120:184,1,80,8|0,1:0|0:0,0:0:0
112,264,161060,1,2,0:0:0
112,264,161488,5,0,1:0:0
176,320,161703,1,0,0:0:0
192,232,161917,1,2,0:0:0
112,264,162131,5,0,0:0:0
240,288,162346,1,8,1:0:0
208,160,162560,1,2,0:0:0
112,264,162774,5,2,1:0:0
256,368,162988,1,8,1:0:0
280,192,163203,2,0,P|264:24,2,160,6|0|0,0:2|0:0|0:0,0:0:0
96,184,171774,5,0,0:0:0
160,200,171988,1,0,0:0:0
224,184,172203,1,2,0:0:0
264,136,172417,1,0,0:0:0
264,136,172846,6,0,P|264:88,1,40,0|2,0:0|0:0,0:0:0
400,192,173274,2,0,P|400:280,1,80
400,272,174131,1,0,0:0:0
272,288,174346,1,2,0:0:0
144,312,174560,1,0,0:0:0
272,288,174774,1,2,0:0:0
144,312,174988,1,0,0:0:0
256,192,175096,12,0,178417,0:0:0
376,248,178631,6,0,P|384:176,1,60.0000022888184
224,264,179060,2,0,P|217:323,1,60.0000022888184,2|0,0:0|0:0,0:0:0
224,264,179703,2,0,P|217:323,1,60.0000022888184,0|2,0:0|0:0,0:0:0
56,256,180131,2,0,P|72:136,1,120.000004577637
71,137,180988,5,0,0:0:0
152,88,181203,1,2,0:0:0
240,120,181417,1,0,0:0:0
320,64,181631,1,2,0:0:0
416,80,181846,1,0,0:0:0
472,160,182060,6,0,P|480:208,3,40
424,272,182917,2,0,P|432:320,3,40,0|0|0|0,0:0|0:0|0:0|0:0,0:0:0
336,240,183774,2,0,P|256:192|176:192,1,160
120,256,184953,1,0,0:0:0
200,320,185274,1,0,0:0:0
152,232,185488,6,0,P|160:200|152:152,1,60.0000022888184
240,48,185917,2,0,P|241:74|233:106,1,60.0000022888184,2|0,0:0|0:0,0:0:0
240,48,186560,2,0,P|241:74|233:106,1,60.0000022888184,0|2,0:0|0:0,0:0:0
40,104,186988,2,0,P|88:72|160:72,1,120.000004577637
148,68,187846,5,0,0:0:0
192,152,188060,1,2,0:0:0
272,104,188274,1,0,0:0:0
304,192,188488,1,2,0:0:0
376,128,188703,1,0,0:0:0
392,224,188917,6,0,P|400:248|408:272,1,40
336,352,189346,2,0,P|311:346|286:341,1,40
248,240,189774,2,0,P|264:221|281:202,1,40
392,224,190203,2,0,P|400:248|408:272,1,40
248,240,190631,6,0,P|223:234|198:229,1,40
165,127,191060,2,0,P|181:108|198:89,1,40
306,107,191488,2,0,P|313:131|322:154,1,40
248,240,191917,2,0,P|223:234|198:229,1,40
304,104,192346,5,4,1:0:0
304,104,192774,1,2,1:0:0
392,136,192988,1,0,0:0:0
208,104,193203,2,0,P|160:104|96:128,1,95.9999970703126,8|2,0:0|0:0,0:0:0
0,240,193631,2,0,P|45:253|93:253,1,95.9999970703126,0|0,1:0|0:0,0:0:0
93,253,193953,1,0,0:0:0
93,253,194060,1,4,0:0:0
312,240,194274,2,0,P|266:226|218:226,1,95.9999970703126,0|2,1:0|0:0,0:0:0
296,336,194703,5,0,0:0:0
424,192,194917,1,8,0:0:0
184,96,195131,5,2,0:0:0
312,240,195345,1,0,0:0:0
424,80,195560,1,0,0:0:0
120,192,195774,5,4,0:0:0
120,192,196203,2,0,P|128:240|128:296,1,95.9999970703126,2|0,0:0|0:0,0:0:0
56,112,196631,1,8,0:0:0
152,96,196846,2,2,P|256:112|344:56,1,191.999994140625,2|0,0:0|0:0,0:0:0
329,72,197488,5,4,0:0:0
400,264,197703,1,0,0:0:0
496,104,197917,1,2,0:0:0
264,192,198131,1,0,0:0:0
464,336,198346,5,10,0:0:0
400,136,198667,1,2,0:0:0
288,312,198988,1,2,0:0:0
288,312,199203,6,0,P|176:304,1,95.9999970703126,4|0,0:0|0:0,0:0:0
111,214,199631,2,0,P|16:208,1,95.9999970703126,2|0,0:0|0:0,0:0:0
208,128,200060,5,8,0:0:0
112,216,200274,1,2,0:0:0
280,272,200488,1,0,0:0:0
320,80,200702,1,0,0:0:0
112,216,200917,6,0,P|120:264|112:312,1,95.9999970703126,4|0,0:0|0:0,0:0:0
32,168,201346,1,2,0:0:0
218,251,201560,6,0,P|255:220|301:203,1,95.9999970703126,0|8,0:0|0:0,0:0:0
216,344,201989,1,2,0:0:0
184,144,202203,2,0,P|138:126|100:96,1,95.9999970703126,0|0,0:0|0:0,0:0:0
216,344,202631,1,0,0:0:0
216,344,203060,6,2,P|272:304|384:336,1,191.999994140625,2|8,0:0|0:0,0:0:0
488,192,203703,2,2,P|432:224|336:136,1,191.999994140625,2|0,0:0|0:0,0:0:0
432,32,204346,6,0,P|424:136,1,95.9999970703126,4|0,0:0|0:0,0:0:0
168,208,204774,2,0,P|175:112,1,95.9999970703126,2|2,0:0|0:0,0:0:0
175,112,205096,1,0,0:0:0
175,112,205203,1,10,0:0:0
320,208,205417,1,0,0:0:0
328,192,205524,1,2,0:0:0
152,312,205738,1,0,0:0:0
168,328,205846,1,2,0:0:0
48,176,206060,5,0,0:0:0
176,112,206274,1,0,0:0:0
320,136,206488,1,2,0:0:0
440,56,206703,2,0,P|536:112|512:200,1,191.999994140625,0|2,0:0|0:0,0:0:0
368,256,207346,2,2,P|424:160,1,95.9999970703126,0|2,0:0|0:0,0:0:0
472,344,207774,5,0,0:0:0
376,352,207988,2,0,P|160:376,1,191.999994140625,2|2,0:0|0:0,0:0:0
96,344,208631,2,2,P|8:264,1,95.9999970703126,8|2,0:0|0:0,0:0:0
112,104,209060,2,0,P|40:39,1,95.9999970703126,0|2,0:0|0:0,0:0:0
144,208,209488,5,4,0:0:0
129,303,209703,1,0,0:0:0
225,317,209917,1,2,0:0:0
239,222,210132,1,0,0:0:0
126,194,210346,5,8,0:0:0
240,352,210561,1,2,0:0:0
104,328,210775,1,0,0:0:0
262,211,210990,1,0,0:0:0
32,248,211203,1,0,0:0:0
31,247,211631,2,2,P|23:143,1,95.9999970703126,0|2,0:0|0:0,0:0:0
140,49,212060,2,0,P|140:113|124:201,2,143.999995605469,2|2|2,0:0|0:0|0:0,0:0:0
140,49,212917,5,2,0:0:0
379,85,213131,1,2,0:0:0
177,222,213346,1,0,0:0:0
416,258,213560,1,2,0:0:0
240,112,213774,2,2,P|56:168,1,191.999994140625,8|2,0:0|0:0,0:0:0
72,264,214417,5,2,0:0:0
128,344,214631,1,0,0:0:0
200,280,214846,2,2,P|280:248|304:344,1,191.999994140625,0|2,0:0|0:0,0:0:0
152,224,215488,2,2,P|200:184|272:176,1,95.9999970703126,8|2,0:0|0:0,0:0:0
378,256,215917,2,2,P|388:317|359:383,1,95.9999970703126,2|0,0:0|0:0,0:0:0
349,124,216346,1,4,0:0:0
349,124,216774,6,2,P|339:63|368:-3,1,95.9999970703126,2|0,0:0|0:0,0:0:0
384,200,217203,1,8,0:0:0
288,208,217417,2,2,P|200:192|104:104,1,191.999994140625,2|0,0:0|0:0,0:0:0
56,56,218060,6,0,P|16:152,1,95.9999970703126,4|0,0:0|0:0,0:0:0
121,341,218488,2,2,P|91:250,1,95.9999970703126
91,250,218810,1,0,0:0:0
91,250,218917,1,10,0:0:0
312,328,219131,5,0,0:0:0
256,320,219238,1,2,0:0:0
464,288,219453,1,0,0:0:0
485,339,219560,1,2,0:0:0
352,184,219774,1,4,2:0:0
336,304,225346,5,0,0:0:0
416,248,225560,1,0,0:0:0
328,208,225774,2,0,P|264:216|184:216,2,143.999995605469
336,304,226631,1,6,2:0:0
400,248,233488,6,0,P|408:168,1,60.0000022888184
328,152,233917,2,0,P|322:211,1,60.0000022888184
240,232,234346,2,0,P|144:224,2,90.0000034332277
88,352,235203,5,0,0:0:0
24,296,235417,2,0,P|16:176,1,120.000004577637
168,40,236274,2,0,P|176:160,1,120.000004577637
248,200,236917,1,0,0:0:0
312,152,237131,2,0,P|368:136|448:128,1,120.000004577637
240,280,237774,2,0,P|184:296|104:304,1,120.000004577637
328,240,238417,6,0,P|432:256|576:296,1,240.000009155274
184,144,239488,2,0,P|80:128|-64:88,1,240.000009155274
184,144,241203,5,0,0:0:0
248,208,241417,2,0,P|224:344,1,120.000004577637
400,336,242060,2,0,P|368:192,1,120.000004577637
344,16,242703,2,0,P|320:152,1,120.000004577637
168,240,243560,5,0,0:0:0
56,224,243774,2,0,P|240:328|208:136,2,480.000018310548
256,192,247310,12,0,252238,0:0:0
256,192,252346,12,0,253846,0:0:0
344,80,254060,5,2,0:0:0
368,168,254274,1,0,0:0:0
392,256,254488,1,0,0:0:0
424,336,254703,1,2,0:0:0
152,296,255131,1,2,0:0:0
200,216,255346,1,0,0:0:0
240,136,255560,2,0,P|168:96|72:64,1,160,2|2,0:0|0:0,0:0:0
95,69,256417,5,0,0:0:0
40,144,256631,2,0,P|48:184|40:232,1,80,2|0,0:0|0:0,0:0:0
155,377,257060,2,0,P|159:338|151:298,1,80,2|0,0:0|0:0,0:0:0
64,352,257488,5,4,0:0:0
155,377,257703,1,0,0:0:0
232,344,257917,1,2,0:0:0
272,264,258131,1,0,0:0:0
248,176,258346,1,2,0:0:0
176,120,258560,1,0,0:0:0
88,128,258774,1,2,0:0:0
24,192,258988,1,0,0:0:0
88,128,259203,5,2,0:0:0
108,214,259417,1,0,0:0:0
183,266,259632,1,2,0:0:0
274,263,259846,1,0,0:0:0
336,200,260060,5,2,0:0:0
432,64,260381,1,2,0:0:0
440,280,260703,1,2,0:0:0
344,320,260917,6,0,P|352:400,1,80,4|0,0:0|0:0,0:0:0
184,264,261346,2,0,P|176:184,1,80,2|0,0:0|0:0,0:0:0
176,184,261988,2,0,P|184:264,1,80,0|2,0:0|0:0,0:0:0
112,312,262417,2,0,P|96:128,1,160,2|2,0:0|0:0,0:0:0
98,152,263274,5,0,0:0:0
224,112,263488,1,2,0:0:0
352,104,263703,1,0,0:0:0
477,63,263917,1,2,0:0:0
344,88,264131,1,4,0:0:0
224,128,264346,5,0,0:0:0
96,136,264560,2,0,P|104:232,1,80,0|2,0:0|0:0,0:0:0
240,232,264988,2,0,P|248:328,1,80,0|2,0:0|0:0,0:0:0
408,288,265417,2,2,P|416:384,2,80
246,311,266060,6,0,P|240:232,1,80,2|0,0:0|0:0,0:0:0
156,124,266488,2,0,P|229:158,1,80,2|0,0:0|0:0,0:0:0
400,120,266917,2,0,P|291:187,2,120,2|2|2,0:0|0:0|0:0,0:0:0
320,88,267774,5,4,0:0:0
248,72,267988,1,0,0:0:0
184,112,268203,1,2,0:0:0
184,184,268417,1,0,0:0:0
184,184,268846,6,0,P|80:224,1,80
200,272,269274,1,0,0:0:0
384,200,269703,1,0,0:0:0
288,32,270131,1,0,0:0:0
232,80,270345,2,0,P|192:88|144:72,1,80,2|0,0:0|0:0,0:0:0
16,128,270774,2,0,P|64:120|96:128,1,80,2|0,0:0|0:0,0:0:0
48,272,271203,5,0,0:0:0
112,328,271417,1,0,0:0:0
128,240,271631,1,0,0:0:0
192,296,271845,1,0,0:0:0
272,264,272060,1,0,0:0:0
208,208,272274,1,0,0:0:0
192,296,272488,1,0,0:0:0
264,352,272703,1,0,0:0:0
344,312,272917,2,0,P|432:296,1,80
422,297,273238,5,0,0:0:0
422,297,273346,1,0,0:0:0
424,168,273560,1,0,0:0:0
432,136,273667,1,0,0:0:0
440,96,273774,1,0,0:0:0
272,160,273988,1,0,0:0:0
280,120,274095,1,0,0:0:0
112,176,274310,1,0,0:0:0
120,136,274417,1,0,0:0:0
120,136,274631,6,0,P|96:72,3,40
200,96,275060,2,0,P|176:32,3,40,0|0|0|0,0:0|0:0|0:0|0:0,0:0:0
288,96,275488,2,0,P|273:133,3,40,0|0|0|0,0:0|0:0|0:0|0:0,0:0:0
368,136,275917,2,0,P|353:173,3,40
384,248,276346,6,0,P|408:272,5,26.6666666666667
304,304,276775,2,0,P|328:368,3,40,0|0|0|0,0:0|0:0|0:0|0:0,0:0:0
216,256,277203,2,0,P|231:219,3,40,0|0|0|0,0:0|0:0|0:0|0:0,0:0:0
120,288,277632,2,0,P|105:251,3,40
64,360,278060,6,0,P|72:392,5,26.6666666666667
0,270,278488,2,0,P|27:208,1,40
156,179,278703,2,0,P|129:117,1,40
256,67,278917,6,0,P|264:35,5,26.6666666666667
355,154,279345,2,0,P|328:216,1,40
446,275,279560,2,0,P|473:337,1,40
326,359,279774,6,2,P|234:342,1,80,2|2,0:0|0:0,0:0:0
296,176,280417,1,2,0:0:0
448,272,280631,2,0,P|432:320,1,40,2|0,0:0|0:0,0:0:0
261,307,280953,2,0,P|248:344,1,40,2|0,0:0|0:0,0:0:0
102,317,281274,1,2,0:0:0
102,317,281488,6,0,P|113:263|113:263|91:206,1,80,2|2,0:0|0:0,0:0:0
196,52,281917,2,0,P|185:106|185:106|207:163,1,80,2|2,0:0|0:0,0:0:0
296,237,282346,2,0,P|242:226|242:226|185:248,1,80,8|2,0:0|0:0,0:0:0
9,139,282775,2,2,P|63:150|63:150|120:128,1,80
296,240,283203,5,0,0:0:0
360,176,283417,2,2,P|424:136|504:200,1,160
280,152,284060,2,2,P|176:160,1,80,8|2,0:0|0:0,0:0:0
112,272,284488,2,2,P|8:280,1,80,2|2,0:0|0:0,0:0:0
32,278,284917,5,4,0:0:0
200,320,285131,1,2,0:0:0
80,360,285346,2,0,P|32:368|-8:360,1,80,2|2,0:0|0:0,0:0:0
176,232,285774,5,8,0:0:0
8,190,285988,1,2,0:0:0
128,150,286203,2,0,P|176:142|216:150,1,80,2|2,0:0|0:0,0:0:0
368,200,286631,2,0,P|320:208|280:200,1,80,4|2,0:0|0:0,0:0:0
352,88,287060,2,0,P|400:80|440:88,1,80,2|2,0:0|0:0,0:0:0
488,320,287488,2,0,P|440:328|384:288,2,120,2|2|2,0:0|0:0|0:0,0:0:0
296,232,288346,6,0,P|280:320,1,80,2|2,0:0|0:0,0:0:0
112,352,288774,2,0,P|97:273,1,80,2|2,0:0|0:0,0:0:0
168,160,289203,1,8,0:0:0
304,64,289417,2,0,P|318:142,1,80,2|2,0:0|0:0,0:0:0
222,269,289846,2,2,P|150:213|182:149,1,160
310,253,290488,5,0,0:0:0
384,296,290703,2,2,P|472:288,1,80,2|10,0:0|0:0,0:0:0
424,120,291131,2,2,P|367:187,1,80
312,336,291560,1,2,0:0:0
192,176,291774,1,4,0:0:0
192,176,292203,6,2,P|216:256|152:288,1,160,2|8,0:0|0:0,0:0:0
256,112,292846,2,2,P|241:166|112:102,1,240,2|4,0:0|0:0,0:0:0
264,24,293703,5,0,0:0:0
264,24,293810,1,0,0:0:0
264,24,293917,2,2,P|320:48|344:72,1,80
320,272,294346,2,2,P|304:192,1,80,2|0,0:0|0:0,0:0:0
424,96,294667,2,2,P|408:174,1,80,2|0,0:0|0:0,0:0:0
488,288,294988,1,2,0:0:0
488,288,295203,6,0,P|472:336|480:384,1,80,6|2,0:0|0:0,0:0:0
320,272,295631,2,0,P|322:243|306:195,1,80,2|2,0:0|0:0,0:0:0
160,160,296060,1,8,0:0:0
64,264,296274,2,0,P|48:312|50:341,1,80,2|2,0:0|0:0,0:0:0
200,304,296703,6,0,P|176:144,1,160,2|2,0:0|0:0,0:0:0
248,96,297346,1,0,0:0:0
320,152,297560,2,0,P|368:168|408:144,1,80,2|10,0:0|0:0,0:0:0
488,40,297988,2,0,P|448:32|384:32,1,80,2|2,0:0|0:0,0:0:0
424,248,298417,2,0,P|536:256,1,80,2|4,0:0|0:0,0:0:0
360,320,298846,5,2,0:0:0
280,288,299060,1,2,0:0:0
208,336,299274,2,0,P|112:344,1,80,2|8,0:0|0:0,0:0:0
16,208,299703,2,0,P|112:216,2,80,2|2|2,0:0|0:0|0:0,0:0:0
168,144,300346,6,0,P|280:144,1,80,0|0,0:0|0:0,0:0:0
248,144,300667,1,0,0:0:0
248,144,300774,1,2,0:0:0
136,64,300988,1,2,0:0:0
184,240,301203,2,0,P|296:232,1,80,2|0,0:0|0:0,0:0:0
263,234,301524,1,2,0:0:0
392,208,301738,1,0,0:0:0
392,208,301845,1,2,0:0:0
264,232,302060,6,0,P|272:272|272:320,1,80,6|2,0:0|0:0,0:0:0
392,208,302488,2,0,P|384:168|384:120,1,80,2|2,0:0|0:0,0:0:0
488,280,302917,5,8,0:0:0
376,352,303131,1,2,0:0:0
248,368,303346,1,2,0:0:0
120,328,303560,1,2,0:0:0
256,352,303774,5,4,0:0:0
104,344,303988,2,0,P|8:336,1,80,2|0,0:0|0:0,0:0:0
88,192,304417,1,2,0:0:0
96,184,304524,1,0,0:0:0
104,176,304631,2,2,P|200:184,1,80,10|2,0:0|0:0,0:0:0
408,112,305060,2,2,P|312:120,1,80,0|2,0:0|0:0,0:0:0
328,118,305488,1,4,0:0:0
328,118,305917,6,2,P|352:288,1,160,2|8,0:0|0:0,0:0:0
152,384,306560,2,2,P|256:128,1,240,2|4,0:0|0:0,0:0:0
242,161,307417,1,0,0:0:0
242,161,307524,1,0,0:0:0
242,161,307631,1,2,0:0:0
88,272,307846,1,2,0:0:0
264,352,308060,2,2,P|352:336,1,80,10|0,0:0|0:0,0:0:0
504,232,308381,2,2,P|416:216,1,80,2|0,0:0|0:0,0:0:0
320,64,308703,2,2,P|408:48,1,80,2|4,0:0|1:0,0:0:0
398,49,309346,5,2,0:0:0
320,80,309560,1,0,1:0:0
232,48,309774,2,0,P|152:32|56:40,1,160,8|0,1:0|1:0,0:0:0
74,36,310846,1,2,0:0:0
232,304,311274,1,0,1:0:0
256,216,311488,1,8,1:0:0
168,232,311703,1,0,0:0:0
200,152,311917,1,2,0:0:0
112,160,312131,1,0,0:0:0
80,240,312346,1,0,1:0:0
80,240,312774,6,0,P|80:312,1,60.0000022888184,2|0,0:0|1:0,0:0:0
256,280,313203,2,0,P|256:220,1,60.0000022888184,8|0,1:0|0:0,0:0:0
432,200,313631,2,0,P|432:264,2,60.0000022888184,2|0|0,0:0|0:0|1:0,0:0:0
432,200,314488,5,2,0:0:0
480,80,314703,1,0,1:0:0
352,104,314917,2,0,P|216:88,2,120,8|0|0,1:0|0:0|0:0,0:0:0
160,136,315774,5,0,1:0:0
160,136,316203,1,2,0:0:0
192,216,316417,1,0,1:0:0
128,272,316631,2,0,P|104:320|192:360,1,160,8|0,1:0|1:0,0:0:0
416,296,317703,6,0,P|256:304,1,160,2|0,0:0|1:0,0:0:0
128,272,318346,2,0,P|40:272,1,80,8|0,1:0|0:0,0:0:0
240,184,318774,2,0,P|320:184,1,80,2|0,0:0|0:0,0:0:0
80,120,319203,1,0,1:0:0
80,120,319631,6,0,P|72:44,1,60.0000022888184,2|0,0:0|1:0,0:0:0
248,124,320060,2,0,P|241:183,1,60.0000022888184,8|0,1:0|0:0,0:0:0
144,340,320488,2,0,P|137:280,1,60.0000022888184,2|0,0:0|0:0,0:0:0
296,312,320917,5,0,1:0:0
296,312,321346,2,0,P|352:292|392:288,1,80,2|0,0:0|1:0,0:0:0
452,324,321774,1,8,1:0:0
336,200,322096,1,2,0:0:0
408,44,322417,1,2,0:0:0
320,212,322631,6,0,P|328:284,2,60.0000022888184
244,180,323274,2,0,P|192:136|156:184,1,120.000004577637
148,240,323917,1,0,0:0:0
136,320,324131,2,0,P|8:328,2,120.000004577637
216,344,325203,5,0,0:0:0
272,312,325417,1,0,0:0:0
216,280,325631,1,0,0:0:0
216,344,325846,1,0,0:0:0
272,312,326060,1,0,0:0:0
416,320,326488,6,0,P|480:276|476:216,1,120.000004577637
276,40,327131,2,0,P|240:112|304:200,1,180.000006866455
285,191,328203,5,0,0:0:0
376,156,328417,1,0,0:0:0
248,120,328631,2,0,P|188:120|136:128,2,90.0000034332277
52,236,329488,6,0,P|44:308,2,60.0000022888184
128,204,330131,2,0,P|172:164|172:164|216:208,1,120.000004577637
272,268,330774,1,0,0:0:0
236,344,330988,2,0,P|364:352,2,120.000004577637
156,368,332060,5,0,0:0:0
100,336,332274,1,0,0:0:0
156,304,332488,1,0,0:0:0
156,368,332703,1,0,0:0:0
100,336,332917,1,0,0:0:0
256,192,333346,12,0,336346,0:0:0
