osu file format v14

[General]
AudioFilename: SKRILLEX - Scary Monsters And Nice Sprites.mp3
AudioLeadIn: 0
PreviewTime: 20749
Countdown: 1
SampleSet: None
StackLeniency: 0.7
Mode: 0
LetterboxInBreaks: 1
WidescreenStoryboard: 1

[Editor]
DistanceSpacing: 0.7
BeatDivisor: 4
GridSize: 16
TimelineZoom: 1

[Metadata]
Title:Scary Monsters and Nice Sprites
TitleUnicode:Scary Monsters and Nice Sprites
Artist:Skrillex
ArtistUnicode:Skrillex
Creator:Notester82
Version:Creepy
Source:
Tags:Skrillex dubstep
BeatmapID:812349
BeatmapSetID:370711

[Difficulty]
HPDrainRate:6
CircleSize:4
OverallDifficulty:4
ApproachRate:5
SliderMultiplier:2
SliderTickRate:1

[Events]
//Background and Video events
0,0,"Skrillex_scary_monsters_and_nice_sprites.jpg",0,0
//Break Periods
2,27806,36692
2,106663,115549
//Storyboard Layer 0 (Background)
//Storyboard Layer 1 (Fail)
//Storyboard Layer 2 (Pass)
//Storyboard Layer 3 (Foreground)
//Storyboard Sound Samples

[TimingPoints]
178,857.142857142857,4,1,0,100,1,0
13892,-100,4,1,0,100,0,1
27606,-100,4,1,0,100,0,0
41320,-66.6666666666667,4,1,0,100,0,0
76035,-133.333333333333,4,1,0,100,0,0
82463,-66.6666666666667,4,1,0,100,0,0
92749,-100,4,1,0,100,0,1
106463,-100,4,1,0,100,0,0
141177,-133.333333333333,4,1,0,100,0,0
144177,-100,4,1,0,100,0,0
168177,-66.6666666666667,4,1,0,100,0,0
171606,-100,4,1,0,100,0,0
199035,-66.6666666666667,4,1,0,100,0,1
211035,-133.333333333333,4,1,0,100,0,1
212749,-100,4,1,0,100,0,0
228177,-133.333333333333,4,1,0,100,0,0

[Colours]
Combo1 : 0,0,0
Combo2 : 0,255,0
Combo3 : 0,128,0
Combo4 : 255,0,0

[HitObjects]
256,192,7035,5,0,0:0:0:0:
256,144,7463,1,0,0:0:0:0:
256,96,7892,1,8,0:0:0:0:
256,144,9177,1,2,0:0:0:0:
256,192,9606,1,2,0:0:0:0:
256,192,10463,1,0,0:0:0:0:
256,240,10892,1,0,0:0:0:0:
256,288,11320,1,8,0:0:0:0:
256,288,12606,1,2,0:0:0:0:
256,240,13035,1,2,0:0:0:0:
256,192,13463,1,2,0:0:0:0:
256,192,13892,6,8,P|320:128|416:192,1,200
416,192,15820,1,2,0:0:0:0:
384,224,16035,1,2,0:0:0:0:
416,240,16463,1,2,0:0:0:0:
416,288,17320,6,8,P|352:352|256:288,1,200
256,288,19249,1,2,0:0:0:0:
288,256,19463,1,2,0:0:0:0:
256,240,19891,1,2,0:0:0:0:
256,192,20749,6,8,L|320:192,2,50
208,192,21606,2,4,B|128:128|128:128|64:64|192:0|224:64,1,250
224,160,22892,1,2,0:0:0:0:
256,192,23320,1,2,0:0:0:0:
256,192,24177,6,0,L|384:192,1,100
256,192,25035,2,8,L|256:320,1,100
256,192,25892,2,0,L|128:192,1,100
256,192,26749,2,10,L|256:64,2,100
256,192,37892,12,0,39606,0:0:0:0:
256,192,41320,6,4,L|416:192,1,150.000005722046
448,192,42177,1,8,0:0:0:0:
448,128,42606,1,0,0:0:0:0:
384,128,42820,1,0,0:0:0:0:
448,128,43035,1,8,0:0:0:0:
384,128,43677,1,0,0:0:0:0:
320,128,43892,1,8,0:0:0:0:
256,128,44320,1,8,0:0:0:0:
256,192,44749,6,4,L|96:192,1,150.000005722046
64,192,45606,1,8,0:0:0:0:
64,128,46035,1,0,0:0:0:0:
128,128,46249,1,0,0:0:0:0:
64,128,46463,1,8,0:0:0:0:
128,128,47106,1,0,0:0:0:0:
192,128,47321,1,8,0:0:0:0:
256,128,47749,1,8,0:0:0:0:
256,128,48177,6,0,B|288:192|288:192|320:128|320:128|352:192|352:192|416:96,1,300.000011444092
416,64,49249,2,2,L|320:64,1,75.0000028610231
256,64,49892,1,8,0:0:0:0:
192,128,50320,1,8,0:0:0:0:
256,192,50749,1,8,0:0:0:0:
320,128,51177,1,8,0:0:0:0:
256,64,51606,2,0,L|256:320,1,225.000008583069
256,352,52463,1,8,0:0:0:0:
256,288,53535,1,2,0:0:0:0:
256,256,53749,1,2,0:0:0:0:
256,192,54177,1,2,0:0:0:0:
256,192,55035,6,0,L|384:96,1,150.000005722046
384,96,55677,1,8,0:0:0:0:
416,64,55892,1,8,0:0:0:0:
320,64,56749,1,0,0:0:0:0:
256,64,57177,1,8,0:0:0:0:
320,64,57606,1,0,0:0:0:0:
256,64,58035,1,8,0:0:0:0:
192,64,58463,6,0,B|96:96|96:96|128:192,1,150.000005722046
128,160,59106,1,8,0:0:0:0:
160,160,59320,1,8,0:0:0:0:
256,160,60177,1,0,0:0:0:0:
256,256,60606,1,8,0:0:0:0:
256,160,61035,1,0,0:0:0:0:
256,256,61463,1,8,0:0:0:0:
256,192,61892,1,2,0:0:0:0:
256,192,62106,6,8,L|352:192,2,75.0000028610231
256,192,62749,2,8,L|256:96,2,75.0000028610231
256,192,63392,2,8,L|160:192,2,75.0000028610231
256,192,64035,2,8,L|256:288,2,75.0000028610231
256,128,64892,1,8,0:0:0:0:
256,192,65320,6,0,P|352:128|416:192,1,225.000008583069
416,224,66177,1,8,0:0:0:0:
352,224,67249,1,2,0:0:0:0:
320,224,67463,1,2,0:0:0:0:
256,224,67892,1,2,0:0:0:0:
256,192,68749,6,4,B|192:128|192:128|256:96|256:96|320:160,1,225.000008583069
320,160,69606,2,4,B|256:256|256:256|352:288|352:288|384:224,1,225.000008583069
352,256,70463,2,0,L|416:192,1,75.0000028610231
416,192,70892,2,8,L|352:128,1,75.0000028610231
352,128,71320,2,0,L|288:192,1,75.0000028610231
288,192,71749,2,8,L|352:256,1,75.0000028610231
352,256,72177,6,4,B|288:320|288:320|192:224,1,225.000008583069
192,192,73035,2,4,B|160:64|160:64|128:160,1,225.000008583069
128,160,73892,2,0,L|64:224,1,75.0000028610231
64,224,74320,2,8,L|128:288,1,75.0000028610231
128,288,74749,2,0,L|192:224,1,75.0000028610231
192,224,75177,2,8,L|128:160,1,75.0000028610231
128,160,75606,1,0,0:0:0:0:
128,160,76035,6,8,B|160:128|160:128|192:160|192:160|224:128|224:128|256:96,1,150.000005722046
236,131,77320,1,0,0:0:0:0:
307,154,77749,1,2,0:0:0:0:
307,229,78177,1,0,0:0:0:0:
236,252,78606,1,2,0:0:0:0:
192,192,79035,2,0,B|192:96|192:96|224:96,1,112.500004291535
256,96,79892,1,8,0:0:0:0:
352,128,80963,1,2,0:0:0:0:
352,160,81177,1,2,0:0:0:0:
256,192,81606,1,2,0:0:0:0:
256,192,82463,6,0,L|384:64,1,150.000005722046
416,128,83320,1,8,0:0:0:0:
480,128,83749,1,8,0:0:0:0:
480,160,83963,1,8,0:0:0:0:
416,160,84177,2,4,B|352:224|352:224|288:160|288:160|224:224|224:224|160:160|160:160|96:224|96:224,1,450.000017166138
32,224,85892,6,0,L|128:96,1,150.000005722046
192,96,86749,1,8,0:0:0:0:
224,128,87177,1,8,0:0:0:0:
256,128,87392,1,8,0:0:0:0:
256,96,87606,2,4,B|352:96|352:96|352:192|352:192|448:192|448:192|448:256|448:256|320:256,1,450.000017166138
334,249,89320,5,0,0:0:0:0:
285,284,89606,1,0,0:0:0:0:
225,284,89892,1,8,0:0:0:0:
177,249,90177,1,0,0:0:0:0:
158,191,90463,1,0,0:0:0:0:
177,134,90749,1,8,0:0:0:0:
226,99,91035,1,0,0:0:0:0:
286,99,91320,1,0,0:0:0:0:
334,134,91606,1,8,0:0:0:0:
353,192,91892,1,0,0:0:0:0:
288,192,92320,1,2,0:0:0:0:
256,192,92749,6,8,P|256:96|128:64,1,200
128,64,94677,1,2,0:0:0:0:
128,115,94892,1,2,0:0:0:0:
85,89,95320,1,2,0:0:0:0:
64,96,96177,6,0,P|128:192|192:256,1,200
256,256,98106,1,2,0:0:0:0:
288,256,98320,1,2,0:0:0:0:
384,256,98749,1,2,0:0:0:0:
384,192,99606,6,8,L|320:192,2,50
416,192,100463,2,4,P|352:64|256:64,1,250
259,62,101749,1,0,0:0:0:0:
256,128,102177,1,0,0:0:0:0:
256,192,103035,6,0,L|346:282,1,100
256,192,103892,2,8,L|165:282,1,100
256,192,104749,2,0,L|165:101,1,100
256,192,105606,2,10,L|346:101,2,100
256,192,116749,12,0,118463,0:0:0:0:
256,192,120177,6,0,L|384:192,1,100
432,192,121035,1,0,0:0:0:0:
432,112,121463,1,8,0:0:0:0:
432,56,121677,1,8,0:0:0:0:
479,84,121892,1,8,0:0:0:0:
432,112,122535,1,8,0:0:0:0:
432,56,122749,1,8,0:0:0:0:
480,80,123177,1,2,0:0:0:0:
480,128,123606,6,0,B|432:112|432:112|384:144,1,100
320,144,124463,1,0,0:0:0:0:
256,144,124892,1,8,0:0:0:0:
192,144,125106,1,8,0:0:0:0:
256,144,125320,1,8,0:0:0:0:
256,208,125963,1,8,0:0:0:0:
192,208,126177,1,8,0:0:0:0:
256,208,126606,1,2,0:0:0:0:
320,208,127035,6,4,B|384:176|384:176|416:240|416:240|352:272|352:272|272:320|272:320|224:256,1,350
224,240,128749,2,0,L|160:208,1,50
160,208,129177,2,8,L|208:144,1,50
208,144,129606,2,0,L|256:176,1,50
272,192,130035,2,8,L|224:256,1,50
224,256,130463,6,0,P|112:224|112:160,1,150
112,160,131320,1,8,0:0:0:0:
176,160,132392,1,2,0:0:0:0:
240,160,132606,1,2,0:0:0:0:
112,160,133035,1,2,0:0:0:0:
32,192,133892,5,0,0:0:0:0:
160,192,134320,1,8,0:0:0:0:
96,192,134749,1,0,0:0:0:0:
224,192,135177,1,8,0:0:0:0:
160,192,135606,1,0,0:0:0:0:
288,192,136035,1,8,0:0:0:0:
224,192,136463,2,2,L|224:256,2,50
305,278,137320,5,0,0:0:0:0:
205,278,137749,1,8,0:0:0:0:
155,191,138177,1,0,0:0:0:0:
206,105,138606,1,8,0:0:0:0:
306,105,139034,1,0,0:0:0:0:
356,192,139463,1,8,0:0:0:0:
352,192,139892,2,2,L|288:192,4,50
368,192,141177,6,4,B|400:160|400:160|352:112|352:112|400:64,1,150.000005722046
448,80,142463,1,0,0:0:0:0:
448,144,142892,1,8,0:0:0:0:
384,144,143320,1,0,0:0:0:0:
384,80,143749,1,8,0:0:0:0:
336,112,144177,6,0,P|240:112|256:160,1,150
256,176,145035,1,8,0:0:0:0:
288,128,146106,1,2,0:0:0:0:
320,176,146320,1,2,0:0:0:0:
352,128,146749,1,2,0:0:0:0:
304,128,147606,6,0,P|256:80|208:128,1,150
208,127,148463,2,0,P|255:175|304:127,1,150
303,127,149320,1,2,0:0:0:0:
256,80,149749,1,2,0:0:0:0:
208,128,150177,1,2,0:0:0:0:
256,176,150606,1,2,0:0:0:0:
208,256,151035,6,0,P|256:304|304:256,1,150
304,257,151892,2,0,P|256:209|208:257,1,150
209,257,152749,1,2,0:0:0:0:
256,304,153178,1,2,0:0:0:0:
304,256,153606,1,2,0:0:0:0:
256,208,154035,1,2,0:0:0:0:
256,192,154892,12,0,157035,0:0:0:0:
256,192,157892,6,0,B|304:144|304:144|320:176|320:176|368:144,1,150
416,144,158749,1,8,0:0:0:0:
416,208,159820,1,2,0:0:0:0:
368,208,160035,1,2,0:0:0:0:
368,160,160463,1,2,0:0:0:0:
256,192,161320,6,0,B|208:144|208:144|160:192,1,100
160,192,162177,1,0,0:0:0:0:
128,192,162606,2,8,L|64:192,2,33.3333333333333
160,192,163035,1,0,0:0:0:0:
192,192,163463,2,8,L|256:192,2,33.3333333333333
160,192,164320,1,8,0:0:0:0:
160,192,164749,6,0,P|160:256|192:256,1,100
240,256,165606,1,0,0:0:0:0:
288,256,166035,2,8,L|304:224,2,33.3333333333333
320,256,166463,1,0,0:0:0:0:
352,256,166892,2,8,L|384:208,2,33.3333333333333
384,256,167320,1,0,0:0:0:0:
416,256,167749,1,8,0:0:0:0:
448,256,168177,6,0,B|512:144|512:144|384:80,1,200.000007629395
416,112,169035,2,0,B|288:128|288:128|320:224,1,200.000007629395
320,224,169892,2,4,B|256:304|256:304|192:208,1,200.000007629395
192,176,170749,2,4,B|224:64|224:64|304:128,1,200.000007629395
304,160,171606,6,0,P|416:96|416:80,1,150
416,32,172463,1,8,0:0:0:0:
352,32,173535,1,2,0:0:0:0:
320,32,173749,1,2,0:0:0:0:
320,64,174177,1,2,0:0:0:0:
320,128,175035,6,0,L|144:160,1,150
112,176,175892,1,8,0:0:0:0:
176,176,176963,1,2,0:0:0:0:
176,224,177177,1,2,0:0:0:0:
224,224,177606,1,2,0:0:0:0:
256,224,178463,6,8,L|336:224,2,66.6666666666667
224,224,179320,2,4,B|144:224|144:224|144:288|144:288|32:288,1,250
32,240,180606,1,2,0:0:0:0:
32,192,181035,1,2,0:0:0:0:
256,192,182320,6,0,L|400:192,1,100
256,192,183177,2,8,L|256:80,1,100
256,192,184035,2,0,L|128:192,1,100
256,192,184892,2,10,L|256:304,1,100
256,192,186177,5,0,0:0:0:0:
320,192,187035,1,0,0:0:0:0:
384,192,187463,1,8,0:0:0:0:
448,192,187677,1,8,0:0:0:0:
384,192,187892,1,8,0:0:0:0:
448,192,188320,2,0,L|448:80,1,100
384,80,189606,1,8,0:0:0:0:
320,80,190463,1,0,0:0:0:0:
256,80,190892,1,8,0:0:0:0:
192,80,191106,1,8,0:0:0:0:
256,80,191320,1,8,0:0:0:0:
256,144,191749,2,0,L|256:256,1,100
256,240,192606,6,0,L|384:240,1,100
368,240,193463,2,2,L|368:112,1,100
368,128,194320,2,0,L|256:128,1,100
256,128,195177,2,2,L|256:256,1,100
256,228,195820,6,0,L|192:228,1,50
160,240,196249,2,4,L|224:240,1,50
256,256,196677,2,0,L|176:256,1,50
160,272,197106,2,4,L|224:272,1,50
256,288,197535,2,0,L|176:288,1,50
160,320,197963,2,4,L|224:320,3,50
227,241,199035,5,0,0:0:0:0:
227,141,199320,1,0,0:0:0:0:
313,192,199606,1,8,0:0:0:0:
227,241,199892,1,0,0:0:0:0:
227,141,200177,1,0,0:0:0:0:
313,192,200463,1,8,0:0:0:0:
256,192,200749,2,0,L|160:192,1,75.0000028610231
144,192,201177,1,2,0:0:0:0:
256,192,201606,2,0,L|352:192,1,75.0000028610231
368,192,202035,1,2,0:0:0:0:
284,142,202463,5,0,0:0:0:0:
284,242,202748,1,0,0:0:0:0:
198,191,203034,1,8,0:0:0:0:
284,142,203320,1,0,0:0:0:0:
284,242,203605,1,0,0:0:0:0:
198,191,203891,1,8,0:0:0:0:
256,192,204177,6,0,P|336:256|368:176,1,150.000005722046
256,192,205035,2,2,P|176:128|144:208,1,150.000005722046
112,176,205892,1,0,0:0:0:0:
176,176,206106,1,0,0:0:0:0:
64,240,206535,1,0,0:0:0:0:
192,240,206963,1,0,0:0:0:0:
128,304,207392,1,2,0:0:0:0:
256,304,207820,1,2,0:0:0:0:
64,368,208249,1,2,0:0:0:0:
192,368,208677,1,2,0:0:0:0:
256,368,209106,1,2,0:0:0:0:
256,368,209320,6,4,L|256:128,1,225.000008583069
192,112,210177,2,4,L|192:352,1,225.000008583069
128,304,211035,2,2,L|128:64,1,225.000008583069
256,128,212749,5,0,0:0:0:0:
320,192,213392,1,0,0:0:0:0:
256,192,213606,1,8,0:0:0:0:
192,192,214677,1,0,0:0:0:0:
256,256,214892,1,0,0:0:0:0:
256,192,215320,1,2,0:0:0:0:
256,192,215749,1,2,0:0:0:0:
256,256,216177,5,0,0:0:0:0:
320,192,216820,1,0,0:0:0:0:
256,192,217034,1,8,0:0:0:0:
192,192,218105,1,0,0:0:0:0:
256,128,218320,1,0,0:0:0:0:
256,192,218749,1,2,0:0:0:0:
256,192,219178,1,2,0:0:0:0:
256,192,219606,6,0,L|400:192,1,100
400,192,220463,1,2,0:0:0:0:
448,192,220677,1,2,0:0:0:0:
448,224,220892,1,2,0:0:0:0:
448,256,221320,2,0,B|448:304|448:304|368:304,1,100
368,304,222177,1,2,0:0:0:0:
336,336,222392,1,2,0:0:0:0:
304,304,222606,1,2,0:0:0:0:
272,272,223035,2,0,B|224:208|224:208|160:224,1,100
176,240,223892,1,2,0:0:0:0:
176,288,224107,1,2,0:0:0:0:
176,336,224321,1,2,0:0:0:0:
256,320,224749,1,0,0:0:0:0:
256,192,225177,1,0,0:0:0:0:
256,256,225606,1,0,0:0:0:0:
256,128,226463,1,4,0:0:0:0:
256,192,228177,6,8,P|256:96|288:96,1,150.000005722046
288,96,229892,2,8,P|336:160|288:192,1,150.000005722046
256,192,231606,2,8,P|192:224|192:304,1,150.000005722046
256,304,233320,1,0,0:0:0:0:
256,304,233963,1,0,0:0:0:0:
256,304,234177,2,4,B|224:240|224:240|288:240|288:240|256:192,1,187.500007152558
256,160,235463,1,2,0:0:0:0:
256,112,235892,1,2,0:0:0:0:
256,64,236749,5,0,0:0:0:0:
336,64,237392,1,0,0:0:0:0:
368,80,237606,2,4,B|416:112|416:112|288:160,1,187.500007152558
256,192,238892,1,2,0:0:0:0:
256,192,239320,1,2,0:0:0:0:
256,192,239749,2,6,L|320:192,2,37.5000014305115
