osu file format v10

[General]
AudioFilename: Skrillex - Right In (Original Mix).mp3
AudioLeadIn: 1015
PreviewTime: -1
Countdown: 0
SampleSet: Normal
StackLeniency: 0.7
Mode: 0
LetterboxInBreaks: 0

[Editor]
Bookmarks: 14034,53462,82605,96320
DistanceSpacing: 0.5
BeatDivisor: 8
GridSize: 4

[Metadata]
Title:Right In
TitleUnicode:Right In
Artist:Skrillex
ArtistUnicode:Skrillex
Creator:Frozen Child
Version:Right In
Source:
Tags:Dubstep Bangarang
BeatmapID:186790
BeatmapSetID:63150

[Difficulty]
HPDrainRate:6
CircleSize:4
OverallDifficulty:7
ApproachRate:9
SliderMultiplier:1.7
SliderTickRate:1

[Events]
//Background and Video events
0,0,"skrillex-sorry_00406079.jpg"
//Break Periods
2,82805,95720
//Storyboard Layer 0 (Background)
//Storyboard Layer 1 (Fail)
//Storyboard Layer 2 (Pass)
//Storyboard Layer 3 (Foreground)
//Storyboard Sound Samples
//Background Colour Transformations
3,100,163,162,255

[TimingPoints]
320,428.571428571429,4,1,0,55,1,0
1391,-100,4,2,0,75,0,0
2034,-100,4,1,0,55,0,0
3105,-100,4,2,0,75,0,0
3748,-100,4,1,0,55,0,0
27748,-54.054054054054,4,1,0,55,0,1
28284,-54.054054054054,4,2,0,75,0,1
28391,-54.054054054054,4,1,0,55,0,1
28498,-54.054054054054,4,2,0,5,0,1
28605,-54.054054054054,4,1,0,55,0,1
28712,-54.054054054054,4,2,0,75,0,1
28820,-54.054054054054,4,1,0,55,0,1
28927,-54.054054054054,4,2,0,75,0,1
29034,-54.054054054054,4,1,0,55,0,0
31177,-100,4,1,0,55,0,0
34605,-54.054054054054,4,1,0,55,0,0
38034,-100,4,1,0,55,0,0
41462,-54.054054054054,4,1,0,55,0,0
44891,-100,4,1,0,55,0,0
48320,-54.054054054054,4,1,0,55,0,0
51748,-100,4,1,0,55,0,0
54320,-133.333333333333,4,1,0,55,0,0
55177,-100,4,1,0,55,0,0
79177,-200,4,1,0,55,0,0
80034,-100,4,1,0,55,0,0

[Colours]
Combo1 : 128,255,0
Combo2 : 58,117,0
Combo3 : 0,119,0
Combo4 : 128,255,0

[HitObjects]
80,252,320,1,2,0:0:0
196,156,641,1,2,0:0:0
332,216,962,1,2,0:0:0
332,216,1391,1,2,2:0:0
432,132,2034,5,2,0:0:0
316,228,2355,1,2,0:0:0
180,168,2677,1,2,0:0:0
180,168,3105,1,2,2:0:0
100,180,3320,1,2,2:0:0
80,104,3534,1,2,2:0:0
160,88,3748,37,2,0:0:0
308,64,4070,1,2,0:0:0
384,192,4391,1,2,0:0:0
384,192,4820,1,2,2:0:0
328,276,5462,5,2,0:0:0
184,316,5784,1,2,0:0:0
84,220,6105,1,2,0:0:0
84,220,6534,2,0,B|72:120,2,85,2|6|2,2:0|0:0|1:0,0:0:0
184,316,7177,37,2,0:0:0
184,144,7391,1,0,0:0:0
200,136,7498,2,0,B|176:20,1,85,2|0,0:0|0:0,0:0:0
196,44,7819,1,2,0:0:0
364,72,8248,1,2,2:0:0
80,252,8891,5,2,0:0:0
196,156,9212,1,2,0:0:0
332,216,9534,1,2,0:0:0
332,216,9962,1,2,2:0:0
412,204,10177,1,2,2:0:0
432,280,10391,1,2,2:0:0
348,296,10605,37,2,0:0:0
220,316,10927,1,2,0:0:0
92,332,11248,1,2,0:0:0
92,332,11677,1,2,2:0:0
72,76,12319,5,2,0:0:0
72,76,12641,1,2,0:0:0
72,76,12962,1,2,0:0:0
184,204,13391,2,0,B|167:98,2,85,2|6|2,2:0|0:0|0:0,0:0:0
168,288,14034,38,0,B|236:308|328:268,1,127.5,12|0,2:0|0:0,0:0:0
308,296,14462,2,0,B|272:196,1,85,8|0,2:0|0:0,0:0:0
248,136,14891,1,8,2:0:0
52,56,15105,1,2,2:0:0
136,36,15319,1,8,2:0:0
140,120,15534,1,2,2:0:0
60,144,15748,6,0,B|44:212|72:280,1,127.5
56,288,16177,2,0,B|152:256,1,85
200,316,16605,1,8,2:0:0
368,300,16819,1,2,2:0:0
200,316,17034,1,8,2:0:0
368,300,17248,1,2,2:0:0
460,332,17462,38,0,B|468:244|452:184,1,127.5
440,200,17891,1,0,0:0:0
356,196,18105,1,0,0:0:0
280,156,18320,1,0,0:0:0
308,76,18534,1,0,0:0:0
380,120,18748,1,0,0:0:0
140,76,18962,1,0,0:0:0
56,60,19177,6,0,B|36:140|64:224,1,127.5
53,186,19605,1,0,0:0:0
108,332,19820,1,0,0:0:0
53,186,20034,1,0,0:0:0
188,248,20248,1,0,0:0:0
53,186,20462,1,0,0:0:0
196,132,20677,1,0,0:0:0
76,304,20891,37,8,0:0:0
160,288,21105,1,0,0:0:0
140,204,21320,1,8,0:0:0
56,220,21534,1,0,0:0:0
140,204,21748,5,8,0:0:0
156,120,21962,1,0,0:0:0
240,140,22177,1,8,0:0:0
224,224,22391,1,0,0:0:0
280,288,22605,37,8,0:0:0
360,312,22820,1,0,0:0:0
456,164,23034,1,8,0:0:0
376,136,23248,1,0,0:0:0
428,248,23462,1,8,0:0:0
508,280,23677,1,0,0:0:0
288,184,23891,1,8,0:0:0
212,148,24105,1,0,0:0:0
84,264,24320,5,8,0:0:0
92,244,24427,1,0,0:0:0
96,224,24534,1,0,0:0:0
96,204,24641,1,0,0:0:0
92,184,24748,1,8,0:0:0
84,164,24855,1,0,0:0:0
68,148,24962,1,0,0:0:0
48,140,25070,37,0,0:0:0
68,136,25177,1,8,0:0:0
88,132,25284,1,0,0:0:0
108,128,25391,1,0,0:0:0
128,124,25498,1,0,0:0:0
148,120,25605,1,8,0:0:0
168,116,25712,1,0,0:0:0
188,112,25820,1,0,0:0:0
208,108,25927,2,0,B|220:80,18,21.25,0|0|0|0|0|0|0|0|0|8|0|0|0|0|0|0|0|0|4,0:0|0:0|0:0|0:0|0:0|0:0|0:0|0:0|0:0|0:0|0:0|0:0|0:0|0:0|0:0|0:0|0:0|0:0|0:0,0:0:0
44,328,27748,38,0,B|80:216|44:88,1,235.874999100208
128,0,28177,2,0,B|160:180,1,157.249999400139,0|2,0:0|0:0,0:0:0
296,304,28605,2,0,B|232:232|240:132,1,157.249999400139,2|0,0:0|0:0,0:0:0
280,8,29034,2,0,B|324:172,1,157.249999400139,2|0,0:0|0:0,0:0:0
440,260,29462,38,0,B|448:96,1,157.249999400139
256,212,29891,2,0,B|248:384,1,157.249999400139
84,252,30320,2,0,B|92:88,1,157.249999400139
368,28,30748,2,0,B|364:212,1,157.249999400139
456,276,31177,22,0,B|404:284|348:264,1,85
356,260,31498,1,0,0:0:0
344,244,31605,1,0,0:0:0
336,224,31712,1,0,0:0:0
332,204,31820,2,0,B|340:156|340:156|328:112,2,85
192,264,32462,2,0,B|144:272|72:260,1,85
48,60,32891,6,0,B|56:108|44:160,1,85
40,164,33212,1,0,0:0:0
28,184,33320,1,0,0:0:0
12,200,33427,1,0,0:0:0
20,220,33534,1,0,0:0:0
104,236,33748,2,0,B|112:288|108:332|88:384,2,127.5
260,204,34605,6,0,B|236:44,1,157.249999400139
456,160,35034,2,0,B|484:336,1,157.249999400139
324,324,35462,2,0,B|236:336|236:336|144:300,1,157.249999400139
172,311,35784,1,0,0:0:0
172,311,35891,1,0,0:0:0
32,168,36105,1,0,0:0:0
192,176,36320,6,0,B|216:96|168:8,1,157.249999400139
368,36,36748,2,0,B|304:212,1,157.249999400139
368,332,37177,2,0,B|396:248|488:248,1,157.249999400139
488,248,37498,1,0,0:0:0
488,248,37605,1,0,0:0:0
464,112,37820,1,0,0:0:0
292,120,38034,5,0,0:0:0
208,104,38248,1,0,0:0:0
72,204,38462,1,0,0:0:0
156,220,38676,1,0,0:0:0
64,72,38891,1,0,0:0:0
124,132,39105,1,0,0:0:0
124,132,39212,1,0,0:0:0
124,132,39320,1,0,0:0:0
208,104,39534,1,0,0:0:0
456,88,39748,5,0,0:0:0
420,184,39962,1,0,0:0:0
312,116,40177,1,0,0:0:0
272,268,40391,1,0,0:0:0
136,188,40605,1,0,0:0:0
80,352,40820,1,0,0:0:0
80,352,41034,1,0,0:0:0
80,352,41248,1,0,0:0:0
236,344,41462,6,0,B|340:360|448:312,1,157.249999400139
460,244,41784,2,0,B|488:64,1,157.249999400139
344,36,42105,2,0,B|172:44,1,157.249999400139
52,124,42534,1,0,0:0:0
52,124,42641,1,0,0:0:0
52,124,42748,2,0,B|92:204|52:308,1,157.249999400139
236,352,43177,6,0,B|208:160,1,157.249999400139
292,36,43498,2,0,B|332:256,1,157.249999400139
384,248,43820,1,0,0:0:0
488,356,44034,1,0,0:0:0
488,356,44141,1,0,0:0:0
488,356,44248,1,0,0:0:0
460,200,44462,2,0,B|484:112|416:40,1,157.249999400139
88,40,44891,6,0,B|64:88|80:148,1,85
88,140,45212,1,0,0:0:0
104,152,45320,1,0,0:0:0
124,160,45427,1,0,0:0:0
144,168,45534,2,0,B|184:200|184:200|184:248,2,85
56,336,46177,2,0,B|48:240,1,85
268,80,46605,6,0,B|292:128|272:184,1,85
264,176,46927,1,0,0:0:0
260,196,47034,1,0,0:0:0
264,216,47141,1,0,0:0:0
272,236,47248,1,0,0:0:0
416,352,47462,2,0,B|432:304|412:248|368:228,2,127.5
240,368,48320,6,0,B|148:376|68:336,1,157.249999400139
32,164,48641,2,0,B|116:140|200:176,1,157.249999400139
276,264,48962,2,0,B|328:56,1,157.249999400139
472,64,49391,1,0,0:0:0
472,64,49498,1,0,0:0:0
472,64,49605,2,0,B|440:260,1,157.249999400139
288,340,50034,6,0,B|240:260|288:160,1,157.249999400139
212,112,50355,2,0,B|128:120|64:56,1,157.249999400139
272,32,50677,2,0,B|352:20|352:20|440:60,1,157.249999400139
421,51,50998,1,0,0:0:0
421,51,51105,1,0,0:0:0
440,192,51320,1,0,0:0:0
376,304,51534,1,0,0:0:0
152,336,51748,6,0,B|120:288|148:232,1,85
320,96,52177,2,0,B|352:144|324:200,1,85
64,192,52605,2,0,B|40:128|72:72,1,85
240,200,53034,2,0,B|264:256|232:320,1,85
48,344,53462,5,0,0:0:0
120,232,53677,1,0,0:0:0
246,284,53891,1,0,0:0:0
300,152,54105,1,0,0:0:0
436,192,54320,2,0,B|448:140|424:76,2,95.6250036478044
96,76,55177,6,0,B|64:124|92:180,1,85
264,296,55605,2,0,B|296:248|268:192,1,85
224,60,56034,2,0,B|184:104|168:168|172:224,1,170
104,268,56677,1,0,0:0:0
348,196,56891,5,0,0:0:0
432,184,57105,1,0,0:0:0
416,100,57320,1,0,0:0:0
332,116,57534,1,0,0:0:0
264,228,57748,1,2,0:0:0
464,216,57962,1,2,0:0:0
452,8,58177,1,2,0:0:0
280,60,58391,1,2,0:0:0
108,40,58605,6,0,B|136:88|144:148|112:208,1,170
76,280,59248,2,0,B|64:336,2,42.5
352,220,59677,2,0,B|376:176|364:104,1,85
280,32,60105,2,0,B|264:76,2,42.5
216,276,60534,2,0,B|200:220|220:152,1,85
432,72,60962,1,0,0:0:0
432,72,61177,6,0,B|456:152|404:256,1,170
216,276,61820,1,0,0:0:0
88,340,62034,6,0,B|40:248,1,85
116,60,62462,2,0,B|168:152,1,85
396,224,62891,2,0,B|340:252|272:224|272:156,1,170
364,136,63534,1,0,0:0:0
192,64,63748,6,0,B|104:44,1,85
52,200,64177,2,0,B|140:220,1,85,0|0,0:0|0:0,0:0:0
448,152,64605,2,0,B|336:132,1,85
288,344,65034,2,0,B|304:248,1,85
172,44,65462,6,0,B|192:100|184:156|156:188,1,127.5
152,176,65891,1,0,0:0:0
48,332,66105,1,0,0:0:0
48,312,66212,1,0,0:0:0
48,292,66320,6,0,B|72:240|56:184,1,85
172,48,66748,1,0,0:0:0
172,48,66855,1,0,0:0:0
172,48,66962,2,0,B|216:76|280:48,1,85
420,216,67391,1,0,0:0:0
424,196,67498,1,0,0:0:0
428,176,67605,2,0,B|440:128|408:80,1,85
236,152,68034,2,0,B|204:224|264:284,2,127.5
172,96,68891,6,0,B|136:56|80:56,1,85
28,256,69320,2,0,B|64:296|120:296,1,85
360,248,69748,2,0,B|336:188|276:152|192:172,1,170
172,236,70391,1,0,0:0:0
88,64,70605,6,0,B|236:76,1,127.5
215,74,71034,1,0,0:0:0
432,24,71248,1,0,0:0:0
432,24,71355,1,0,0:0:0
432,24,71462,2,0,B|460:72|424:128,1,85
272,252,71891,2,0,B|244:204|280:148,1,85
432,184,72320,6,0,B|460:236|448:296|424:340,1,127.5
448,324,72748,2,0,B|336:332,1,85
344,340,73070,1,0,0:0:0
324,348,73177,1,0,0:0:0
172,224,73391,2,0,B|76:208,1,85
288,164,73820,2,0,B|348:176,2,42.5
112,32,74248,2,0,B|168:112,1,85
76,332,74677,2,0,B|176:320,1,85
344,192,75105,1,0,0:0:0
344,192,75212,1,0,0:0:0
344,192,75320,1,0,0:0:0
160,104,75534,1,0,0:0:0
344,192,75748,6,0,B|360:244|312:280,1,85
128,256,76177,2,0,B|112:204|160:168,1,85
224,64,76605,2,0,B|256:108|260:184|208:228,1,170
217,221,77248,1,0,0:0:0
424,240,77462,6,0,B|452:152,1,85
304,276,77891,2,0,B|324:176,1,85
184,304,78320,2,0,B|188:200,2,85
56,348,78962,1,0,0:0:0
56,348,79177,2,0,B|28:288|48:212,1,127.5
104,60,80034,5,0,0:0:0
324,84,80248,1,0,0:0:0
256,296,80462,1,0,0:0:0
64,248,80677,1,0,0:0:0
176,140,80891,1,0,0:0:0
188,160,80998,1,0,0:0:0
204,176,81105,1,0,0:0:0
224,188,81212,1,0,0:0:0
244,196,81320,1,0,0:0:0
264,200,81427,1,0,0:0:0
284,200,81534,1,0,0:0:0
268,212,81641,1,0,0:0:0
256,228,81748,1,0,0:0:0
248,248,81855,1,0,0:0:0
248,268,81962,1,0,0:0:0
252,288,82070,1,0,0:0:0
264,308,82177,1,0,0:0:0
280,324,82284,1,0,0:0:0
300,332,82391,1,0,0:0:0
320,332,82498,1,0,0:0:0
340,324,82605,1,0,0:0:0
112,344,96320,6,0,B|120:304|128:248|96:184,1,127.5
88,216,96748,1,0,0:0:0
32,84,96962,1,0,0:0:0
88,216,97177,1,0,0:0:0
120,72,97391,1,0,0:0:0
88,216,97605,1,0,0:0:0
196,116,97820,1,0,0:0:0
204,264,98034,6,0,B|260:284|336:308,1,127.5
332,324,98462,1,0,0:0:0
468,280,98677,2,0,B|488:232|484:168,1,85
340,56,99105,2,0,B|320:104|324:168,1,85
488,28,99534,1,0,0:0:0
428,308,103177,5,0,0:0:0
344,292,103391,1,0,0:0:0
364,208,103605,1,0,0:0:0
448,220,103820,1,0,0:0:0
276,188,104034,5,0,0:0:0
292,104,104248,1,0,0:0:0
376,124,104462,1,0,0:0:0
364,208,104677,1,0,0:0:0
192,208,104891,5,0,0:0:0
108,192,105105,1,0,0:0:0
68,64,105320,1,0,0:0:0
108,192,105534,1,0,0:0:0
152,60,105748,1,0,0:0:0
108,192,105962,1,0,0:0:0
224,100,106177,1,0,0:0:0
108,192,106391,1,0,0:0:0
60,264,106605,5,0,0:0:0
68,284,106712,1,0,0:0:0
76,304,106820,1,0,0:0:0
84,324,106927,1,0,0:0:0
96,308,107034,1,0,0:0:0
108,292,107141,1,0,0:0:0
128,280,107248,1,0,0:0:0
148,272,107355,1,0,0:0:0
168,272,107462,1,0,0:0:0
188,280,107570,1,0,0:0:0
200,264,107677,1,0,0:0:0
212,248,107784,1,0,0:0:0
224,232,107891,1,0,0:0:0
236,216,107998,1,0,0:0:0
248,200,108105,1,0,0:0:0
260,184,108212,2,0,B|272:156,18,21.25,0|0|0|0|0|0|0|0|0|8|0|0|0|0|0|0|0|0|4,0:0|0:0|0:0|0:0|0:0|0:0|0:0|0:0|0:0|0:0|0:0|0:0|0:0|0:0|0:0|0:0|0:0|0:0|0:0,0:0:0
