osu file format v10

[General]
AudioFilename: retile.mp3
AudioLeadIn: 0
PreviewTime: 53045
Countdown: 0
SampleSet: Normal
StackLeniency: 0.7
Mode: 0
LetterboxInBreaks: 1

[Editor]
DistanceSpacing: 1.2
BeatDivisor: 4
GridSize: 4

[Metadata]
Title:Reptile
TitleUnicode:Reptile
Artist:Skrillex
ArtistUnicode:Skrillex
Creator:[Pisces]
Version:Hard
Source:Mortal Kombat 9
Tags:
BeatmapID:180004
BeatmapSetID:60175

[Difficulty]
HPDrainRate:6
CircleSize:4
OverallDifficulty:5
ApproachRate:7
SliderMultiplier:1.5
SliderTickRate:2

[Events]
//Background and Video events
0,0,"b g.png"
//Break Periods
2,70154,72872
2,74789,77236
2,79153,82145
//Storyboard Layer 0 (Background)
//Storyboard Layer 1 (Fail)
//Storyboard Layer 2 (Pass)
//Storyboard Layer 3 (Foreground)
//Storyboard Sound Samples
//Background Colour Transformations
3,100,163,162,255

[TimingPoints]
136,545.454545454546,4,1,1,60,1,0
35045,-66.6666666666667,4,1,1,60,0,1
35181,-66.6666666666667,4,1,1,60,0,0
38317,-66.6666666666667,4,2,1,60,0,0
38863,-66.6666666666667,4,1,1,60,0,0
39136,-66.6666666666667,4,2,1,60,0,0
39408,-66.6666666666667,4,1,1,60,0,0
43772,-66.6666666666667,4,2,1,60,0,0
43908,-66.6666666666667,4,1,1,60,0,0
65863,-66.6666666666667,4,2,1,60,0,0
66136,-66.6666666666667,4,1,1,60,0,0
67772,-66.6666666666667,4,2,1,60,0,0
67908,-66.6666666666667,4,1,1,60,0,0
83045,-66.6666666666667,4,1,1,20,0,0
83181,-66.6666666666667,4,1,1,30,0,0
83317,-66.6666666666667,4,1,1,40,0,0
83590,-66.6666666666667,4,1,1,45,0,0
83999,-66.6666666666667,4,1,1,50,0,0
84545,-66.6666666666667,4,1,1,55,0,0
85090,-66.6666666666667,4,1,1,60,0,0
95045,-66.6666666666667,4,2,1,60,0,0
95590,-66.6666666666667,4,1,1,60,0,0
103772,-66.6666666666667,4,2,1,60,0,0
104043,-66.6666666666667,4,1,1,60,0,0
118619,-66.6666666666667,4,2,1,60,0,0
119317,-66.6666666666667,4,1,1,60,0,0
119863,-66.6666666666667,4,2,1,60,0,0
120272,-66.6666666666667,4,1,1,60,0,0
121772,-66.6666666666667,4,1,1,30,0,0
122317,-66.6666666666667,4,1,1,65,0,0
123408,-66.6666666666667,4,2,1,65,0,0
123954,-66.6666666666667,4,1,1,65,0,0
125590,-66.6666666666667,4,2,1,65,0,0
126136,-66.6666666666667,4,1,1,65,0,0
127363,-66.6666666666667,4,2,1,65,0,0
128317,-66.6666666666667,4,1,1,65,0,0
131797,-66.6666666666667,4,2,1,65,0,0
132674,-66.6666666666667,4,1,1,65,0,0
139499,-66.6666666666667,4,1,1,30,0,0
144136,-66.6666666666667,4,1,1,10,0,0

[Colours]
Combo1 : 0,255,0
Combo2 : 0,128,0

[HitObjects]
114,88,17590,2,0,P|78:125|105:168,1,75
144,232,18135,2,0,P|160:272,1,37.5
248,144,18408,2,0,P|239:186,1,37.5
328,264,18681,2,0,P|344:224,1,37.5
368,128,18954,2,0,P|416:144|416:192,2,75
256,192,19772,12,0,21408,0:0:0
408,128,21954,6,0,P|440:168|416:200,1,75
360,280,22499,2,0,P|344:328,1,37.5
272,216,22772,2,0,P|232:240,1,37.5
248,96,23045,2,0,P|208:88,1,37.5
144,32,23317,2,0,P|112:48|112:88,2,75
256,192,24135,12,0,25226,0:0:0
72,136,25772,6,0,P|112:152|128:206,1,75
48,224,26317,1,0,0:0:0
96,336,26590,2,0,P|208:240|176:136,1,225.000008583069
200,56,27681,1,0,0:0:0
328,120,27954,1,0,0:0:0
384,256,28226,1,0,0:0:0
280,256,28499,2,2,P|288:320|376:344,2,150
256,160,29863,1,0,0:0:0
256,160,30135,2,0,P|192:200|208:296,1,150
168,88,31226,2,0,P|136:112,3,37.5
120,128,31772,2,0,P|99:168,3,37.5
88,192,32317,2,0,P|80:232,4,37.5
256,192,33135,12,4,34499,0:0:0
88,104,35045,5,0,0:0:0
64,248,35590,2,0,P|48:312,1,56.2500021457673,8|0,0:0|0:0,0:0:0
168,216,35863,2,0,P|208:264,1,56.2500021457673
216,112,36136,2,0,P|272:120,1,56.2500021457673
328,48,36408,2,8,P|376:96|336:168,2,112.500004291535,0|8|0,0:0|0:0|0:0,0:0:0
368,224,37226,2,0,P|432:224,1,56.2500021457673
400,312,37499,2,0,P|336:312,1,56.2500021457673
368,224,37772,2,0,P|432:224,1,56.2500021457673,8|0,0:0|0:0,0:0:0
400,312,38045,2,0,P|336:312,1,56.2500021457673
280,256,38317,2,0,P|240:304|272:352,3,112.500004291535,8|0|8|0,0:0|0:0|0:0|0:0,0:0:0
136,304,39408,5,0,0:0:0
80,168,39681,2,0,P|152:144,1,56.2500021457673
176,48,39954,2,0,P|104:72,1,56.2500021457673,8|0,0:0|0:0,0:0:0
208,192,40226,2,0,P|280:168,1,56.2500021457673
288,80,40499,1,0,0:0:0
384,40,40772,2,0,P|408:96|384:136,2,112.500004291535,0|8|0,0:0|0:0|0:0,0:0:0
344,208,41590,2,0,P|432:232,1,56.2500021457673
424,264,41863,2,0,P|400:344,1,56.2500021457673
360,344,42136,2,0,P|296:328,1,56.2500021457673,8|0,0:0|0:0,0:0:0
272,288,42408,2,0,P|296:216,2,56.2500021457673
192,312,42954,1,0,0:0:0
104,304,43226,2,0,P|117:246|199:235,2,112.500004291535,8|0|8,0:0|0:0|0:0,0:0:0
80,88,44317,6,0,P|144:56,1,56.2500021457673,8|0,0:0|0:0,0:0:0
168,80,44590,2,0,P|232:112,1,56.2500021457673
248,104,44863,2,0,P|312:72,1,56.2500021457673,0|0,0:0|0:0,0:0:0
384,56,45136,2,0,P|388:124|339:141,2,112.500004291535,0|8|0,0:0|0:0|0:0,0:0:0
432,208,45954,2,0,P|380:231,1,56.2500021457673
368,272,46226,2,0,P|360:336,1,56.2500021457673
248,296,46499,1,8,0:0:0
172,224,46636,1,0,0:0:0
140,336,46772,1,0,0:0:0
56,256,46908,1,0,0:0:0
56,128,47045,1,0,0:0:0
120,32,47317,2,0,P|152:80|152:144,2,112.500004291535,0|8|0,0:0|0:0|0:0,0:0:0
320,56,48136,5,0,0:0:0
424,96,48408,2,0,P|400:160,1,56.2500021457673
312,176,48681,2,0,P|360:216,1,56.2500021457673,8|0,0:0|0:0,0:0:0
408,280,48954,2,0,P|344:312,1,56.2500021457673
256,320,49226,1,0,0:0:0
160,328,49499,2,0,P|148:272|206:238,2,112.500004291535,0|8|0,0:0|0:0|0:0,0:0:0
80,168,50317,5,0,0:0:0
80,168,50590,1,0,0:0:0
112,80,50863,2,0,P|176:120,1,56.2500021457673,8|0,0:0|0:0,0:0:0
240,136,51272,1,0,0:0:0
240,136,51408,1,0,0:0:0
296,64,51681,2,0,P|336:120|296:192,2,112.500004291535,0|8|0,0:0|0:0|0:0,0:0:0
400,208,52499,5,0,0:0:0
312,272,53045,2,0,P|368:304,1,56.2500021457673,8|0,0:0|0:0,0:0:0
272,336,53317,2,0,P|200:288,1,56.2500021457673
240,224,53590,1,0,0:0:0
152,240,53726,1,0,0:0:0
80,184,53863,1,0,0:0:0
72,96,54136,5,8,0:0:0
72,96,54272,1,0,0:0:0
152,96,54545,1,0,0:0:0
152,96,54681,2,0,P|284:176|284:8|447:80,1,281.250010728836,0|0,0:0|0:0,0:0:0
416,72,55636,1,0,0:0:0
416,72,55772,1,0,0:0:0
476,152,56045,2,0,P|420:178|350:125,2,112.500004291535
448,284,56863,5,0,0:0:0
336,280,56999,2,0,P|384:320,2,56.2500021457673
380,224,57408,2,0,P|284:224|300:340,2,225.000008583069,8|0|8,0:0|0:0|0:0,0:0:0
368,132,58636,1,0,0:0:0
415,68,58908,1,0,0:0:0
415,68,59045,2,0,P|284:8|284:176|152:96,1,281.250010728836
156,98,59999,1,0,0:0:0
64,124,60136,1,0,0:0:0
64,124,60408,2,0,P|64:188|112:208,2,112.500004291535,0|8|0,0:0|0:0|0:0,0:0:0
228,332,61226,6,0,P|264:272|320:248,1,112.500004291535
344,324,61772,2,0,P|400:296,1,56.2500021457673,8|0,0:0|0:0,0:0:0
400,256,62045,2,0,P|456:232,1,56.2500021457673
456,88,62317,1,0,0:0:0
356,152,62454,1,0,0:0:0
284,48,62590,1,0,0:0:0
204,152,62863,1,8,0:0:0
204,152,62999,1,0,0:0:0
144,64,63272,1,0,0:0:0
144,64,63408,2,0,P|56:108|72:220|168:252,1,225.000008583069,0|8,0:0|0:0,0:0:0
244,260,64226,6,0,P|304:248,1,56.2500021457673
348,316,64499,2,0,P|276:332,1,56.2500021457673
416,256,64772,2,0,P|443:282|431:350,2,112.500004291535,0|8|0,0:0|0:0|0:0,0:0:0
432,164,65590,1,0,0:0:0
372,104,65863,2,0,P|420:64,2,56.2500021457673,8|0|8,0:0|0:0|0:0,0:0:0
296,68,66272,2,0,P|344:28,3,56.2500021457673
212,64,66954,1,0,0:0:0
132,72,67226,2,0,P|136:136|180:152,2,112.500004291535,8|0|8,0:0|0:0|0:0,0:0:0
256,156,68045,1,0,0:0:0
256,156,68317,2,0,P|252:232|184:260,1,112.500004291535,8|0,0:0|0:0,0:0:0
156,212,68863,2,0,P|181:322|305:278,1,225.000008583069,0|8,0:0|0:0,0:0:0
276,320,69954,1,4,0:0:0
224,128,73772,6,0,P|192:192|224:256,1,112.500004291535
288,192,74317,2,0,P|288:256|256:288,1,112.500004291535
288,128,78136,6,0,P|320:192|288:256,1,112.500004291535
224,192,78681,2,0,P|224:256|256:288,1,112.500004291535
56,56,83045,6,0,P|56:124,7,56.2500021457673
88,120,84136,2,0,P|116:172,7,56.2500021457673
152,168,85226,2,0,P|208:200,8,56.2500021457673
384,328,87408,6,0,P|400:208,1,112.500004291535
444,152,87954,2,0,P|396:120|368:144|368:144|320:88,1,112.500004291535,8|0,0:0|0:0,0:0:0
268,136,88499,2,0,P|259:71|315:19|388:44,2,168.750006437302,0|8|0,0:0|0:0|0:0,0:0:0
136,128,89590,1,0,0:0:0
136,128,89863,1,0,0:0:0
64,196,90136,2,0,P|111:230|173:200,1,112.500004291535,8|0,0:0|0:0,0:0:0
240,212,90681,2,0,P|232:272|232:272|144:316,1,112.500004291535
324,328,91226,2,0,P|340:188,1,112.500004291535,8|0,0:0|0:0,0:0:0
356,124,91772,5,0,0:0:0
356,124,92045,1,0,0:0:0
304,32,92317,2,0,P|256:64|247:117,1,112.500004291535,8|0,0:0|0:0,0:0:0
212,208,92863,2,0,P|137:173|137:173|151:59,2,168.750006437302,0|8|0,0:0|0:0|0:0,0:0:0
68,264,93954,1,0,0:0:0
68,264,94226,1,0,0:0:0
96,352,94499,2,0,P|144:328|152:304|152:304|218:286,1,112.500004291535,8|0,0:0|0:0,0:0:0
252,348,95045,2,0,P|276:292|222:219,2,112.500004291535,8|0|8,0:0|0:0|0:0,0:0:0
416,232,95863,5,0,0:0:0
416,232,96136,1,0,0:0:0
348,176,96408,2,0,P|384:136|440:148,2,112.500004291535,0|8|0,0:0|0:0|0:0,0:0:0
268,228,97226,2,0,P|256:168|256:168|296:92,1,112.500004291535,0|0,0:0|0:0,0:0:0
296,40,97772,2,0,P|256:32|228:56|228:56|180:44,1,112.500004291535,8|0,0:0|0:0,0:0:0
88,104,98317,1,0,0:0:0
88,104,98590,1,0,0:0:0
40,192,98863,2,0,P|93:208|156:161,1,112.500004291535,8|0,0:0|0:0,0:0:0
200,264,99409,2,0,P|168:328,1,56.2500021457673
256,340,99681,2,0,P|284:272,1,56.2500021457673
308,216,99954,2,8,P|368:244|372:260|372:260|440:288,1,112.500004291535
436,192,100499,5,0,0:0:0
364,144,100772,2,0,P|413:99|429:102|429:102|481:50,2,112.500004291535,0|8|0,0:0|0:0|0:0,0:0:0
280,116,101590,1,0,0:0:0
184,112,101863,2,0,P|208:40|248:24,2,112.500004291535,0|8|0,0:0|0:0|0:0,0:0:0
104,168,102681,2,0,P|142:217|186:206,1,112.500004291535
224,284,103226,2,0,P|120:352,2,112.500004291535,8|0|8,0:0|0:0|0:0,0:0:0
304,328,104045,2,0,P|312:248|280:216,2,112.500004291535,0|8|0,0:0|0:0|0:0,0:0:0
304,328,104863,1,0,0:0:0
348,96,105408,6,0,P|376:164,1,56.2500021457673,8|0,0:0|0:0,0:0:0
284,140,105681,2,0,P|256:60,1,56.2500021457673
176,68,105954,2,0,P|200:136,2,56.2500021457673
188,200,106499,2,0,P|124:183|122:155|122:155|80:132,1,112.500004291535,8|0,0:0|0:0,0:0:0
48,224,107045,2,0,P|96:276|156:320|248:248|256:356,1,225.000008583069,0|8,0:0|0:0,0:0:0
324,348,107863,2,0,P|332:296|284:240,2,112.500004291535
252,164,108681,2,0,P|366:123,1,112.500004291535,8|0,0:0|0:0,0:0:0
444,108,109226,6,0,P|420:60|366:45,1,112.500004291535
276,56,109772,2,0,P|176:4|144:124|40:44,1,225.000008583069,8|0,0:0|0:0,0:0:0
32,156,110863,2,0,P|158:188,1,112.500004291535,8|0,0:0|0:0,0:0:0
104,260,111408,2,0,P|158:292|211:236|211:236|316:209,1,225.000008583069,0|8,0:0|0:0,0:0:0
264,308,112226,2,0,P|332:288,1,56.2500021457673
368,344,112499,2,0,P|428:308,2,56.2500021457673
396,236,113045,2,0,P|404:164|360:132|360:132|292:40,1,225.000008583069,8|0,0:0|0:0,0:0:0
96,48,114136,6,0,P|64:116,1,56.2500021457673,8|0,0:0|0:0,0:0:0
92,124,114408,2,0,P|120:184,1,56.2500021457673
96,208,114681,2,0,P|64:276,1,56.2500021457673,0|0,0:0|0:0,0:0:0
148,288,114954,2,0,P|100:333|16:327,2,112.500004291535,0|8|0,0:0|0:0|0:0,0:0:0
240,304,115772,2,0,P|240:248|200:216|200:216|180:192,1,112.500004291535
240,136,116317,2,0,P|312:108,1,56.2500021457673,8|0,0:0|0:0,0:0:0
344,128,116590,2,0,P|376:200,2,56.2500021457673
336,40,117136,2,0,P|388:48|427:112,2,112.500004291535,0|8|0,0:0|0:0|0:0,0:0:0
408,284,117954,5,0,0:0:0
312,248,118226,2,0,P|296:308,1,56.2500021457673
208,288,118499,2,0,P|232:208,4,56.2500021457673,8|0|8|0|8,0:0|0:0|0:0|0:0|0:0,0:0:0
116,304,119317,1,0,0:0:0
36,272,119590,2,0,P|58:231|128:225,2,112.500004291535,8|0|8,0:0|0:0|0:0,0:0:0
56,96,120408,1,0,0:0:0
156,120,120681,2,0,P|192:188,1,56.2500021457673,8|0,0:0|0:0,0:0:0
260,136,120954,2,0,P|220:64|220:64|180:44|188:-4,1,112.500004291535
336,88,121499,2,0,P|358:132|338:188,1,112.500004291535,0|0,0:0|0:0,0:0:0
432,264,122317,6,0,P|388:336|272:328,1,168.750006437302,0|0,0:0|0:0,0:0:0
320,264,122863,2,0,P|236:284,1,56.2500021457673,8|0,0:0|0:0,0:0:0
240,204,123136,2,0,P|156:224,1,56.2500021457673
164,308,123408,2,0,P|110:288|103:226,3,112.500004291535,8|0|8|0,0:0|0:0|0:0|0:0,0:0:0
32,172,124499,2,0,P|84:140|136:144|136:144|296:96,1,225.000008583069,0|8,0:0|0:0,0:0:0
316,56,125317,2,0,P|384:120,1,56.2500021457673
440,72,125590,2,0,P|463:122|421:153,3,112.500004291535,8|0|8|0,0:0|0:0|0:0|0:0,0:0:0
352,276,126681,5,0,0:0:0
260,248,126954,2,0,P|232:328,1,56.2500021457673
152,284,127226,2,0,P|176:220,4,56.2500021457673,8|0|8|0|8,0:0|0:0|0:0|0:0|0:0,0:0:0
72,204,128045,1,0,0:0:0
32,116,128317,2,0,P|84:104|144:148,1,112.500004291535,8|0,0:0|0:0,0:0:0
136,16,128863,2,0,P|209:78|209:78|232:143|303:156,1,225.000008583069,0|8,0:0|0:0,0:0:0
320,64,129681,2,0,P|379:95|399:156,1,112.500004291535
364,228,130226,2,0,P|436:228|468:164,2,112.500004291535,0|8|0,0:0|0:0|0:0,0:0:0
340,332,131045,6,0,P|220:280,1,112.500004291535
160,248,131590,2,0,P|96:296,3,56.2500021457673,8|0|8|0,0:0|0:0|0:0|0:0,0:0:0
56,216,132136,2,0,P|120:172,2,56.2500021457673
56,100,132681,1,8,0:0:0
56,100,132954,1,0,0:0:0
108,28,133226,2,0,P|152:72|132:136,1,112.500004291535
240,64,133772,2,0,P|256:144,1,56.2500021457673,8|0,0:0|0:0,0:0:0
296,136,134045,2,0,P|364:120,2,56.2500021457673
432,148,134590,2,0,P|448:104|407:56,2,112.500004291535,0|8|0,0:0|0:0|0:0,0:0:0
416,248,135408,6,0,P|312:192|308:332|156:228,1,225.000008583069,0|8,0:0|0:0,0:0:0
136,324,136226,2,0,P|104:244,1,56.2500021457673
64,256,136499,2,0,P|72:192,1,56.2500021457673
136,136,136772,2,0,P|92:104|39:117,2,112.500004291535,0|8|0,0:0|0:0|0:0,0:0:0
224,120,137590,2,0,P|212:48|284:28,1,112.500004291535
304,88,138136,2,0,P|356:140,1,56.2500021457673,8|0,0:0|0:0,0:0:0
392,124,138408,2,0,P|408:192,1,56.2500021457673
400,224,138681,1,0,0:0:0
304,256,138954,2,0,P|332:308|428:316,2,112.500004291535,0|8|0,0:0|0:0|0:0,0:0:0
256,192,139772,12,0,144136,0:0:0
