osu file format v10

[General]
AudioFilename: retile.mp3
AudioLeadIn: 0
PreviewTime: 53045
Countdown: 0
SampleSet: Soft
StackLeniency: 0.7
Mode: 0
LetterboxInBreaks: 1

[Editor]
DistanceSpacing: 1
BeatDivisor: 4
GridSize: 16

[Metadata]
Title:Reptile
TitleUnicode:Reptile
Artist:Skrillex
ArtistUnicode:Skrillex
Creator:[Pisces]
Version:Easy
Source:Mortal Kombat 9
Tags:
BeatmapID:180025
BeatmapSetID:60175

[Difficulty]
HPDrainRate:3
CircleSize:3
OverallDifficulty:3
ApproachRate:3
SliderMultiplier:0.999999904632566
SliderTickRate:2

[Events]
//Background and Video events
0,0,"b g.png"
//Break Periods
2,70154,72325
2,74511,76688
2,78874,81597
//Storyboard Layer 0 (Background)
//Storyboard Layer 1 (Fail)
//Storyboard Layer 2 (Pass)
//Storyboard Layer 3 (Foreground)
//Storyboard Sound Samples
//Background Colour Transformations
3,100,163,162,255

[TimingPoints]
136,545.454545454546,4,2,1,60,1,0
65578,-90.9090909090909,4,2,1,70,0,0
66715,-100,4,2,1,70,0,0
86719,545.355389929104,4,2,1,60,1,0
96126,-83.3333333333333,4,2,1,60,0,0
98853,-74.0740740740741,4,2,1,60,0,0
99807,-100,4,2,1,60,0,0
107578,-66.6666666666667,4,2,1,60,0,0
108124,-100,4,2,1,60,0,0

[Colours]
Combo1 : 0,255,0
Combo2 : 0,128,64

[HitObjects]
128,128,35045,1,0,0:0:0
336,128,36136,1,0,0:0:0
400,208,36678,1,0,0:0:0
256,288,37223,2,8,B|174:370|78:274,1,199.999980926513
160,192,38859,1,0,0:0:0
256,96,39405,6,8,B|320:64|352:96,1,99.9999904632566
384,128,40223,1,0,0:0:0
384,192,40496,2,8,B|384:256|320:288|288:288|288:288|256:224,1,199.999980926513
192,128,42132,1,0,0:0:0
256,192,42677,12,4,43768,0:0:0
256,96,44313,2,0,B|174:13|78:109,1,199.999980926513
160,192,45950,1,0,0:0:0
224,288,46495,2,8,B|288:320|320:288,1,99.9999904632566
352,256,47313,1,0,0:0:0
384,224,47586,2,0,B|384:160|288:160|288:128|288:128|256:192,1,199.999980926513,0|8,0:0|0:0,0:0:0
192,256,49222,1,0,0:0:0
288,192,49767,6,0,B|288:160|256:128,1,49.9999952316283
192,128,50313,1,8,0:0:0
96,224,50858,1,8,0:0:0
192,320,51404,2,8,B|256:352|320:320|352:256|352:224,1,199.999980926513,8|0,0:0|0:0,0:0:0
416,128,53040,5,0,0:0:0
320,64,53585,2,8,B|288:160|352:224,1,149.999985694885
320,288,54676,2,8,B|256:320|224:288,2,99.9999904632566,0|8|0,0:0|0:0|0:0,0:0:0
224,192,56312,6,0,B|224:160|192:128,1,49.9999952316283
160,128,56858,1,8,0:0:0
96,224,57403,2,8,B|128:288|160:320,2,99.9999904632566,0|8|0,0:0|0:0|0:0,0:0:0
160,160,59039,2,8,B|176:256|272:288|368:256|384:160,1,299.99997138977
288,128,61221,5,4,0:0:0
192,96,61766,2,8,B|160:160|160:192,1,99.9999904632566,8|0,0:0|0:0,0:0:0
192,288,62857,2,8,B|256:288|288:256,1,99.9999904632566,8|0,0:0|0:0,0:0:0
352,176,63954,2,0,P|384:80|352:48,1,149.999985694885
304,48,65039,2,2,B|240:48,1,49.9999952316283
224,96,65584,5,0,0:0:0
144,160,66130,2,0,B|234:208,2,82.4999946498867
144,160,67226,2,0,P|112:208|128:256,1,99.9999904632566
208,288,68317,1,0,0:0:0
256,192,68863,12,4,69954,0:0:0
256,128,73765,6,0,B|256:192,1,49.9999952316283
256,224,74311,1,4,0:0:0
256,256,78128,6,0,B|256:192,1,49.9999952316283
256,160,78674,1,4,0:0:0
256,192,83037,12,12,86310,0:0:0
160,240,87400,6,8,B|188:299|246:292,1,99.9999904632566
256,192,88491,1,0,0:0:0
256,192,89036,1,0,0:0:0
320,112,89582,2,0,P|272:48|160:64|112:160|160:240,1,299.99997138977
256,288,91763,6,8,B|320:224|352:160,1,149.999985694885,8|0,0:0|0:0,0:0:0
347,169,92854,2,0,B|288:96,2,74.9999928474425
416,192,93944,2,8,B|384:288|256:320,1,199.999980926513
160,256,95581,1,10,0:0:0
160,128,96126,2,4,B|192:64|256:32,1,124.999988079071,4|0,0:0|0:0,0:0:0
288,160,97217,2,0,B|320:160|352:128,1,59.9999924468995
384,224,97762,1,0,0:0:0
288,288,98307,1,0,0:0:0
160,224,98853,2,8,B|128:160|160:128,2,99.9999904632566,8|0|8,0:0|0:0|0:0,0:0:0
256,192,100489,1,8,0:0:0
256,192,101034,6,0,B|320:192|352:256|320:320|256:320,2,199.999980926513,2|0|2,0:0|0:0|0:0,0:0:0
128,192,103761,1,8,0:0:0
96,96,104852,5,8,0:0:0
224,96,105397,2,0,B|288:96,1,49.9999952316283
352,96,105942,2,8,B|384:160|352:192,2,99.9999904632566
432,48,107578,2,8,B|470:108|448:207,1,149.999985694885
416,288,108669,1,0,0:0:0
288,288,109214,5,0,0:0:0
288,288,109760,2,0,B|224:256|192:288,1,99.9999904632566
96,224,110850,1,0,0:0:0
96,96,111396,2,8,B|160:64|192:96,2,99.9999904632566,0|8|0,0:0|0:0|0:0,0:0:0
96,192,113032,2,8,B|160:224|192:192,1,99.9999904632566
256,128,114123,5,0,0:0:0
384,96,114668,1,8,0:0:0
416,224,115213,1,0,0:0:0
320,288,115759,2,8,B|256:320|224:320,2,99.9999904632566
256,224,117395,2,2,B|192:256|160:224,1,99.9999904632566
128,160,118485,6,8,B|224:64|320:160,1,199.999980926513
384,256,120122,1,8,0:0:0
352,192,120394,1,0,0:0:0
320,128,120667,2,8,B|352:128,2,24.9999976158142
288,64,121212,2,0,B|224:32|192:64,1,99.9999904632566
128,128,122303,6,8,B|96:192|128:224,2,99.9999904632566
224,128,123939,1,0,0:0:0
320,128,124484,1,0,0:0:0
320,224,125030,2,0,P|368:224|400:176,2,99.9999904632566
224,288,126666,1,0,0:0:0
96,256,127211,2,8,B|0:320,2,99.9999904632566
32,192,128847,2,8,B|64:96|128:96|160:192,1,199.999980926513
256,192,130483,1,0,0:0:0
384,192,131029,6,8,B|416:128|384:96,1,99.9999904632566
288,64,132119,2,8,B|224:96|192:96,1,99.9999904632566
96,128,133210,1,0,0:0:0
32,256,133755,2,8,B|96:288|128:288,1,99.9999904632566
256,288,134846,1,2,0:0:0
256,160,135391,6,0,B|286:161|352:192,1,99.9999904632566
352,256,136210,1,8,0:0:0
352,320,136482,2,0,B|416:288|416:224,1,99.9999904632566
416,128,137573,2,8,B|368:96|320:128,1,99.9999904632566
224,128,138664,1,0,0:0:0
176,224,139209,2,8,B|224:256|272:224,1,99.9999904632566,8|12,0:0|0:0,0:0:0
