osu file format v9

[General]
AudioFilename: SKRILLEX - KYOTO (FT. SIRAH).mp3
AudioLeadIn: 1500
PreviewTime: 64733
Countdown: 0
SampleSet: Normal
StackLeniency: 0.7
Mode: 1
LetterboxInBreaks: 1

[Editor]
DistanceSpacing: 0.8
BeatDivisor: 4
GridSize: 32

[Metadata]
Title:Kyoto (feat. Sirah)
Artist:Skrillex
Creator:Inori
Version:Taiko Oni
Source:
Tags:Bangarang Dubstep

[Difficulty]
HPDrainRate:5
CircleSize:5
OverallDifficulty:5
ApproachRate:5
SliderMultiplier:1.6
SliderTickRate:1

[Events]
//Background and Video events
0,0,"taiko_bg.jpg"
//Break Periods
//Storyboard Layer 0 (Background)
//Storyboard Layer 1 (Fail)
//Storyboard Layer 2 (Pass)
//Storyboard Layer 3 (Foreground)
//Storyboard Sound Samples
//Background Colour Transformations
3,100,163,162,255

[TimingPoints]
276,342.857142857143,4,1,0,70,1,0
44161,-100,4,1,0,70,0,0
55133,-100,4,1,0,70,0,0
66104,-100,4,1,0,70,0,1
86676,-100,4,1,0,70,0,0
109990,-83.3333333333333,4,1,0,70,0,1
130561,-100,4,1,0,70,0,0

[Colours]
Combo1 : 0,98,196
Combo2 : 204,255,111
Combo3 : 0,185,185

[HitObjects]
208,176,276,1,4
208,176,618,1,0
208,176,961,1,8
208,176,1304,1,0
208,176,1818,1,0
208,176,2333,1,8
208,176,2676,1,4
208,176,3018,1,4
208,176,3361,1,0
208,176,3704,1,8
208,176,4047,1,0
208,176,4561,1,0
208,176,4733,1,0
208,176,5076,1,8
208,176,5418,1,8
208,176,5590,1,0
208,176,5761,1,4
208,176,6104,1,0
208,176,6447,1,8
208,176,6790,1,0
208,176,7304,1,0
208,176,7818,1,8
208,176,8161,1,4
208,176,8504,1,4
240,224,8676,1,8
240,224,8761,1,8
240,224,8847,1,8
240,224,9018,1,8
240,224,9190,1,8
240,224,9276,1,8
240,224,9361,1,8
240,224,9447,1,8
240,224,9533,1,8
240,224,9704,1,8
240,176,9876,1,8
240,176,10047,1,8
240,176,10218,1,8
240,176,10304,1,8
240,176,10390,1,8
240,176,10476,1,8
240,176,10561,1,8
240,176,10733,1,8
240,176,10904,1,8
240,176,11076,1,0
240,176,11247,1,4
240,176,11761,1,4
240,176,12104,1,12
240,176,12448,1,0
240,176,12533,1,8
240,176,12619,1,0
240,176,12790,1,0
240,176,12961,1,8
240,176,13133,1,0
240,176,13304,1,8
240,176,13476,1,0
240,176,13818,1,8
240,176,13990,1,4
240,176,14161,1,0
240,176,14333,1,0
240,176,14504,1,8
240,176,14847,1,8
240,176,15190,1,0
240,176,15276,1,0
240,176,15361,1,8
240,176,15533,1,8
240,176,15704,1,0
240,176,15876,1,8
240,176,16047,1,0
240,176,16218,1,8
240,176,16561,1,0
240,176,16733,1,4
240,176,17247,1,4
217,161,17590,1,12
240,176,17932,1,8
240,176,18018,1,8
240,176,18103,1,8
240,176,18276,1,0
240,176,18447,1,8
240,176,18618,1,0
240,176,18790,1,8
240,176,18961,1,0
240,176,19133,1,8
216,192,19476,1,4
272,136,19647,1,8
272,136,19733,1,8
272,136,19818,1,8
272,136,19990,1,8
272,136,20161,1,8
272,136,20247,1,8
272,136,20333,1,8
272,136,20418,1,8
272,136,20504,1,8
272,136,20676,1,8
272,136,20847,1,8
272,136,21018,1,8
272,136,21190,1,8
272,136,21276,1,8
272,136,21361,1,8
272,136,21447,1,8
272,136,21533,1,8
272,136,21618,1,8
272,136,21704,1,8
272,136,21790,1,8
272,136,21876,1,8
272,136,21961,1,8
272,136,22047,1,8
272,136,22133,1,8
272,136,22218,1,0
272,136,22304,1,8
272,136,22390,1,8
272,136,22476,1,8
272,136,22561,1,8
272,136,22647,1,8
272,136,22733,1,0
272,136,22818,1,8
272,136,22904,1,8
272,136,22990,1,8
272,136,23076,1,0
224,32,23418,1,8
224,32,23504,1,8
224,32,23590,1,8
272,136,23761,1,0
272,136,23933,1,8
272,136,24104,1,0
272,136,24276,1,8
272,136,24447,1,8
272,136,24790,1,0
272,136,24961,1,4
272,136,25476,1,4
272,136,25818,1,12
272,136,26161,1,8
272,136,26247,1,8
272,136,26333,1,8
272,136,26504,1,0
272,136,26676,1,8
272,136,26847,1,0
272,136,27018,1,8
272,136,27190,1,8
288,160,27533,1,8
288,160,27704,1,4
288,160,28218,1,4
288,160,28561,1,4
272,152,28904,1,8
288,160,28990,1,8
272,152,29076,1,8
272,152,29247,1,0
272,152,29418,1,8
272,152,29590,1,0
272,152,29761,1,0
120,168,29933,1,8
120,168,30104,1,8
208,160,30276,1,0
208,160,30447,1,4
272,152,30618,1,0
272,152,30704,1,8
272,152,30790,1,8
272,152,30876,1,8
272,152,30961,1,0
272,152,31304,1,4
272,152,31647,1,0
272,152,31733,1,8
272,152,31818,1,0
272,152,31990,1,0
272,152,32161,1,8
272,152,32333,1,0
272,152,32504,1,8
272,152,32676,1,0
272,152,33018,1,4
240,176,33190,1,0
240,176,33275,1,8
240,176,33361,1,0
240,176,33532,1,0
240,176,33703,1,8
240,176,33875,1,0
240,176,34046,1,8
240,176,34218,1,0
240,176,34560,1,8
240,176,34732,1,4
240,176,34903,1,0
240,176,35075,1,0
240,176,35246,1,8
240,176,35589,1,8
240,176,35932,1,0
240,176,36018,1,0
240,176,36103,1,8
240,176,36275,1,8
240,176,36446,1,0
240,176,36618,1,8
240,176,36789,1,0
240,176,36960,1,8
240,176,37303,1,0
240,176,37475,1,4
240,176,37989,1,4
217,161,38332,1,12
240,176,38674,1,8
240,176,38760,1,8
240,176,38845,1,8
240,176,39018,1,0
240,176,39189,1,8
240,176,39360,1,0
240,176,39532,1,8
240,176,39703,1,0
240,176,39875,1,8
216,192,40218,1,4
272,136,40389,1,8
272,136,40475,1,8
272,136,40560,1,8
272,136,40732,1,8
272,136,40903,1,8
272,136,40989,1,8
272,136,41075,1,8
272,136,41160,1,8
272,136,41246,1,8
272,136,41418,1,8
272,136,41589,1,8
272,136,41760,1,8
272,136,41932,1,8
272,136,42018,1,8
272,136,42103,1,8
272,136,42189,1,8
272,136,42275,1,8
272,136,42360,1,8
272,136,42446,1,8
272,136,42532,1,8
272,136,42618,1,8
272,136,42703,1,8
272,136,42789,1,8
272,136,42875,1,8
272,136,42960,1,0
272,136,43046,1,8
272,136,43132,1,8
272,136,43218,1,8
272,136,43303,1,8
272,136,43389,1,8
272,136,43475,1,0
272,136,43560,5,8
272,136,43646,1,8
272,136,43732,1,8
272,136,43818,1,0
272,136,44161,1,0
272,136,44504,1,0
272,136,44676,1,8
272,136,45018,1,8
272,136,45189,1,8
328,96,45361,1,8
328,96,45533,1,8
328,96,45704,1,8
328,96,45876,1,8
328,96,46047,1,8
272,136,46218,1,4
256,160,46390,1,8
272,136,46560,1,12
256,160,46904,1,0
256,160,46990,1,8
256,160,47076,1,8
256,160,47161,1,8
256,160,47247,1,0
256,160,47333,1,8
256,160,47418,1,8
256,160,47504,1,8
256,160,47590,1,0
256,160,47676,1,8
256,160,47761,1,8
256,160,47847,1,8
256,160,47933,1,0
256,160,48018,1,8
256,160,48104,1,8
256,160,48190,1,8
288,160,48275,1,8
288,160,48446,1,4
328,96,48618,1,8
328,96,48790,1,8
288,160,48960,1,4
328,96,49133,1,8
328,96,49304,1,8
328,96,49647,1,8
288,160,49732,1,8
272,152,49818,1,8
328,96,49990,1,8
328,96,50161,1,8
272,152,50332,1,0
328,96,50504,1,8
120,168,50675,1,8
328,96,50847,1,8
208,160,51018,1,0
328,96,51190,1,8
328,96,51361,1,8
272,152,51446,1,8
328,96,51533,1,8
272,152,51703,1,0
328,96,51876,1,8
328,96,52047,1,8
328,96,52390,1,8
328,96,52561,1,8
328,96,52733,1,8
328,96,52904,1,8
328,96,53247,1,8
328,96,53590,1,8
328,96,53761,1,8
328,96,53933,1,8
328,96,54104,1,8
328,96,54276,1,8
328,96,54618,1,8
328,96,54790,1,8
272,160,55133,1,4
368,192,55476,1,0
368,192,55818,1,0
368,192,56161,1,0
368,192,56504,1,0
368,192,56847,1,0
368,192,57190,1,0
368,192,57533,1,0
336,200,57876,1,0
336,200,58218,1,0
336,200,58561,1,0
336,200,58904,1,0
336,200,59247,1,0
336,200,59590,1,0
336,200,59933,1,0
336,200,60276,1,0
304,168,60618,1,0
304,168,60790,1,0
304,168,60961,1,0
304,168,61133,1,0
304,168,61304,1,0
304,168,61476,1,0
304,168,61647,1,0
304,168,61818,1,0
304,168,61990,1,0
304,168,62161,1,0
304,168,62333,1,0
304,168,62504,1,0
304,168,62676,1,0
304,168,62847,1,0
304,168,63018,1,0
304,168,63190,1,0
272,176,63361,1,0
272,176,63447,1,0
272,176,63533,1,0
272,176,63618,1,0
272,176,63704,1,0
272,176,63790,1,0
272,176,63876,1,0
272,176,63961,1,0
272,176,64047,1,0
272,176,64133,1,0
272,176,64218,1,0
272,176,64304,1,0
272,176,64390,1,0
272,176,64476,1,0
272,176,64561,1,0
272,176,64647,1,0
256,192,64733,12,0,65761
248,120,66105,5,0
248,120,66276,1,0
248,120,66447,1,8
248,120,66618,1,0
248,120,66790,1,0
248,120,66961,1,0
248,120,67133,1,8
248,120,67476,1,8
248,120,67561,1,8
248,120,67647,1,8
248,120,67733,1,8
248,120,67818,1,8
248,120,67904,1,8
248,120,67990,1,8
248,120,68076,1,8
248,120,68161,1,8
248,120,68247,1,8
248,120,68333,1,8
248,120,68418,1,8
248,120,68504,1,0
255,191,68847,1,8
255,191,69018,1,8
255,191,69190,1,0
255,191,69361,1,8
255,191,69533,1,0
255,191,69704,1,8
255,191,69876,1,8
255,191,70047,1,8
255,191,70218,1,0
255,191,70390,1,0
255,191,70476,1,0
255,191,70561,1,0
255,191,70647,1,0
255,191,70733,1,0
255,191,70818,1,0
255,191,70904,1,0
255,191,70990,1,0
255,191,71076,1,8
255,191,71161,1,0
255,191,71247,1,8
255,191,71333,1,0
255,191,71418,1,8
255,191,71590,1,0
255,191,71761,1,0
255,191,71933,1,8
255,191,72018,1,8
255,191,72104,1,8
255,191,72276,1,0
255,191,72447,1,8
255,191,72533,1,8
255,191,72618,1,8
255,191,72704,1,8
255,191,72790,1,8
255,191,72876,1,8
255,191,72961,1,0
255,191,73047,1,8
255,191,73133,1,8
255,191,73218,1,8
255,191,73304,1,0
255,191,73390,1,8
255,191,73476,1,0
255,191,73561,1,8
255,191,73647,1,0
255,191,73733,1,8
255,191,73818,1,0
255,191,73904,1,8
255,191,73990,1,0
255,191,74333,1,8
255,191,74504,1,8
255,191,74676,1,0
255,191,74847,1,8
255,191,75018,1,0
255,191,75190,1,8
255,191,75361,1,8
255,191,75533,1,8
255,191,75704,1,4
288,192,75876,1,8
288,192,75961,1,8
288,192,76047,1,8
288,192,76133,1,8
288,192,76218,1,8
288,192,76304,1,8
288,192,76390,1,8
255,191,76561,1,4
255,191,76733,1,4
255,191,76904,1,4
255,191,77076,1,8
255,191,77247,1,0
255,191,77418,1,8
255,191,77590,1,8
255,191,77761,1,0
255,191,77933,1,0
255,191,78104,1,8
255,191,78276,1,0
255,191,78447,1,0
255,191,78618,1,0
255,191,78704,1,8
255,191,78790,1,0
255,191,78876,1,8
255,191,78961,1,0
255,191,79047,1,8
255,191,79133,1,0
255,191,79218,1,8
255,191,79304,1,0
255,191,79390,1,8
255,191,79476,1,4
255,191,79818,1,8
255,191,79989,1,8
255,191,80161,1,0
255,191,80332,1,8
255,191,80503,1,0
255,191,80675,1,8
255,191,80846,1,8
255,191,81018,1,8
255,191,81189,1,4
248,120,81361,1,8
248,120,81447,1,8
248,120,81533,1,8
248,120,81618,1,8
248,120,81704,1,8
248,120,81790,1,8
256,160,81876,1,4
256,160,82047,1,12
256,160,82218,1,4
256,160,82390,1,12
248,120,82561,5,0
248,120,82732,1,0
248,120,82903,1,8
248,120,83074,1,0
248,120,83246,1,0
248,120,83417,1,0
248,120,83589,1,8
248,120,83932,1,8
248,120,84017,1,8
248,120,84103,1,8
248,120,84189,1,8
248,120,84274,1,8
248,120,84360,1,8
248,120,84446,1,8
248,120,84532,1,8
248,120,84617,1,8
248,120,84703,1,8
248,120,84789,1,8
248,120,84874,1,8
248,120,84960,1,0
248,120,85304,5,0
248,120,85475,1,0
248,120,85646,1,8
248,120,85817,1,0
248,120,85989,1,0
248,120,86160,1,0
248,120,86332,1,8
248,120,86675,1,8
248,120,86760,1,8
248,120,86846,1,8
248,120,86932,1,8
248,120,87017,1,8
248,120,87103,1,8
248,120,87189,1,8
248,120,87275,1,8
248,120,87360,1,8
248,120,87446,1,8
248,120,87532,1,8
248,120,87617,1,8
248,120,87703,1,0
256,192,88047,2,0,B|384:128|256:64|128:96|160:192|320:288|416:192|384:64|352:64,1,420
224,160,89418,1,8
224,160,89504,1,8
224,160,89590,1,8
224,160,89676,1,8
224,160,89761,1,8
224,160,89847,1,8
224,160,89933,1,0
224,160,90018,1,8
224,160,90104,1,0
224,160,90190,1,8
224,160,90276,1,0
224,160,90361,1,8
192,160,90447,1,0
192,160,90790,1,8
192,160,90876,1,8
192,160,90961,1,8
192,160,91047,1,8
192,160,91133,1,0
192,160,91476,1,0
192,160,91647,1,8
192,160,91818,1,8
192,160,91990,1,8
192,160,92161,1,4
192,160,92333,1,8
160,160,92504,1,8
160,160,92676,1,8
160,160,92847,1,12
224,160,93190,1,0
256,192,93361,1,0
256,192,93447,1,0
256,192,93533,1,0
256,192,93618,1,8
256,192,93704,1,8
256,192,93790,1,8
256,192,93876,1,0
256,192,93961,1,0
256,192,94047,1,0
256,192,94133,1,8
256,192,94218,1,8
256,192,94304,1,8
256,192,94390,1,0
256,192,94476,1,0
256,192,94561,1,0
256,192,94647,1,8
256,192,94733,1,8
256,192,94818,1,8
224,192,94904,1,0
224,192,94990,1,8
224,192,95076,1,8
224,192,95161,1,8
224,192,95247,1,0
224,192,95333,1,8
224,192,95418,1,8
224,192,95504,1,8
224,192,95590,1,0
224,192,95676,1,8
224,192,95761,1,8
224,192,95847,1,8
224,192,95933,1,0
224,192,96018,1,8
224,192,96104,1,8
224,192,96276,1,0
224,192,96447,1,0
224,192,96618,1,0
224,192,96790,1,0
224,192,96961,1,0
224,192,97133,1,0
224,192,97304,1,0
224,192,97476,1,0
224,192,97647,1,0
224,192,97733,1,0
224,192,97818,1,0
224,192,97904,1,0
224,192,97990,1,0
224,192,98076,1,0
224,192,98161,1,0
224,192,98247,1,0
224,192,98333,1,0
224,192,98418,1,0
224,192,98504,1,0
224,192,98590,1,0
224,192,98676,1,0
224,192,98761,1,0
224,192,98847,1,0
224,192,98933,1,0
224,192,99018,1,4
192,96,99361,1,0
192,96,99704,1,8
64,128,100047,1,4
64,128,100390,1,12
160,128,100733,1,0
160,128,101076,1,8
128,128,101418,1,0
128,128,101761,1,8
128,128,102104,1,8
128,128,102276,1,8
160,128,102447,1,0
160,128,102790,1,0
160,128,102961,1,0
160,128,103133,1,8
160,128,103476,1,8
160,128,103647,1,8
160,128,103818,1,0
160,128,104161,1,4
192,128,104504,1,0
160,128,104590,1,8
160,128,104676,1,8
160,128,104762,1,8
160,128,104847,1,0
160,128,104933,1,8
160,128,105019,1,8
160,128,105104,1,8
160,128,105190,1,0
160,128,105276,1,8
160,128,105361,1,8
160,128,105447,1,8
160,128,105533,1,0
160,128,105618,1,8
160,128,105704,1,8
160,128,105790,1,8
160,128,105876,1,0
160,128,105961,1,8
160,128,106047,1,8
160,128,106133,1,8
160,128,106218,1,0
160,128,106304,1,8
160,128,106390,1,8
160,128,106476,1,8
160,128,106561,1,0
160,128,106647,1,8
160,128,106733,1,8
160,128,106818,1,8
160,128,106904,1,0
160,128,106990,1,8
160,128,107076,1,8
160,128,107161,1,8
160,128,107247,1,0
160,128,107418,1,8
160,128,107590,1,0
160,128,107761,1,8
160,128,107933,1,0
160,128,108104,1,8
160,128,108276,1,0
160,128,108447,1,8
160,128,108618,1,0
160,128,108704,1,0
160,128,108790,1,0
160,128,108876,1,0
160,128,108961,1,0
160,128,109047,1,0
160,128,109133,1,0
160,128,109218,1,0
160,128,109304,1,0
160,128,109390,1,0
160,128,109476,1,0
160,128,109561,1,0
160,128,109647,1,0
160,128,109733,1,0
160,128,109818,1,0
160,128,109904,1,0
248,120,109990,5,0
248,221,110076,1,8
248,120,110161,1,0
222,207,110247,1,8
248,120,110332,1,8
222,207,110418,1,8
248,120,110503,1,0
222,207,110590,1,8
248,120,110675,1,0
222,207,110761,1,8
248,120,110846,1,0
222,207,110933,1,8
248,120,111018,1,8
222,207,111104,1,8
248,221,111190,1,0
248,120,111361,1,8
248,120,111446,1,8
248,120,111532,1,8
248,120,111618,1,8
248,120,111703,1,8
248,120,111789,1,8
248,120,111875,1,8
248,120,111961,1,8
248,120,112046,1,8
248,120,112132,1,8
248,120,112218,1,8
248,120,112303,1,8
248,120,112389,1,0
248,120,112733,5,0
248,221,112819,1,8
248,120,112904,1,0
222,207,112990,1,8
248,120,113075,1,8
222,207,113161,1,8
248,120,113246,1,0
222,207,113333,1,8
248,120,113418,1,0
222,207,113504,1,8
248,120,113589,1,0
222,207,113676,1,8
248,120,113761,1,8
222,207,113847,1,8
248,221,113933,1,0
248,120,114104,1,8
248,120,114189,1,8
248,120,114275,1,8
248,120,114361,1,8
248,120,114446,1,8
248,120,114532,1,8
248,120,114618,1,8
248,120,114704,1,8
248,120,114789,1,8
248,120,114875,1,8
248,120,114961,1,8
248,120,115046,1,8
248,120,115132,1,0
255,191,115646,1,0
255,191,115818,1,8
255,191,115903,1,8
255,191,115989,1,8
255,191,116161,1,0
255,191,116332,1,8
255,191,116418,1,8
255,191,116503,1,8
255,191,116589,1,8
255,191,116675,1,8
255,191,116761,1,8
255,191,116846,1,0
255,191,116932,1,8
255,191,117018,1,8
255,191,117103,1,8
255,191,117189,1,0
255,191,117275,1,8
255,191,117361,1,0
255,191,117446,1,8
255,191,117532,1,0
255,191,117618,1,8
255,191,117703,1,0
255,191,117789,1,8
255,191,117875,1,0
248,120,118218,5,0
248,221,118304,1,8
248,120,118389,1,0
222,207,118475,1,8
248,120,118560,1,8
222,207,118646,1,8
248,120,118731,1,0
222,207,118818,1,8
248,120,118903,1,0
222,207,118989,1,8
248,120,119074,1,0
222,207,119161,1,8
248,120,119246,1,8
222,207,119332,1,8
248,221,119418,1,0
248,120,119589,1,8
248,120,119674,1,8
248,120,119760,1,8
248,120,119846,1,8
248,120,119931,1,8
248,120,120017,1,8
248,120,120103,1,8
248,120,120189,1,8
248,120,120274,1,8
248,120,120360,1,8
248,120,120446,1,8
248,120,120531,1,8
248,120,120617,1,0
255,191,120790,1,0
255,191,120961,1,8
255,191,121132,1,0
255,191,121303,1,8
255,191,121475,1,8
255,191,121646,1,0
255,191,121818,1,0
255,191,121989,1,8
255,191,122161,1,0
255,191,122332,1,0
255,191,122503,1,0
255,191,122589,1,8
255,191,122675,1,0
255,191,122761,1,8
255,191,122846,1,0
255,191,122932,1,8
255,191,123018,1,0
255,191,123103,1,8
255,191,123189,1,0
255,191,123275,1,8
255,191,123361,1,4
255,191,123703,1,8
255,191,123874,1,8
255,191,124046,1,0
255,191,124217,1,8
255,191,124388,1,0
255,191,124560,1,8
255,191,124731,1,8
255,191,124903,1,8
255,191,125074,1,4
248,120,125246,1,8
248,120,125332,1,8
248,120,125418,1,8
248,120,125503,1,8
248,120,125589,1,8
248,120,125675,1,8
256,160,125761,1,4
256,160,125932,1,12
256,160,126103,1,4
256,160,126275,1,12
248,120,126446,5,0
248,120,126617,1,0
248,120,126788,1,8
248,120,126959,1,0
248,120,127131,1,0
248,120,127302,1,0
248,120,127474,1,8
229,218,127647,1,8
248,120,127817,1,8
248,120,127902,1,8
248,120,127988,1,8
248,120,128074,1,8
248,120,128159,1,8
248,120,128245,1,8
248,120,128331,1,8
248,120,128417,1,8
248,120,128502,1,8
248,120,128588,1,8
248,120,128674,1,8
248,120,128759,1,8
248,120,128845,1,0
248,120,129189,5,0
248,120,129360,1,0
248,120,129531,1,8
248,120,129702,1,0
248,120,129874,1,0
248,120,130045,1,0
248,120,130217,1,8
229,218,130390,1,4
256,192,130561,1,4
256,192,131933,1,4
256,192,132618,1,12
256,192,132961,1,4
256,192,133476,1,4
256,192,133990,1,12
224,192,134333,1,4
224,192,134676,1,4
224,192,135361,1,12
224,192,135704,1,4
224,192,136218,1,4
224,192,136733,1,12
192,160,137247,1,4
192,160,137418,1,4
192,160,138104,1,12
192,160,138447,1,4
192,160,138961,1,4
192,160,139476,1,12
192,160,139818,1,4
192,160,140161,1,4
192,160,140676,1,0
192,160,140761,1,8
192,160,140847,1,8
192,160,140933,1,8
192,160,141018,1,8
192,160,141104,1,8
192,160,141190,1,0
192,160,141276,1,8
192,160,141361,1,8
192,160,141447,1,8
192,160,141533,1,0
192,160,141618,1,8
192,160,141704,1,8
192,160,141790,1,8
192,160,141876,1,0
192,160,141961,1,8
192,160,142047,1,8
192,160,142133,1,8
192,160,142218,1,0
192,160,142304,1,8
192,160,142390,1,8
192,160,142476,1,8
192,160,142561,1,0
192,160,142647,1,8
192,160,142733,1,8
192,160,142818,1,8
192,160,142904,1,4
