osu file format v10

[General]
AudioFilename: SKRILLEX - KYOTO (FT. SIRAH).mp3
AudioLeadIn: 2000
PreviewTime: 64733
Countdown: 0
SampleSet: Normal
StackLeniency: 0.7
Mode: 0
LetterboxInBreaks: 1

[Editor]
DistanceSpacing: 0.8
BeatDivisor: 4
GridSize: 4

[Metadata]
Title:Kyoto (feat. Sirah)
TitleUnicode:
Artist:Skrillex
ArtistUnicode:
Creator:GamerX4life
Version:Hard
Source:
Tags:Bangarang Dubstep Mapper_31 Byakugan249
BeatmapID:179126
BeatmapSetID:45621

[Difficulty]
HPDrainRate:6
CircleSize:4
OverallDifficulty:6
ApproachRate:7
SliderMultiplier:2.6
SliderTickRate:1

[Events]
//Background and Video events
0,0,"SkrillexKyotoBG.jpg"
//Break Periods
2,44361,54233
//Storyboard Layer 0 (Background)
//Storyboard Layer 1 (Fail)
//Storyboard Layer 2 (Pass)
//Storyboard Layer 3 (Foreground)
//Storyboard Sound Samples
//Background Colour Transformations
3,100,163,162,255

[TimingPoints]
276,685.714285714286,4,1,0,45,1,0
44076,-100,4,1,0,60,0,0
44247,-100,4,1,0,45,0,0
66104,-100,4,1,0,55,0,1
86676,-100,4,1,0,50,0,0
109990,-100,4,1,0,55,0,1
130561,-100,4,1,0,50,0,0

[Colours]
Combo1 : 0,98,196
Combo2 : 204,255,111
Combo3 : 0,185,185

[HitObjects]
368,88,276,2,0,B|288:120|312:216,2,130,4|0|8,0:0|0:0|0:0,0:0:0
416,184,1304,2,0,B|432:296|344:352,2,195,0|0|8,0:0|0:0|0:0,0:0:0
328,240,2676,2,0,B|280:240|280:240|264:272|264:272|216:272,1,130,0|4,0:0|0:0,0:0:0
144,192,3361,5,0,0:0:0
72,112,3704,1,8,0:0:0
176,96,4047,1,0,0:0:0
328,96,4561,1,0,0:0:0
328,96,4733,1,0,0:0:0
432,112,5076,1,8,0:0:0
364,192,5418,1,0,0:0:0
364,296,5761,6,0,B|468:216,1,130,4|0,0:0|0:0,0:0:0
364,192,6447,1,8,0:0:0
320,96,6790,1,0,0:0:0
164,96,7304,1,0,0:0:0
164,96,7476,1,0,0:0:0
120,192,7818,1,8,0:0:0
16,216,8161,2,0,B|119:295,1,130,0|4,0:0|0:0,0:0:0
276,296,9018,5,0,0:0:0
276,296,9190,2,0,B|352:296|388:232,1,130,8|0,0:0|0:0,0:0:0
400,104,9876,2,0,B|324:104|288:168,1,130,8|0,0:0|0:0,0:0:0
96,104,10561,2,0,B|172:104|208:168,1,130,8|0,0:0|0:0,0:0:0
252,296,11247,6,0,B|180:280|140:232,1,130
112,192,11761,1,0,0:0:0
88,144,11933,1,8,0:0:0
96,96,12104,1,0,0:0:0
136,64,12276,2,0,B|184:64|184:64|200:32|200:32|248:32,2,130
228,128,13304,1,8,0:0:0
276,112,13476,1,0,0:0:0
328,112,13647,2,0,B|400:104|456:152,2,130
288,208,14676,6,0,B|264:248|264:248|280:280|280:280|256:320,1,130,8|0,0:0|0:0,0:0:0
160,360,15361,2,0,B|184:320|184:320|168:288|168:288|192:248,1,130
216,200,15876,2,0,B|192:136,1,65,0|8,0:0|0:0,0:0:0
240,152,16218,2,0,B|262:87,2,65
288,144,16733,6,0,B|344:112|344:112|400:144|464:88,1,195
463,88,17418,1,8,0:0:0
464,192,17761,2,0,B|432:248|352:248,1,130
304,248,18276,1,0,0:0:0
256,224,18447,1,0,0:0:0
208,248,18618,1,0,0:0:0
158,247,18790,2,0,B|80:248|48:192,1,130,8|0,0:0|0:0,0:0:0
48,88,19476,6,0,B|111:143|167:111|167:111|223:143,1,195
223,143,20161,1,8,0:0:0
304,72,20504,1,0,0:0:0
328,176,20847,1,0,0:0:0
296,216,21018,1,0,0:0:0
264,256,21190,1,0,0:0:0
296,296,21361,1,0,0:0:0
328,336,21533,2,0,B|400:304|408:232,1,130,8|0,0:0|0:0,0:0:0
376,120,22218,6,0,B|323:172|257:157,2,130,0|0|8,0:0|0:0|0:0,0:0:0
304,48,23247,1,0,0:0:0
256,32,23418,1,0,0:0:0
200,32,23590,2,0,B|136:40|136:40|80:88,1,130
176,144,24276,2,0,B|240:152|240:152|296:200,1,130,8|0,0:0|0:0,0:0:0
336,224,24790,1,0,0:0:0
378,194,24961,2,0,B|427:151|427:151|491:143,1,130
480,248,25647,5,8,0:0:0
432,336,25990,1,0,0:0:0
376,248,26333,2,0,B|336:216|288:224|264:264,1,130
136,136,27018,2,0,B|176:168|224:160|248:120,1,130,8|0,0:0|0:0,0:0:0
296,96,27533,1,0,0:0:0
344,120,27704,2,0,B|368:160|416:168|456:136,2,130,0|0|8,0:0|0:0|0:0,0:0:0
312,216,28733,5,0,0:0:0
280,256,28904,1,0,0:0:0
240,288,29076,2,0,B|184:320,1,65
184,272,29418,2,0,B|112:272,1,65
152,232,29761,2,0,B|96:192,1,65,8|0,0:0|0:0,0:0:0
56,96,30276,5,0,0:0:0
56,96,30447,2,0,B|112:48|176:40,1,130
144,88,30961,2,0,B|217:87|271:122,1,130
216,136,31476,2,0,B|272:182|291:244,1,130
312,288,31990,1,0,0:0:0
352,320,32161,1,0,0:0:0
400,328,32333,1,0,0:0:0
448,320,32504,2,0,B|488:264|472:192,1,130,8|0,0:0|0:0,0:0:0
440,96,33190,6,0,B|376:72|376:72|312:72,1,130
168,176,33876,2,0,B|232:200|232:200|296:200,1,130,8|0,0:0|0:0,0:0:0
344,200,34390,1,0,0:0:0
392,224,34561,2,0,B|464:200,2,65
376,272,35076,1,0,0:0:0
360,320,35247,2,0,B|288:344,1,65,8|0,0:0|0:0,0:0:0
288,288,35590,2,0,B|216:296|168:248,3,130,0|0|0|8,0:0|0:0|0:0|0:0,0:0:0
256,192,36961,5,0,0:0:0
160,160,37304,2,0,B|144:88|192:40,1,130
320,40,37990,2,0,B|368:88|352:160,1,130,8|0,0:0|0:0,0:0:0
438,217,38676,2,0,B|392:264|392:264|328:272,1,130
256,200,39361,1,8,0:0:0
184,272,39704,2,0,B|120:264|120:264|72:216,1,130
48,168,40218,5,0,0:0:0
56,120,40390,1,0,0:0:0
80,72,40561,1,0,0:0:0
120,40,40733,1,8,0:0:0
168,32,40904,2,0,B|216:32|216:32|232:64|232:64|280:64,1,130
384,128,41418,6,0,B|337:128|337:128|321:158|321:158|273:159,2,130,0|0|8,0:0|0:0|0:0,0:0:0
488,140,42447,1,0,0:0:0
480,192,42618,1,0,0:0:0
460,240,42790,1,0,0:0:0
424,276,42961,1,0,0:0:0
376,296,43133,1,0,0:0:0
328,316,43304,1,0,0:0:0
276,320,43476,2,0,B|228:336|180:304|164:264,1,130,8|0,0:0|0:0,0:0:0
144,224,43990,1,0,0:0:0
128,176,44161,1,4,0:0:0
256,144,55133,5,0,0:0:0
308,236,55476,1,0,0:0:0
204,236,55818,1,8,0:0:0
152,144,56161,1,0,0:0:0
204,52,56504,1,0,0:0:0
308,52,56847,1,0,0:0:0
360,144,57190,1,8,0:0:0
256,144,57533,1,0,0:0:0
256,248,57876,6,0,B|301:299|369:308,1,130
256,248,58561,2,0,B|210:299|142:308,1,130,8|0,0:0|0:0,0:0:0
144,200,59247,1,0,0:0:0
204,116,59590,1,0,0:0:0
308,116,59933,1,8,0:0:0
368,200,60276,1,0,0:0:0
312,288,60618,6,0,B|256:348|200:288,4,130,0|0|8|0|0,0:0|0:0|0:0|0:0|0:0,0:0:0
344,188,62333,1,0,0:0:0
256,132,62676,1,8,0:0:0
168,188,63018,1,0,0:0:0
80,248,63361,6,0,B|32:256,7,32.5
72,288,64047,2,0,B|40:320,8,32.5,0|0|0|0|0|0|0|0|4,0:0|0:0|0:0|0:0|0:0|0:0|0:0|0:0|0:0,0:0:0
408,32,66104,6,0,B|328:32|296:88,1,130,4|0,0:0|0:0,0:0:0
256,120,66618,1,8,0:0:0
216,86,66790,2,0,B|184:31|104:31,1,130,8|0,0:0|0:0,0:0:0
48,104,67476,5,0,0:0:0
64,152,67647,1,0,0:0:0
80,200,67818,1,0,0:0:0
64,248,67990,1,0,0:0:0
48,296,68161,1,8,0:0:0
72,344,68333,1,0,0:0:0
72,344,68504,6,0,B|120:344|120:344|136:304|136:304|184:304,1,130
256,192,69190,1,0,0:0:0
336,72,69533,2,0,B|375:72|375:72|391:32|391:32|447:32,1,130,8|0,0:0|0:0,0:0:0
432,112,70218,5,0,0:0:0
432,112,70390,2,0,B|424:120|424:120|432:120|432:120|424:128|424:128|432:128|432:128|424:136|424:136|432:136|432:136|424:144|424:144|432:144|432:144|424:152|424:152|432:152|432:152|424:160|424:160|432:160|432:160|424:168|424:168|432:168|432:168|424:176|424:176|432:176|432:176|424:184|424:184|432:184|432:184|424:192|424:192|432:192|432:192,1,195,0|8,0:0|0:0,0:0:0
432,248,71076,1,0,0:0:0
392,280,71247,1,0,0:0:0
352,312,71418,1,0,0:0:0
312,344,71590,6,0,B|288:344|288:344|224:368|192:312,1,130
144,224,72276,2,0,B|168:224|168:224|232:200|264:256,1,130,8|0,0:0|0:0,0:0:0
280,152,72961,2,0,B|336:112,2,65
232,168,73476,1,0,0:0:0
184,184,73647,2,0,B|128:224,2,65,8|0|0,0:0|0:0|0:0,0:0:0
144,88,74333,6,0,B|80:96|80:96|24:144,1,130
208,200,75018,2,0,B|272:208|272:208|328:256,1,130,8|0,0:0|0:0,0:0:0
424,248,75704,1,0,0:0:0
424,248,75876,2,0,B|448:200|448:200|424:152|424:152|448:104|448:104|424:64,1,195,0|8,0:0|0:0,0:0:0
384,56,76561,1,0,0:0:0
336,32,76733,1,0,0:0:0
288,56,76904,1,0,0:0:0
240,32,77076,6,0,B|200:16|144:48|144:96,1,130
144,144,77590,1,0,0:0:0
144,192,77761,2,0,B|144:236|88:268|48:252,1,130,8|0,0:0|0:0,0:0:0
192,304,78447,6,0,B|191:259|247:227|287:243,1,130
336,228,78961,1,0,0:0:0
376,192,79133,1,8,0:0:0
384,140,79304,1,0,0:0:0
356,96,79476,1,0,0:0:0
256,72,79818,5,0,0:0:0
152,96,80161,1,0,0:0:0
144,144,80333,1,0,0:0:0
136,192,80504,2,0,B|88:248|16:248,1,130,8|0,0:0|0:0,0:0:0
120,296,81190,6,0,B|64:336,2,65
392,296,81876,2,0,B|448:256,3,65
444,258,82561,2,0,B|374:241|351:169,1,130
159,174,83247,2,0,B|137:241|68:258,1,130,8|0,0:0|0:0,0:0:0
72,96,83933,5,0,0:0:0
144,64,84104,1,0,0:0:0
216,40,84276,1,0,0:0:0
256,104,84447,1,0,0:0:0
296,40,84618,1,8,0:0:0
368,64,84790,1,0,0:0:0
440,96,84961,2,0,B|432:128|432:128|440:160|440:160|432:192|432:192|440:224|440:224,1,130
352,280,85647,5,0,0:0:0
256,240,85990,1,8,0:0:0
160,280,86333,1,0,0:0:0
176,176,86676,2,0,B|256:72|336:176,1,195
424,224,87533,2,0,B|456:192,2,32.5,0|0|8,0:0|0:0|0:0,0:0:0
328,248,87876,1,0,0:0:0
232,272,88047,6,0,B|128:352,2,130,0|0|8,0:0|0:0|0:0,0:0:0
168,192,89076,1,0,0:0:0
232,112,89418,2,0,B|128:32,2,130,0|0|8,0:0|0:0|0:0,0:0:0
276,208,90447,1,0,0:0:0
332,296,90790,6,0,B|420:176|332:56,1,260,0|8,0:0|0:0,0:0:0
232,32,91818,1,0,0:0:0
152,104,92161,1,0,0:0:0
96,192,92504,1,0,0:0:0
152,280,92847,1,8,0:0:0
232,352,93190,1,0,0:0:0
320,304,93533,6,0,B|376:288|376:224|376:224|408:224,1,130
344,136,94218,2,0,B|288:152|288:216|288:216|256:216,1,130,8|0,0:0|0:0,0:0:0
192,136,94904,1,0,0:0:0
112,208,95247,1,0,0:0:0
96,104,95590,1,8,0:0:0
176,32,95933,1,0,0:0:0
280,32,96276,6,0,B|344:32,3,65
320,72,96961,2,0,B|380:93,3,65,8|0|0|0,0:0|0:0|0:0|0:0,0:0:0
336,128,97647,2,0,B|436:211,1,130
336,224,98333,2,0,B|235:140,1,130,8|0,0:0|0:0,0:0:0
208,240,99018,6,0,B|150:202|83:227,2,130,0|0|8,0:0|0:0|0:0,0:0:0
256,328,100047,1,0,0:0:0
304,240,100390,2,0,B|361:202|428:227,2,130,0|0|8,0:0|0:0|0:0,0:0:0
344,40,101761,6,0,B|336:72|336:72|312:16|264:40|256:16|248:40|200:16|176:72|176:72|168:40,2,260,0|8|0,0:0|0:0|0:0,0:0:0
308,140,103476,1,0,0:0:0
204,140,103818,1,8,0:0:0
256,232,104161,1,0,0:0:0
204,324,104504,6,0,B|164:312|164:312|168:264|128:232,1,130
308,324,105190,2,0,B|348:312|348:312|344:264|384:232,1,130,8|0,0:0|0:0,0:0:0
204,76,105876,2,0,B|164:88|164:88|168:136|128:168,1,130
308,76,106562,2,0,B|348:88|348:88|344:136|384:168,1,130,8|0,0:0|0:0,0:0:0
440,248,107247,5,0,0:0:0
400,216,107418,1,0,0:0:0
352,192,107590,1,0,0:0:0
304,176,107761,1,0,0:0:0
256,168,107933,1,8,0:0:0
208,176,108104,1,0,0:0:0
160,192,108276,1,0,0:0:0
112,216,108447,1,0,0:0:0
72,248,108618,1,0,0:0:0
456,88,109990,6,0,B|432:88|432:88|408:112|408:112|376:112|376:112|352:144|352:144,1,130,4|0,0:0|0:0,0:0:0
304,160,110504,1,0,0:0:0
256,144,110676,2,0,B|231:111|231:111|199:111|199:111|175:87|175:87|151:87,1,130,8|0,0:0|0:0,0:0:0
72,160,111361,2,0,B|56:232|88:288,1,130
256,192,112047,2,0,B|272:120|240:64,1,130,8|0,0:0|0:0,0:0:0
376,312,112733,5,0,0:0:0
400,264,112904,1,0,0:0:0
376,216,113076,1,0,0:0:0
352,168,113247,1,0,0:0:0
376,120,113418,2,0,B|345:107|345:107|324:81|324:81|294:68|294:68|278:36|278:36,1,130,8|0,0:0|0:0,0:0:0
176,40,114104,5,0,0:0:0
176,40,114276,2,0,B|176:96|176:96|96:128|88:208,1,195,0|8,0:0|0:0,0:0:0
128,232,114961,1,0,0:0:0
168,200,115133,1,0,0:0:0
208,232,115304,1,0,0:0:0
248,200,115476,6,0,B|312:200|312:200|376:160,1,130
248,296,116161,2,0,B|312:296|312:296|376:336,1,130,8|0,0:0|0:0,0:0:0
432,224,116847,1,0,0:0:0
440,176,117018,1,0,0:0:0
416,128,117190,1,0,0:0:0
368,104,117361,1,0,0:0:0
312,104,117533,1,8,0:0:0
272,136,117704,1,0,0:0:0
232,168,117876,2,0,B|184:216,1,65
160,264,118218,6,0,B|184:336|248:312|256:280|256:280|264:312|328:336|352:264,2,260,0|8|0,0:0|0:0|0:0,0:0:0
160,264,119761,1,0,0:0:0
136,112,120276,1,8,0:0:0
168,72,120447,1,0,0:0:0
216,48,120618,1,0,0:0:0
272,48,120790,1,0,0:0:0
320,72,120961,6,0,B|384:112|384:112|408:160,1,130
440,328,121647,2,0,B|376:288|376:288|352:240,1,130,8|0,0:0|0:0,0:0:0
72,328,122333,2,0,B|136:288|136:288|160:240,2,130,0|0|8,0:0|0:0|0:0,0:0:0
64,224,123361,1,0,0:0:0
48,120,123704,6,0,B|128:112|136:40,1,130
184,32,124218,1,0,0:0:0
232,40,124390,2,0,B|239:111|319:119,1,130,8|0,0:0|0:0,0:0:0
400,192,125076,1,0,0:0:0
400,192,125247,2,0,B|370:212|370:212|328:203|328:203|291:225|291:225|249:215|249:215|212:237,1,195,0|8,0:0|0:0,0:0:0
172,236,125933,1,0,0:0:0
125,251,126104,1,0,0:0:0
91,289,126276,1,0,0:0:0
72,336,126447,6,0,B|136:360|200:336,1,130
232,296,126961,1,0,0:0:0
272,336,127133,2,0,B|335:359|399:335,1,130,8|0,0:0|0:0,0:0:0
448,240,127818,2,0,B|494:285,2,65
400,220,128333,1,0,0:0:0
353,200,128504,2,0,B|306:154,1,65
256,144,128847,1,0,0:0:0
352,104,129190,6,0,B|328:56|312:40|272:32|256:24|256:24|240:32|200:40|184:56|160:104,1,260,0|8,0:0|0:0,0:0:0
256,144,130218,1,0,0:0:0
256,248,130561,1,0,0:0:0
416,272,131933,6,0,B|376:328,2,65
436,224,132447,1,0,0:0:0
428,172,132618,1,8,0:0:0
328,140,132961,1,0,0:0:0
240,196,133304,2,0,B|200:144,2,65
248,300,133990,1,8,0:0:0
144,280,134333,2,0,B|104:224|104:152,1,130
112,104,134847,5,0,0:0:0
136,56,135018,1,0,0:0:0
184,32,135190,1,0,0:0:0
232,32,135361,2,0,B|264:32|264:32|296:72|352:48,1,130,8|0,0:0|0:0,0:0:0
440,104,136047,1,0,0:0:0
456,152,136218,1,0,0:0:0
464,200,136390,2,0,B|472:272|432:328,1,130,0|8,0:0|0:0,0:0:0
328,320,137076,5,0,0:0:0
280,296,137247,1,0,0:0:0
256,248,137418,2,0,B|240:176|240:176|264:120,1,130
160,216,138104,2,0,B|176:288|176:288|152:344,1,130,8|0,0:0|0:0,0:0:0
104,360,138618,1,0,0:0:0
56,340,138790,2,0,B|33:288|33:288|49:216,1,130
72,112,139476,6,0,B|120:64|192:56,1,130,8|0,0:0|0:0,0:0:0
256,136,140161,1,0,0:0:0
328,56,140504,2,0,B|394:63|442:111,1,130,0|8,0:0|0:0,0:0:0
392,208,141190,5,0,0:0:0
352,240,141361,1,0,0:0:0
304,256,141533,1,0,0:0:0
256,264,141704,1,0,0:0:0
208,256,141876,1,0,0:0:0
160,240,142047,1,0,0:0:0
120,208,142218,2,0,B|104:176|104:176|136:128|104:80,1,130,8|0,0:0|0:0,0:0:0
256,32,142904,6,0,B|272:64|272:64|240:112|272:160,1,130
368,112,143590,2,0,B|424:168|408:240,1,130,8|0,0:0|0:0,0:0:0
384,280,144104,1,0,0:0:0
352,320,144276,1,0,0:0:0
304,336,144447,1,0,0:0:0
256,344,144618,1,0,0:0:0
208,336,144790,1,0,0:0:0
160,320,144961,2,0,B|104:264|120:192,1,130,8|0,0:0|0:0,0:0:0
168,184,145476,1,0,0:0:0
216,160,145647,6,0,B|230:98|174:42,2,130,0|0|8,0:0|0:0|0:0,0:0:0
320,128,146676,2,0,B|368:72,1,65
320,256,147190,2,0,B|403:353,1,130
404,354,147704,1,8,0:0:0
192,256,148047,2,0,B|144:312,2,65
208,152,148733,1,0,0:0:0
256,56,149076,5,8,0:0:0
280,104,149247,1,0,0:0:0
320,136,149418,1,0,0:0:0
368,144,149590,1,0,0:0:0
416,152,149761,2,0,B|488:176|488:248,1,130
432,360,150447,2,0,B|360:336|360:264,1,130,8|0,0:0|0:0,0:0:0
80,360,151133,2,0,B|152:336|152:264,1,130
96,152,151818,2,0,B|24:176|24:248,1,130,8|0,0:0|0:0,0:0:0
256,192,152504,12,4,153533,0:0:0
