osu file format v9

[General]
AudioFilename: Kyoto feat. Sirah (Original Mix).mp3
AudioLeadIn: 2000
PreviewTime: 64756
Countdown: 0
SampleSet: Normal
StackLeniency: 0.7
Mode: 1
LetterboxInBreaks: 0

[Editor]
Bookmarks: 22241,44184,55156,66127,131956,153899,175841,197784
DistanceSpacing: 0.4
BeatDivisor: 8
GridSize: 4

[Metadata]
Title:Kyoto (feat. Sirah)
Artist:Skrillex
Creator:Frozen Child
Version:lepidon! - Taiko Oni
Source:
Tags:La Cataline Vass_Bass Reiji-RJ Lepidopodus Dubstep

[Difficulty]
HPDrainRate:5
CircleSize:5
OverallDifficulty:6
ApproachRate:5
SliderMultiplier:2.8
SliderTickRate:1

[Events]
//Background and Video events
0,0,"1304278294440.jpg"
//Break Periods
//Storyboard Layer 0 (Background)
//Storyboard Layer 1 (Fail)
//Storyboard Layer 2 (Pass)
//Storyboard Layer 3 (Foreground)
//Storyboard Sound Samples
//Background Colour Transformations
3,100,163,162,255

[TimingPoints]
192,685.714285714286,4,1,0,90,1,0
44077,-100,4,1,0,75,0,0
64649,-100,4,1,0,60,0,0
66020,-100,4,1,0,90,0,1
86592,-100,4,1,0,90,0,0
87963,-100,4,1,0,90,0,1
108534,-100,4,1,0,75,0,0
109906,-100,4,1,0,90,0,1
130477,-100,4,1,0,90,0,0
131763,-100,4,1,0,80,0,0
142734,-100,4,1,0,90,0,0
174277,-100,4,1,0,75,0,0
175734,-100,4,1,0,90,0,0
186706,-100,4,1,0,80,0,0
196220,-100,4,1,0,90,0,0
197592,-25,4,1,0,90,0,0
198877,-100,4,1,0,90,0,0

[Colours]
Combo1 : 255,220,21
Combo2 : 255,139,83
Combo3 : 89,255,89
Combo4 : 252,90,67
Combo5 : 45,251,173

[HitObjects]
280,256,192,5,0
424,192,877,1,8
372,228,1220,1,0
372,228,1734,1,0
424,192,2249,1,8
372,228,2592,1,0
276,220,2934,1,0
424,192,3620,1,8
472,160,3963,1,0
356,272,4477,1,0
380,292,4649,1,0
424,192,4992,1,8
380,232,5334,1,0
296,248,5506,1,0
272,152,5677,5,0
436,168,6363,1,8
380,232,6706,1,0
292,200,7220,1,0
464,152,7734,1,8
456,208,8077,1,0
324,248,8420,1,0
324,248,8592,1,0
324,248,8677,1,0
324,248,8763,1,0
324,248,8934,1,0
324,248,9106,1,0
324,248,9192,1,0
324,248,9277,1,0
324,248,9363,1,0
324,248,9449,1,0
324,248,9620,1,0
364,328,9792,1,0
352,264,9963,1,0
352,264,10134,1,0
352,264,10220,1,0
352,264,10306,1,0
352,264,10392,1,0
352,264,10477,1,0
436,188,10649,1,8
436,188,10820,1,8
436,188,10992,1,8
276,164,11163,5,0
276,164,11334,1,0
276,164,11420,1,0
276,164,11506,1,0
276,164,11677,1,0
464,160,11849,1,8
424,224,12020,1,0
360,304,12363,1,0
360,304,12534,1,0
360,304,12706,1,0
360,304,12792,1,0
360,304,12877,1,0
360,304,13049,1,0
416,184,13220,1,8
508,180,13392,1,0
424,224,13477,1,0
424,224,13563,1,0
476,204,13734,1,8
220,216,13906,1,0
368,256,14077,1,0
368,256,14163,1,0
368,256,14249,1,0
368,256,14420,1,0
476,204,14592,1,8
476,204,14763,1,0
368,256,15106,1,0
320,220,15277,1,0
320,220,15449,1,0
320,220,15534,1,0
320,220,15620,1,0
320,220,15792,1,0
416,200,15963,1,8
424,236,16134,1,0
424,236,16220,1,0
476,204,16306,1,8
476,204,16477,1,0
276,164,16649,5,0
276,164,16820,1,0
276,164,16906,1,0
276,164,16992,1,0
276,164,17163,1,0
464,160,17335,1,8
424,224,17506,1,0
360,304,17849,1,0
360,304,18020,1,0
360,304,18192,1,0
360,304,18278,1,0
360,304,18363,1,0
360,304,18535,1,0
416,184,18706,1,8
508,180,18878,1,0
424,224,18963,1,0
424,224,19049,1,0
476,204,19220,1,8
238,213,19392,1,0
238,213,19563,1,0
238,213,19649,1,0
238,213,19734,1,0
238,213,19906,1,0
364,262,20077,1,0
364,262,20163,1,0
364,262,20249,1,0
364,262,20334,1,0
364,262,20420,1,0
364,262,20592,1,0
364,262,20763,1,0
364,262,20934,1,0
453,203,21106,1,8
453,203,21192,1,8
453,203,21277,1,8
453,203,21363,1,8
453,203,21449,1,0
453,203,21620,1,8
453,203,21792,1,8
453,203,21963,1,8
240,187,22134,5,0
287,180,22306,1,0
287,180,22392,1,0
453,203,22477,1,8
436,232,22649,1,0
476,161,22820,1,0
453,203,22992,1,0
453,203,23077,1,0
453,203,23163,1,8
393,245,23334,1,0
178,235,23506,1,0
301,240,23677,1,0
453,203,23849,1,8
453,203,24020,1,0
302,143,24192,1,0
453,203,24363,1,8
453,203,24449,1,8
453,203,24534,1,0
393,245,24706,1,0
252,146,24877,1,0
252,146,25049,1,0
252,146,25134,1,0
453,203,25220,1,8
453,203,25392,1,0
424,212,25563,1,8
424,212,25734,1,0
424,212,25820,1,0
453,203,25906,1,8
453,203,26077,1,0
430,176,26249,1,0
424,212,26420,1,0
453,203,26592,1,8
384,209,26763,1,0
404,192,26934,1,0
424,212,27106,1,8
424,212,27192,1,8
399,233,27277,1,0
424,212,27449,1,8
283,164,27620,5,0
365,158,27792,1,0
404,192,27877,1,8
404,192,27963,1,8
404,192,28134,1,0
424,212,28306,1,0
424,212,28477,1,0
424,212,28563,1,8
424,212,28649,1,8
424,212,28820,1,0
369,219,28992,1,0
404,192,29163,1,8
404,192,29334,1,8
407,240,29506,1,0
429,161,29677,1,0
464,164,29849,1,8
464,164,29934,1,8
424,212,30020,1,0
424,212,30192,1,0
252,146,30363,1,0
252,146,30535,1,0
252,146,30620,1,0
453,203,30706,1,8
453,203,30878,1,0
424,212,31049,1,8
424,212,31220,1,0
424,212,31306,1,0
453,203,31392,1,8
453,203,31563,1,0
206,268,31734,1,0
290,214,31906,1,0
290,214,31992,1,0
341,319,32077,1,0
341,319,32249,1,0
341,319,32420,1,0
276,152,32763,1,4
240,187,33106,5,0
123,209,33192,1,0
287,180,33278,1,0
287,180,33364,1,0
453,203,33449,1,8
436,232,33621,1,0
476,161,33792,1,0
453,203,33964,1,0
453,203,34049,1,0
453,203,34135,1,8
393,245,34306,1,0
178,235,34478,1,0
322,298,34563,1,0
301,240,34649,1,0
453,203,34821,1,8
453,203,34992,1,0
302,143,35164,1,0
453,203,35335,1,8
453,203,35421,1,8
453,203,35506,1,0
393,245,35678,1,0
252,146,35849,1,0
348,355,35934,1,0
252,146,36021,1,0
252,146,36106,1,0
453,203,36192,1,8
453,203,36364,1,0
424,212,36535,1,8
424,212,36706,1,0
424,212,36792,1,0
453,203,36878,1,8
453,203,37049,1,0
430,176,37221,1,0
348,355,37306,1,0
424,212,37392,1,0
453,203,37564,1,8
384,209,37735,1,0
404,192,37906,1,0
424,212,38078,1,8
424,212,38164,1,8
399,233,38249,1,0
424,212,38421,1,8
283,164,38592,5,0
230,236,38677,1,0
365,158,38764,1,0
404,192,38849,1,8
404,192,38935,1,8
404,192,39106,1,0
424,212,39278,1,0
424,212,39449,1,0
424,212,39535,1,8
424,212,39621,1,8
424,212,39792,1,0
369,219,39964,1,0
345,330,40049,1,0
404,192,40135,1,8
404,192,40306,1,8
407,240,40478,1,0
429,161,40649,1,0
404,192,40820,1,8
404,192,40906,1,8
424,212,40992,1,0
424,212,41163,1,0
270,184,41334,1,0
270,184,41420,1,0
270,184,41506,1,0
270,184,41592,1,0
404,192,41677,1,8
424,212,41849,1,0
424,212,42020,1,8
469,194,42106,1,0
469,194,42192,1,0
469,194,42277,1,0
404,192,42363,1,8
424,212,42534,1,0
349,276,42706,1,0
349,276,42792,1,0
349,276,42877,1,0
469,194,43049,1,8
135,174,43220,1,0
135,174,43306,1,0
135,174,43392,1,0
135,174,43477,1,0
372,185,43563,1,8
404,192,43734,1,8
404,192,43906,1,0
268,121,44077,5,8
268,121,44249,1,8
268,121,44420,1,8
268,121,44592,1,8
268,121,44763,1,8
268,121,44934,1,8
268,121,45106,1,8
480,202,45277,1,8
360,293,46820,1,8
360,293,46992,1,8
360,293,47163,1,8
360,293,47334,1,0
360,293,47506,1,8
360,293,47677,1,8
360,293,47849,1,8
360,293,48020,1,8
364,223,49563,5,8
364,223,49734,1,8
364,223,49906,1,8
364,223,50077,1,8
364,223,50249,1,8
364,223,50420,1,8
364,223,50592,1,8
364,223,50763,1,8
399,240,52306,1,8
399,240,52477,1,8
399,240,52649,1,8
459,206,52820,1,0
416,201,52992,1,8
416,201,53163,1,8
416,201,53334,1,8
416,201,53506,1,8
319,247,55049,5,0
340,168,55392,1,0
340,168,55734,1,0
99,192,56077,1,0
387,288,56420,1,0
294,195,56763,1,0
294,195,57106,1,0
294,195,57449,1,0
294,195,57792,1,0
428,192,57963,1,8
475,184,58134,1,0
475,184,58306,1,8
475,184,58477,1,0
475,184,58649,1,8
475,184,58820,1,0
475,184,58992,1,8
428,192,59163,1,0
428,192,59334,1,8
475,184,59506,1,0
453,200,59677,1,8
475,184,59849,1,0
475,184,60020,1,8
475,184,60192,1,0
428,192,60363,1,8
282,165,60534,5,0
282,165,60620,1,0
475,184,60706,1,8
428,192,60877,1,0
453,200,60963,1,0
475,184,61049,1,8
475,184,61220,1,0
475,184,61306,1,0
475,184,61392,1,8
475,184,61563,1,0
475,184,61649,1,0
428,192,61734,1,8
428,192,61906,1,0
428,192,61992,1,0
428,192,62077,1,8
475,184,62249,1,0
453,200,62334,1,0
453,200,62420,1,8
428,192,62592,1,0
428,192,62677,1,0
475,184,62763,1,8
475,184,62934,1,0
475,184,63020,1,0
428,192,63106,1,8
434,224,63277,1,0
434,224,63363,1,0
428,192,63449,1,8
428,192,63534,1,0
428,192,63620,1,0
428,192,63706,1,0
428,192,63792,1,8
428,192,63877,1,0
428,192,63963,1,0
428,192,64049,1,0
428,192,64134,1,8
428,192,64220,1,0
428,192,64306,1,0
428,192,64392,1,0
428,192,64477,1,8
428,192,64563,1,0
373,227,64649,1,8
373,227,64992,1,8
373,227,65334,1,8
373,227,65506,1,8
373,227,65677,1,8
273,244,66020,5,0
273,244,66106,1,0
273,244,66192,1,0
273,244,66363,1,0
419,220,66534,1,8
419,220,66706,1,8
419,220,66792,1,8
419,220,66877,1,8
419,220,67049,1,8
419,220,67220,1,8
372,235,67392,1,0
372,235,67563,1,0
372,235,67734,1,0
372,235,67906,1,0
372,235,68077,1,0
372,235,68249,1,0
351,171,68420,1,12
424,168,68763,1,8
424,168,68849,1,8
424,168,68934,1,8
424,168,69106,1,8
458,192,69277,1,0
411,193,69449,1,8
411,193,69534,1,8
411,193,69620,1,8
411,193,69792,1,8
411,193,69963,1,8
403,272,70134,1,0
329,172,70306,2,0,B|206:245,1,140
394,318,70820,1,0
394,318,70992,1,0
394,318,71163,1,0
394,318,71334,1,0
221,235,71506,5,0
221,235,71592,1,0
221,235,71677,1,0
221,235,71849,1,0
408,198,72020,1,8
408,198,72192,1,8
408,198,72277,1,8
408,198,72363,1,8
408,198,72534,1,8
408,198,72706,1,8
444,223,72877,1,0
444,223,73049,1,0
444,223,73220,1,0
444,223,73392,1,0
444,223,73563,1,0
444,223,73734,1,0
381,231,73906,1,12
372,160,74249,1,8
372,160,74334,1,8
372,160,74420,1,8
372,160,74592,1,8
424,188,74763,1,0
424,188,74934,1,8
424,188,75020,1,8
424,188,75106,1,8
424,188,75277,1,8
424,188,75449,1,8
412,232,75620,1,0
326,195,75792,2,0,B|187:245,1,140
218,269,76306,1,0
218,269,76477,1,0
218,269,76649,1,0
218,269,76820,1,0
273,244,76992,5,0
273,244,77078,1,0
273,244,77164,1,0
224,210,77249,1,0
273,244,77335,1,0
419,220,77506,1,8
419,220,77678,1,8
419,220,77764,1,8
419,220,77849,1,8
419,220,78021,1,8
419,220,78192,1,8
372,235,78364,1,0
372,235,78535,1,0
372,235,78706,1,0
372,235,78878,1,0
372,235,79049,1,0
372,235,79221,1,0
351,171,79392,1,12
424,168,79735,1,8
424,168,79821,1,8
424,168,79906,1,8
372,235,79992,1,8
424,168,80078,1,8
458,192,80249,1,0
411,193,80421,1,8
411,193,80506,1,8
411,193,80592,1,8
411,193,80764,1,8
411,193,80935,1,8
403,272,81106,1,0
329,172,81278,2,0,B|206:245,1,140
394,318,81792,1,0
394,318,81964,1,0
394,318,82135,1,0
394,318,82306,1,0
221,235,82478,5,0
221,235,82564,1,0
221,235,82649,1,0
444,223,82734,1,0
221,235,82821,1,0
408,198,82992,1,8
408,198,83164,1,8
408,198,83249,1,8
408,198,83335,1,8
408,198,83506,1,8
408,198,83678,1,8
444,223,83849,1,0
444,223,84021,1,0
444,223,84192,1,0
444,223,84364,1,0
444,223,84535,1,0
444,223,84706,1,0
381,231,84878,1,12
372,160,85221,1,8
372,160,85306,1,8
372,160,85392,1,8
424,188,85477,1,8
372,160,85564,1,8
424,188,85735,1,0
424,188,85906,1,8
424,188,85992,1,8
424,188,86078,1,8
424,188,86249,1,8
424,188,86421,1,8
228,221,86592,1,4
372,160,86934,1,8
349,355,87106,1,4
444,243,87449,1,0
444,243,87534,1,0
444,243,87620,1,8
412,265,87792,1,0
155,156,87963,5,0
200,228,88134,1,0
308,236,88306,1,0
308,236,88477,1,0
308,236,88649,1,0
308,236,88820,1,0
308,236,88992,1,0
308,236,89163,1,0
445,184,89334,1,8
445,184,89506,1,8
445,184,89677,1,8
445,184,89849,1,8
445,184,90020,1,8
445,184,90192,1,8
445,184,90363,1,8
445,184,90534,1,8
445,184,90706,1,8
445,184,90792,1,8
445,184,90877,1,8
393,184,91049,1,0
445,184,91220,1,8
445,184,91306,1,8
422,200,91392,1,0
422,200,91563,1,0
445,184,91734,1,8
422,200,91906,1,0
364,265,92077,1,0
364,265,92163,1,0
364,265,92249,1,0
445,184,92420,1,8
422,200,92592,1,8
422,200,92763,1,0
422,200,92934,1,0
445,184,93106,1,8
364,265,93277,1,0
262,194,93449,5,0
364,265,93534,1,0
364,265,93620,1,0
359,217,93792,1,8
422,200,93963,1,8
422,200,94049,1,8
422,200,94134,1,0
388,229,94306,1,0
422,200,94477,1,8
359,217,94649,1,8
420,246,94820,1,0
420,246,94906,1,0
420,246,94992,1,0
388,229,95163,1,8
404,270,95334,1,8
404,270,95420,1,8
422,200,95506,1,0
240,258,95592,1,0
422,200,95677,1,0
388,229,95849,1,8
305,100,96192,1,0
111,178,96277,1,0
305,100,96363,1,0
305,100,96534,1,0
305,100,96706,1,0
404,270,96877,1,0
324,290,96963,1,0
404,270,97049,1,0
404,270,97220,1,0
404,270,97392,1,0
404,270,97563,1,0
354,311,97649,1,0
354,311,97734,1,0
354,311,97820,1,0
354,311,97906,1,0
354,311,97992,1,0
354,311,98077,1,0
369,272,98249,1,0
369,272,98334,1,0
369,272,98420,1,0
369,272,98506,1,0
369,272,98592,1,0
369,272,98677,1,0
369,272,98763,1,0
155,156,98934,5,0
200,228,99105,1,0
369,272,99192,1,0
308,236,99277,1,0
308,236,99448,1,0
308,236,99620,1,0
308,236,99791,1,0
370,346,99877,1,0
308,236,99963,1,0
308,236,100134,1,0
445,184,100305,1,8
445,184,100477,1,8
464,239,100563,1,8
445,184,100648,1,8
445,184,100820,1,8
445,184,100991,1,8
445,184,101163,1,8
402,256,101249,1,8
445,184,101334,1,8
445,184,101505,1,8
445,184,101677,1,8
445,184,101763,1,8
445,184,101848,1,8
393,184,102020,1,0
445,184,102191,1,8
445,184,102277,1,8
422,200,102363,1,0
422,200,102534,1,0
445,184,102705,1,8
422,200,102877,1,0
364,265,103048,1,0
364,265,103134,1,0
364,265,103220,1,0
445,184,103391,1,8
422,200,103563,1,8
422,200,103734,1,0
416,240,103820,1,0
422,200,103905,1,0
445,184,104077,1,8
364,265,104248,1,0
262,194,104420,5,0
364,265,104505,1,0
364,265,104591,1,0
359,217,104763,1,8
422,200,104934,1,8
422,200,105020,1,8
422,200,105105,1,0
388,229,105277,1,0
422,200,105448,1,8
359,217,105620,1,8
420,246,105791,1,0
420,246,105877,1,0
420,246,105963,1,0
388,229,106134,1,8
404,270,106305,1,8
404,270,106391,1,8
422,200,106477,1,0
240,258,106563,1,0
422,200,106648,1,0
388,229,106820,1,8
305,100,107163,1,0
111,178,107248,1,0
305,100,107334,1,0
305,100,107505,1,0
305,100,107677,1,0
404,270,107848,1,0
324,290,107934,1,0
404,270,108020,1,0
324,290,108106,1,0
404,270,108191,1,0
404,270,108363,1,0
367,207,108534,1,8
367,207,108877,1,8
367,207,109220,1,8
367,207,109392,1,8
367,207,109563,1,8
132,131,109906,5,0
273,244,109992,1,0
273,244,110078,1,0
224,210,110163,1,0
273,244,110249,1,0
419,220,110420,1,8
419,220,110592,1,8
419,220,110678,1,8
419,220,110763,1,8
419,220,110935,1,8
419,220,111106,1,8
372,235,111278,1,0
372,235,111449,1,0
372,235,111620,1,0
372,235,111792,1,0
372,235,111963,1,0
372,235,112135,1,0
351,171,112306,1,12
424,168,112649,1,8
424,168,112735,1,8
424,168,112820,1,8
372,235,112906,1,8
424,168,112992,1,8
458,192,113163,1,0
411,193,113335,1,8
411,193,113420,1,8
411,193,113506,1,8
411,193,113678,1,8
411,193,113849,1,8
403,272,114020,1,0
256,192,114192,12,0,114534
394,318,114706,5,0
394,318,114878,1,0
394,318,115049,1,0
394,318,115220,1,0
221,235,115392,5,0
221,235,115478,1,0
221,235,115563,1,0
444,223,115648,1,0
221,235,115735,1,0
408,198,115906,1,8
408,198,116078,1,8
408,198,116163,1,8
408,198,116249,1,8
408,198,116420,1,8
408,198,116592,1,8
444,223,116763,1,0
444,223,116935,1,0
444,223,117106,1,0
444,223,117278,1,0
444,223,117449,1,0
444,223,117620,1,0
381,231,117792,1,12
372,160,118135,1,8
372,160,118220,1,8
372,160,118306,1,8
424,188,118391,1,8
372,160,118478,1,8
424,188,118649,1,0
424,188,118820,1,8
424,188,118906,1,8
424,188,118992,1,8
424,188,119163,1,8
424,188,119335,1,8
347,247,119506,1,0
256,192,119677,12,0,120020
234,231,120192,5,0
234,231,120363,1,0
234,231,120534,1,0
234,231,120706,1,0
132,131,120877,5,0
273,244,120963,1,0
273,244,121049,1,0
224,210,121134,1,0
273,244,121220,1,0
419,220,121391,1,8
419,220,121563,1,8
419,220,121649,1,8
419,220,121734,1,8
419,220,121906,1,8
419,220,122077,1,8
372,235,122249,1,0
372,235,122420,1,0
285,268,122506,1,0
372,235,122591,1,0
372,235,122763,1,0
285,268,122849,1,0
372,235,122934,1,0
372,235,123106,1,0
351,171,123277,1,12
424,168,123620,1,8
424,168,123706,1,8
424,168,123791,1,8
372,235,123877,1,8
424,168,123963,1,8
458,192,124134,1,0
411,193,124306,1,8
411,193,124391,1,8
411,193,124477,1,8
411,193,124649,1,8
411,193,124820,1,8
403,272,124991,1,0
256,192,125163,12,0,125505
394,318,125677,5,0
346,241,125763,1,0
394,318,125849,1,0
394,318,126020,1,0
394,318,126191,1,0
221,235,126363,5,0
221,235,126449,1,0
221,235,126534,1,0
444,223,126619,1,0
221,235,126706,1,0
408,198,126877,1,8
408,198,127049,1,8
408,198,127134,1,8
408,198,127220,1,8
408,198,127391,1,8
408,198,127563,1,8
444,223,127734,1,0
444,223,127906,1,0
352,308,127992,1,0
444,223,128077,1,0
444,223,128249,1,0
279,194,128334,1,0
444,223,128420,1,0
444,223,128591,1,0
381,231,128763,1,12
372,160,129106,1,8
372,160,129191,1,8
372,160,129277,1,8
424,188,129362,1,8
372,160,129449,1,8
424,188,129620,1,0
424,188,129791,1,8
424,188,129877,1,8
424,188,129963,1,8
424,188,130134,1,8
424,188,130306,1,8
260,200,131849,5,0
260,200,132020,1,0
260,200,132192,1,0
397,213,132363,1,8
308,168,132534,1,0
308,168,132706,1,0
397,213,132877,1,8
400,244,133220,1,0
400,244,133392,1,0
444,184,133563,1,8
448,216,133906,1,0
397,213,134249,1,8
304,188,134592,1,0
444,184,134763,1,8
444,184,134934,1,0
468,172,135106,1,8
444,184,135277,1,0
444,184,135620,1,8
376,164,135963,1,8
376,164,136134,1,8
408,208,136306,1,0
408,172,136649,1,8
408,208,136820,1,0
408,208,136992,1,0
408,208,137163,1,8
456,104,137334,5,8
432,220,137677,1,0
332,208,138020,1,0
332,208,138192,1,8
332,208,138363,1,8
332,208,138534,1,8
332,208,138706,1,8
400,232,139049,1,0
416,188,139392,1,8
416,188,139563,1,8
416,188,139734,1,8
384,192,140077,1,0
384,192,140249,1,0
384,192,140334,1,0
384,192,140420,1,0
384,192,140592,1,0
372,272,140763,1,0
372,272,140849,1,0
372,272,140934,1,0
372,272,141020,1,0
372,272,141106,1,0
372,272,141277,1,0
320,328,141449,1,0
320,328,141620,1,0
320,328,141792,1,0
320,328,141877,1,0
320,328,141963,1,0
320,328,142049,1,0
320,328,142134,1,0
372,332,142306,1,8
372,332,142477,1,8
372,332,142649,1,8
236,172,142820,5,0
312,168,143506,1,0
312,168,143592,1,0
312,168,143677,1,0
312,168,143849,1,0
312,168,144020,1,0
408,160,144192,1,8
408,160,144277,1,8
424,200,144363,1,0
408,160,144534,1,8
368,208,144706,1,0
408,160,144877,1,8
408,160,144963,1,8
424,200,145049,1,0
380,244,145220,1,8
336,284,145563,1,0
336,284,145649,1,0
336,284,145734,1,0
368,208,145906,1,8
336,284,146077,1,8
380,244,146249,1,0
272,244,146334,1,0
380,244,146420,1,0
368,208,146592,1,0
368,208,146763,1,8
392,196,147106,1,8
368,208,147449,1,0
436,200,147620,1,8
436,200,147706,1,8
436,200,147792,1,8
436,200,147963,1,0
372,296,148134,1,8
304,132,148306,5,0
332,292,148477,1,0
380,248,148992,1,0
380,248,149077,1,0
380,248,149163,1,0
380,248,149334,1,0
380,248,149506,1,0
424,168,149677,1,0
424,168,149763,1,0
408,200,149849,1,8
440,204,150020,1,0
440,204,150192,1,0
360,164,150363,1,0
424,168,150449,1,8
408,200,150534,1,0
408,200,150706,1,8
408,248,150877,1,0
352,328,151049,1,0
352,328,151220,1,0
352,328,151306,1,0
352,328,151392,1,0
352,328,151563,1,0
352,328,151734,1,0
352,328,151820,1,0
352,328,151906,1,0
352,328,151992,1,0
352,328,152077,1,0
352,328,152249,1,0
300,160,152420,1,8
300,160,152763,1,8
300,160,152934,1,8
300,160,153106,1,8
396,200,153449,1,4
204,256,153792,5,0
344,316,153963,1,0
344,316,154049,1,0
344,316,154134,1,0
408,288,154306,1,0
424,208,154477,1,8
424,208,154649,1,0
360,192,154992,1,0
360,192,155163,1,0
360,192,155334,1,0
360,192,155420,1,0
360,192,155506,1,0
360,192,155677,1,0
468,180,155849,1,8
468,180,156020,1,0
468,180,156106,1,0
468,180,156192,1,0
444,192,156363,1,8
396,260,156534,1,0
396,260,156706,1,0
396,260,156792,1,0
396,260,156877,1,0
396,260,157049,1,0
444,192,157220,1,8
416,216,157392,1,0
416,216,157734,1,0
416,216,157906,1,0
416,216,158077,1,0
416,216,158163,1,0
416,216,158249,1,0
416,216,158420,1,0
452,144,158592,1,8
444,192,158763,1,0
444,192,158849,1,0
452,144,158934,1,8
416,216,159106,1,0
276,164,159277,5,0
276,164,159448,1,0
276,164,159534,1,0
276,164,159620,1,0
276,164,159791,1,0
464,160,159963,1,8
424,224,160134,1,0
360,304,160477,1,0
360,304,160648,1,0
360,304,160820,1,0
360,304,160906,1,0
360,304,160991,1,0
360,304,161163,1,0
416,184,161334,1,8
508,180,161506,1,0
424,224,161591,1,0
424,224,161677,1,0
476,204,161848,1,8
238,213,162020,1,0
238,213,162191,1,0
238,213,162277,1,0
238,213,162362,1,0
238,213,162534,1,0
364,262,162705,1,0
364,262,162791,1,0
364,262,162877,1,0
364,262,162962,1,0
364,262,163048,1,0
364,262,163220,1,0
364,262,163391,1,0
364,262,163562,1,0
453,203,163734,1,8
453,203,163820,1,8
453,203,163905,1,8
453,203,163991,1,8
453,203,164077,1,0
453,203,164248,1,8
453,203,164420,1,8
453,203,164591,1,8
272,212,164763,5,0
272,212,164934,1,0
272,212,165020,1,0
272,212,165106,1,0
272,212,165277,1,0
416,164,165449,1,8
424,232,165620,1,0
424,232,165706,1,0
424,232,165792,1,0
432,184,165963,1,0
396,228,166134,1,0
396,228,166220,1,0
396,228,166306,1,0
396,228,166392,1,0
396,228,166477,1,0
432,184,166649,1,0
396,228,166820,1,8
432,184,166992,1,0
432,184,167077,1,0
432,184,167163,1,0
364,240,167334,1,8
232,180,167506,1,0
232,180,167677,1,0
232,180,167763,1,0
232,180,167849,1,0
232,180,168020,1,0
432,184,168192,1,8
432,184,168363,1,0
432,184,168449,1,0
432,184,168534,1,8
248,208,168706,1,0
232,96,168877,1,0
400,176,169049,1,8
400,176,169220,1,0
400,176,169306,1,0
432,184,169392,1,0
432,184,169563,1,8
432,184,169649,1,8
440,224,169734,1,0
440,224,169820,1,0
440,224,169906,1,0
412,224,170077,1,8
272,212,170249,5,0
272,212,170420,1,0
272,212,170506,1,0
272,212,170592,1,0
272,212,170763,1,0
416,164,170935,1,8
424,232,171106,1,0
424,232,171192,1,0
424,232,171278,1,0
432,184,171449,1,0
396,228,171620,1,0
396,228,171706,1,0
396,228,171792,1,0
396,228,171878,1,0
396,228,171963,1,0
432,184,172135,1,0
396,228,172306,1,8
432,184,172478,1,0
432,184,172563,1,0
432,184,172649,1,0
364,240,172820,1,8
272,256,172992,1,0
272,256,173163,1,0
272,256,173249,1,0
272,256,173334,1,0
272,256,173506,1,0
272,256,173677,1,0
272,256,173763,1,0
272,256,173849,1,0
272,256,173934,1,0
272,256,174020,1,0
272,256,174192,1,0
456,192,174363,1,8
416,216,174706,1,8
416,216,174877,1,8
416,216,175049,1,0
348,284,175392,1,8
348,284,175477,1,8
348,284,175563,1,8
348,284,175649,1,8
456,128,175734,5,0
304,240,176249,1,0
380,284,176592,1,0
404,268,176934,1,0
364,260,177106,1,8
364,260,177277,1,8
364,260,177449,1,8
364,260,177620,1,8
364,260,177792,1,8
364,260,177963,1,8
364,260,178306,1,8
436,228,178477,1,0
368,304,178992,1,0
368,304,179334,1,0
364,260,179677,1,0
412,184,179849,1,8
412,184,180020,1,8
412,184,180192,1,8
412,184,180363,1,8
412,184,180534,1,8
412,184,180706,1,8
412,184,181049,1,8
436,228,181220,5,0
368,304,181735,1,0
368,304,182077,1,0
364,260,182420,1,0
412,184,182592,1,8
412,184,182763,1,8
412,184,182935,1,8
412,184,183106,1,8
412,184,183277,1,8
412,184,183449,1,8
412,184,183792,1,8
280,200,183963,1,0
280,200,184134,1,0
280,200,184306,1,0
280,200,184477,1,0
280,200,184649,1,0
280,200,184820,1,0
280,200,184992,1,0
280,200,185163,1,0
360,312,185334,1,0
360,312,185420,1,0
360,312,185506,1,0
360,312,185592,1,0
360,312,185677,1,0
360,312,185763,1,0
360,312,185849,1,0
360,312,185934,1,0
360,312,186020,1,0
360,312,186106,1,0
360,312,186192,1,0
360,312,186277,1,0
360,312,186363,1,0
360,312,186449,1,0
360,312,186534,1,0
360,312,186620,1,0
400,248,186706,5,0
220,184,187220,1,0
220,184,187563,1,0
220,184,187906,1,0
368,224,188077,1,8
368,224,188592,1,8
368,224,188934,1,8
368,224,189277,1,8
400,324,189449,1,0
328,324,189963,1,0
324,276,190306,1,0
324,276,190649,1,0
416,188,190820,1,8
368,272,191334,1,8
392,200,191849,1,0
472,176,192192,1,0
432,212,192534,1,8
344,156,192877,1,0
440,176,193220,1,8
440,176,193563,1,0
440,176,193906,1,8
408,200,194249,1,0
408,200,194592,1,8
224,244,194934,1,0
224,244,195106,1,0
224,244,195277,1,0
224,244,195449,1,0
224,244,195620,1,0
224,244,195792,1,0
224,244,195963,1,0
224,244,196134,1,0
356,76,196306,1,4
356,76,196820,1,4
408,276,197163,1,0
408,276,197249,1,0
448,204,197334,1,8
428,248,197506,1,0
480,192,197677,6,4,B|672:384|672:384|224:396|224:396|172:116,1,980
