osu file format v9

[General]
AudioFilename: Kyoto feat. Sirah (Original Mix).mp3
AudioLeadIn: 2000
PreviewTime: 64756
Countdown: 0
SampleSet: Normal
StackLeniency: 0.7
Mode: 1
LetterboxInBreaks: 0

[Editor]
Bookmarks: 22241,44184,55156,66127,131956,153899,175841,197784
DistanceSpacing: 0.4
BeatDivisor: 4
GridSize: 4

[Metadata]
Title:Kyoto (feat. Sirah)
Artist:Skrillex
Creator:Frozen Child
Version:lepidon! - Taiko Muzukashii
Source:
Tags:La Cataline Vass_Bass Reiji-RJ Lepidopodus Dubstep

[Difficulty]
HPDrainRate:4
CircleSize:5
OverallDifficulty:5
ApproachRate:5
SliderMultiplier:2.8
SliderTickRate:1

[Events]
//Background and Video events
0,0,"1304278294440.jpg"
//Break Periods
//Storyboard Layer 0 (Background)
//Storyboard Layer 1 (Fail)
//Storyboard Layer 2 (Pass)
//Storyboard Layer 3 (Foreground)
//Storyboard Sound Samples
//Background Colour Transformations
3,100,163,162,255

[TimingPoints]
192,685.714285714286,4,1,0,90,1,0
44077,-100,4,1,0,75,0,0
64649,-100,4,1,0,60,0,0
66020,-100,4,1,0,90,0,1
86592,-100,4,1,0,90,0,0
87963,-100,4,1,0,90,0,1
108534,-100,4,1,0,75,0,0
109906,-100,4,1,0,90,0,1
130477,-100,4,1,0,90,0,0
131763,-100,4,1,0,80,0,0
142734,-100,4,1,0,90,0,0
174277,-100,4,1,0,75,0,0
175734,-100,4,1,0,90,0,0
186706,-100,4,1,0,80,0,0
196220,-100,4,1,0,90,0,0

[Colours]
Combo1 : 255,220,21
Combo2 : 255,139,83
Combo3 : 89,255,89
Combo4 : 252,90,67
Combo5 : 45,251,173

[HitObjects]
224,192,192,5,0
420,200,877,1,8
420,200,1220,1,0
368,324,1734,1,0
420,200,2249,1,8
420,200,2592,1,0
344,268,2934,1,0
472,196,3620,1,8
380,284,3963,1,0
388,312,4477,1,0
388,312,4649,1,0
472,196,4992,1,8
408,216,5506,1,0
388,248,5677,5,0
396,176,6363,1,8
256,292,6706,1,0
368,320,7220,1,0
428,188,7734,1,8
396,248,8077,1,0
388,88,8420,2,0,B|120:308|120:308|72:92|72:92|456:288,1,980
292,244,11163,5,0
292,244,11334,1,0
292,244,11506,1,0
292,244,11677,1,0
392,192,11849,1,8
412,248,12020,1,0
372,320,12363,1,0
372,320,12534,1,0
372,320,12706,1,0
372,320,12877,1,0
392,192,13220,1,8
472,188,13392,1,0
472,188,13563,1,8
332,240,13906,1,0
332,240,14077,1,0
332,240,14249,1,0
332,240,14420,1,0
432,180,14592,1,8
432,180,14763,1,0
368,324,15106,1,0
368,324,15277,1,0
368,324,15449,1,0
368,324,15620,1,0
468,192,15963,1,8
468,192,16134,1,0
468,192,16306,1,8
432,224,16477,1,0
296,180,16649,5,0
324,176,16820,1,0
352,188,16992,1,0
352,188,17163,1,0
424,184,17334,1,8
432,224,17506,1,0
372,272,17849,1,0
372,272,18020,1,0
372,272,18192,1,0
372,272,18363,1,0
424,184,18706,1,8
472,192,18877,1,0
432,224,19049,1,8
432,224,19392,2,0,B|104:200|104:200|368:80|368:80|296:280|296:280|232:144,1,980
268,72,22134,5,0
320,112,22306,1,0
440,160,22477,1,8
356,280,22649,1,0
448,188,22820,1,0
448,188,22992,1,0
448,188,23163,1,8
356,280,23506,1,0
356,280,23677,1,0
448,188,23849,1,8
424,224,24020,1,0
448,188,24192,1,8
424,224,24363,1,0
344,176,24534,1,8
268,72,24877,1,0
320,112,25049,1,0
440,160,25220,1,8
356,280,25392,1,0
448,188,25563,1,0
448,188,25735,1,0
448,188,25906,1,8
356,280,26249,1,0
356,280,26420,1,0
448,188,26592,1,8
424,224,26763,1,0
448,188,26935,1,8
424,224,27106,1,0
344,176,27277,1,8
176,192,27620,5,0
248,196,27792,1,0
420,176,27963,1,8
420,176,28134,1,8
448,188,28306,1,0
448,188,28477,1,0
424,224,28649,1,8
368,220,28992,1,0
368,220,29163,1,0
424,224,29334,1,8
448,188,29506,1,0
424,224,29677,1,0
424,224,29849,1,8
424,224,30020,1,8
268,72,30363,1,0
320,112,30535,1,0
440,160,30706,1,8
356,280,30878,1,0
448,188,31049,1,0
448,188,31221,1,0
448,188,31392,1,8
356,280,31563,1,0
332,256,31734,1,0
356,280,32077,1,0
356,280,32249,1,0
356,280,32420,1,0
392,152,32763,1,4
412,216,33106,5,0
440,280,33277,1,0
456,164,33449,1,8
356,280,33620,1,0
356,280,33792,1,0
392,272,33963,1,0
412,216,34134,1,8
384,228,34477,1,0
384,228,34563,1,0
384,228,34649,1,0
404,128,34820,1,8
456,164,34992,1,0
456,164,35163,1,8
484,176,35334,1,0
484,176,35506,1,8
412,216,35849,1,0
440,280,36020,1,0
456,164,36192,1,8
356,280,36363,1,0
356,280,36535,1,0
392,272,36706,1,0
412,216,36877,1,8
384,228,37220,1,0
384,228,37306,1,0
384,228,37392,1,0
404,128,37563,1,8
456,164,37735,1,0
456,164,37906,1,8
484,176,38077,1,0
484,176,38249,1,8
216,184,38592,5,0
272,172,38763,1,0
456,164,38934,1,8
456,164,39106,1,8
456,164,39277,1,0
484,176,39449,1,0
456,164,39620,1,8
452,192,39963,1,0
452,192,40049,1,0
452,192,40134,1,0
456,164,40306,1,8
456,164,40477,1,0
456,164,40649,1,0
456,164,40820,1,8
456,164,40992,1,8
328,136,41334,1,0
376,140,41506,1,0
492,160,41677,1,8
456,164,41849,1,0
456,164,42020,1,0
456,164,42192,1,0
416,200,42363,1,8
400,248,42706,1,0
400,248,42792,1,0
400,248,42877,1,0
400,248,43049,1,0
364,292,43220,1,0
428,300,43392,1,0
428,300,43563,1,0
428,300,43734,1,0
408,168,44077,5,8
408,168,44249,1,8
408,168,44420,1,8
408,168,44592,1,8
408,168,44763,1,8
408,168,44934,1,8
408,168,45106,1,8
408,168,45277,1,8
360,292,46820,1,8
360,292,46992,1,8
360,292,47163,1,8
360,292,47334,1,8
360,292,47506,1,8
360,292,47677,1,8
360,292,47849,1,8
360,292,48020,1,8
388,312,49563,5,8
388,312,49734,1,8
388,312,49906,1,8
388,312,50077,1,8
388,312,50249,1,8
388,312,50420,1,8
388,312,50592,1,8
388,312,50763,1,8
408,192,52306,1,8
408,192,52477,1,8
408,192,52649,1,8
408,192,52820,1,8
408,192,52992,1,8
408,192,53163,1,8
408,192,53334,1,8
408,192,53506,1,8
300,220,55049,5,0
300,220,55392,1,0
300,220,55734,1,0
300,220,56077,1,0
300,220,56420,1,0
300,220,56763,1,0
300,220,57106,1,0
356,248,57449,1,0
388,244,57792,1,0
388,244,58134,1,0
264,172,58477,1,0
264,172,58820,1,0
264,172,59163,1,0
264,172,59506,1,0
264,172,59849,1,0
264,172,60192,1,0
392,280,60534,5,0
392,280,60706,1,0
392,280,60877,1,0
392,280,61049,1,0
392,280,61220,1,0
392,280,61392,1,0
392,280,61563,1,0
392,280,61734,1,0
392,280,61906,1,0
392,280,62077,1,0
392,280,62249,1,0
392,280,62420,1,0
392,280,62592,1,0
295,356,62677,1,0
392,280,62763,1,0
392,280,62934,1,0
295,356,63020,1,0
392,280,63106,1,0
372,208,63277,2,0,B|72:224|72:224|252:144,1,490
440,168,64649,1,8
384,172,64992,1,8
384,172,65334,1,8
384,172,65506,1,8
384,172,65677,1,8
208,252,66020,5,0
208,252,66106,1,0
208,252,66192,1,0
208,252,66363,1,0
208,252,66534,1,0
208,252,66706,1,0
208,252,66877,1,0
208,252,67049,1,0
416,192,67392,1,8
416,192,67563,1,8
416,192,67734,1,8
416,192,67906,1,8
416,192,68077,1,8
416,192,68249,1,8
416,192,68420,1,8
356,216,68763,1,0
356,216,68849,1,0
356,216,68934,1,0
356,216,69106,1,0
356,216,69277,1,0
388,192,69449,1,8
388,192,69620,1,8
396,240,69792,1,0
352,176,70134,1,8
352,176,70306,1,8
352,176,70820,1,8
352,176,70992,1,8
352,176,71163,1,8
352,176,71334,1,8
240,272,71506,5,0
240,272,71592,1,0
240,272,71677,1,0
240,272,71849,1,0
240,272,72020,1,0
240,272,72192,1,0
240,272,72363,1,0
240,272,72534,1,0
316,184,72877,1,8
316,184,73049,1,8
356,212,73220,1,8
356,212,73392,1,8
356,212,73563,1,8
356,212,73734,1,8
356,212,73906,1,8
424,232,74249,1,0
424,232,74334,1,0
424,232,74420,1,0
424,232,74592,1,0
424,232,74763,1,0
432,168,74934,1,8
432,168,75106,1,8
424,232,75277,1,0
388,200,75620,1,8
388,200,75792,1,8
320,216,76306,1,8
320,216,76477,1,8
320,216,76649,1,8
320,216,76820,1,8
152,228,76992,5,0
152,228,77077,1,0
152,228,77163,1,0
152,228,77334,1,0
152,228,77506,1,0
152,228,77677,1,0
152,228,77763,1,0
152,228,77849,1,0
152,228,78020,1,0
444,216,78363,1,8
444,216,78534,1,8
444,216,78706,1,8
444,216,78877,1,8
444,216,79049,1,8
444,216,79220,1,8
444,216,79392,1,8
364,176,79734,1,0
364,176,79820,1,0
364,176,79906,1,0
364,176,80077,1,0
364,176,80249,1,0
404,160,80420,1,8
404,160,80592,1,8
404,200,80763,1,0
448,188,81106,1,8
448,188,81277,1,8
192,188,81620,1,0
448,188,81792,1,8
448,188,81963,1,8
448,188,82134,1,8
448,188,82306,1,8
368,124,82477,5,0
368,124,82563,1,0
368,124,82649,1,0
368,124,82820,1,0
368,124,82992,1,0
368,124,83163,1,0
368,124,83249,1,0
368,124,83334,1,0
368,124,83506,1,0
424,168,83849,1,8
424,168,84020,1,8
424,168,84192,1,8
424,168,84363,1,8
424,168,84534,1,8
424,168,84706,1,8
424,168,84877,1,8
376,200,85220,1,0
376,200,85306,1,0
376,200,85392,1,0
376,200,85563,1,0
376,200,85734,1,0
452,184,85906,1,8
424,168,86077,1,8
396,224,86249,1,0
356,164,86592,1,4
356,164,87106,1,4
368,256,87449,1,0
368,256,87534,1,0
368,256,87620,1,8
216,244,87963,5,0
216,244,88134,1,0
216,244,88306,1,0
216,244,88477,1,0
216,244,88649,1,0
216,244,88820,1,0
216,244,88992,1,0
216,244,89163,1,0
424,208,89334,1,8
424,208,89506,1,8
424,208,89677,1,8
424,208,89849,1,8
424,208,90020,1,8
424,208,90192,1,8
424,208,90363,1,8
424,208,90534,1,8
440,152,90706,1,8
440,240,90877,1,0
440,240,91049,1,0
440,240,91220,1,0
460,180,91392,1,8
460,216,91563,1,0
440,240,91734,1,0
440,240,91906,1,0
460,180,92077,1,8
488,192,92249,1,0
460,180,92420,1,0
460,180,92592,1,0
460,180,92763,1,8
460,180,92934,1,0
460,180,93106,1,8
252,240,93449,5,0
252,240,93620,1,0
252,240,93792,1,0
252,240,93963,1,0
460,180,94134,1,8
392,224,94306,1,8
392,224,94477,1,8
392,224,94649,1,8
432,220,94820,1,0
432,220,94992,1,0
376,192,95163,1,8
376,192,95334,1,8
460,180,95506,1,0
460,180,95677,1,0
404,192,95849,1,8
392,224,96020,1,8
424,172,96192,1,0
424,172,96363,1,0
424,172,96534,1,0
424,172,96706,1,0
424,228,96877,1,0
392,224,97049,1,0
392,224,97220,1,0
392,224,97392,1,0
340,224,97563,2,0,B|132:240,1,211
360,308,98249,2,0,B|132:332,1,210
216,244,98934,5,0
216,244,99105,1,0
216,244,99277,1,0
216,244,99448,1,0
216,244,99620,1,0
216,244,99791,1,0
216,244,99963,1,0
216,244,100134,1,0
424,208,100305,1,8
424,208,100477,1,8
424,208,100648,1,8
424,208,100820,1,8
424,208,100991,1,8
424,208,101163,1,8
424,208,101334,1,8
424,208,101505,1,8
440,152,101677,1,0
440,240,101848,1,0
440,240,102020,1,0
440,240,102191,1,0
460,180,102363,1,8
460,216,102534,1,0
440,240,102705,1,0
440,240,102877,1,0
460,180,103048,1,8
488,192,103220,1,0
460,180,103391,1,0
460,180,103563,1,0
460,180,103734,1,8
460,180,103905,1,0
460,180,104077,1,8
252,240,104420,5,0
252,240,104591,1,0
252,240,104763,1,0
252,240,104934,1,0
460,180,105105,1,8
392,224,105277,1,8
392,224,105448,1,8
392,224,105620,1,8
432,220,105791,1,0
432,220,105963,1,0
376,192,106134,1,8
376,192,106305,1,8
460,180,106477,1,0
460,180,106648,1,0
404,192,106820,1,8
392,224,106991,1,8
424,172,107163,1,0
424,172,107334,1,0
424,172,107505,1,0
424,172,107677,1,0
424,228,107848,1,0
392,224,108020,1,0
392,224,108191,1,0
392,224,108363,1,0
296,160,108534,1,8
296,160,108877,1,8
296,160,109220,1,8
296,160,109392,1,8
296,160,109563,1,8
152,228,109906,5,0
152,228,109991,1,0
152,228,110077,1,0
152,228,110248,1,0
152,228,110420,1,0
152,228,110591,1,0
152,228,110677,1,0
152,228,110763,1,0
152,228,110934,1,0
444,216,111277,1,8
444,216,111448,1,8
444,216,111620,1,8
444,216,111791,1,8
444,216,111963,1,8
444,216,112134,1,8
444,216,112306,1,8
364,176,112648,1,0
364,176,112734,1,0
364,176,112820,1,0
364,176,112991,1,0
364,176,113163,1,0
404,160,113334,1,8
404,160,113506,1,8
404,200,113677,1,0
448,188,114020,1,8
448,188,114191,1,8
192,188,114534,1,0
448,188,114706,1,8
448,188,114877,1,8
448,188,115048,1,8
448,188,115220,1,8
368,124,115391,5,0
368,124,115477,1,0
368,124,115563,1,0
368,124,115734,1,0
368,124,115906,1,0
368,124,116077,1,0
368,124,116163,1,0
368,124,116248,1,0
368,124,116420,1,0
424,168,116763,1,8
424,168,116934,1,8
424,168,117106,1,8
424,168,117277,1,8
424,168,117448,1,8
424,168,117620,1,8
424,168,117791,1,8
376,200,118134,1,0
376,200,118220,1,0
376,200,118306,1,0
376,200,118477,1,0
376,200,118648,1,0
452,184,118820,1,8
424,168,118991,1,8
396,224,119163,1,0
424,168,119506,1,8
424,168,119677,1,8
424,168,120020,1,0
380,172,120192,1,8
380,172,120363,1,8
380,172,120534,1,8
380,172,120706,1,8
440,256,120877,5,0
440,256,120963,1,0
440,256,121049,1,0
440,256,121220,1,0
440,256,121392,1,0
440,256,121563,1,0
440,256,121649,1,0
440,256,121734,1,0
440,256,121906,1,0
424,192,122249,1,8
424,192,122334,1,8
424,192,122420,1,8
424,192,122592,1,8
424,192,122763,1,8
424,192,122934,1,8
424,192,123106,1,8
424,192,123277,1,8
412,256,123620,1,0
412,256,123706,1,0
412,256,123792,1,0
412,256,123963,1,0
412,256,124134,1,0
400,212,124306,1,8
400,212,124392,1,8
400,212,124477,1,8
424,192,124649,1,0
424,192,124992,1,8
424,192,125163,1,8
424,192,125506,1,0
400,212,125677,1,8
400,212,125849,1,8
400,212,126020,1,8
424,192,126192,1,8
440,256,126363,5,0
440,256,126449,1,0
440,256,126535,1,0
440,256,126706,1,0
440,256,126878,1,0
440,256,127049,1,0
440,256,127135,1,0
440,256,127220,1,0
440,256,127392,1,0
424,192,127735,1,8
424,192,127820,1,8
424,192,127906,1,8
424,192,128078,1,8
424,192,128249,1,8
424,192,128420,1,8
424,192,128592,1,8
424,192,128763,1,8
412,256,129106,1,0
412,256,129192,1,0
412,256,129278,1,0
412,256,129449,1,0
412,256,129620,1,0
400,212,129792,1,8
400,212,129878,1,8
400,212,129963,1,8
424,192,130135,1,0
252,232,131849,5,0
252,232,132020,1,0
252,232,132192,1,0
252,232,132363,1,0
380,288,132534,1,0
380,288,132706,1,0
352,260,132877,1,8
380,288,133220,1,0
380,288,133392,1,0
380,288,133563,1,0
352,260,133906,1,0
432,208,134249,1,8
264,172,134592,1,0
440,180,134763,1,8
468,192,134934,1,0
468,192,135106,1,8
432,208,135277,1,0
432,208,135620,1,8
432,208,135963,1,0
424,240,136134,1,0
404,260,136306,1,0
288,252,136649,1,0
288,252,136820,1,0
432,208,136992,1,8
432,208,137163,1,8
432,208,137334,5,8
384,168,137677,1,0
432,168,138020,1,0
432,168,138192,1,0
356,252,138363,1,0
356,252,138534,1,0
432,243,138706,1,8
373,292,139049,1,0
416,216,139392,1,8
416,216,139563,1,8
416,216,139734,1,8
456,142,140077,2,0,B|186:292|186:292|146:97|146:97|363:88|363:88|180:310,1,980
375,318,142820,5,0
404,163,143506,1,8
404,163,143677,1,8
404,163,143849,1,8
404,163,144020,1,8
408,306,144192,1,0
408,306,144363,1,0
344,331,144534,1,0
392,231,144877,1,0
411,195,145220,1,8
464,180,145563,1,0
352,280,145906,1,0
352,280,146077,1,0
416,221,146249,1,8
390,241,146592,1,8
390,241,146763,1,8
387,324,147106,1,8
387,324,147449,1,8
454,228,147620,1,0
419,213,147963,1,8
390,241,148134,1,0
234,230,148306,5,0
234,230,148477,1,0
419,213,148992,1,8
390,241,149163,1,8
429,188,149334,1,0
419,213,149506,1,0
421,240,149677,1,8
212,255,150020,1,0
316,301,150192,1,0
380,349,150363,1,0
390,241,150706,1,8
333,169,151049,2,0,B|166:324|166:324|112:137,1,420
401,250,152420,1,8
401,250,152763,1,8
401,250,152934,1,8
401,250,153106,1,8
392,206,153449,1,4
292,244,153792,5,0
292,244,153963,1,0
292,244,154135,1,0
292,244,154306,1,0
392,192,154478,1,8
412,248,154649,1,0
372,320,154992,1,0
372,320,155163,1,0
372,320,155335,1,0
372,320,155506,1,0
392,192,155849,1,8
472,188,156021,1,0
472,188,156192,1,8
332,240,156535,1,0
332,240,156706,1,0
332,240,156878,1,0
332,240,157049,1,0
432,180,157221,1,8
432,180,157392,1,0
368,324,157735,1,0
368,324,157906,1,0
368,324,158078,1,0
368,324,158249,1,0
468,192,158592,1,8
468,192,158763,1,0
468,192,158935,1,8
432,224,159106,1,0
296,180,159278,5,0
324,176,159449,1,0
352,188,159621,1,0
352,188,159792,1,0
424,184,159963,1,8
432,224,160135,1,0
372,272,160478,1,0
372,272,160649,1,0
372,272,160821,1,0
372,272,160992,1,0
424,184,161335,1,8
472,192,161506,1,0
432,224,161678,1,8
432,224,162021,2,0,B|104:200|104:200|368:80|368:80|296:280|296:280|232:144,1,980
333,313,164763,5,4
333,313,164934,1,0
333,313,165106,1,0
333,313,165277,1,0
416,217,165449,1,8
362,278,165792,1,0
355,345,166306,1,0
428,188,166820,1,8
384,235,167163,1,4
364,260,167506,1,4
383,300,167677,1,0
383,300,167849,1,0
364,260,168020,1,0
431,219,168192,1,8
216,193,168534,1,0
364,260,169049,1,0
364,260,169220,1,0
431,219,169563,1,8
407,197,169734,1,8
364,260,169906,1,8
391,117,170249,5,4
403,343,170420,1,0
403,343,170592,1,0
328,305,170763,1,0
431,219,170934,1,8
275,272,171277,1,0
355,231,171792,1,0
431,219,172306,1,8
370,182,172649,1,4
497,132,172992,2,0,B|104:328,1,420
384,192,174363,1,8
384,192,174706,1,8
384,192,174877,1,8
388,240,175049,1,0
222,308,175392,1,0
222,308,175477,1,0
222,308,175563,1,0
222,308,175649,1,0
330,290,175734,5,0
224,214,176249,1,0
263,216,176592,1,0
263,216,176934,1,0
454,196,177106,1,8
454,196,177277,1,8
454,196,177449,1,8
454,196,177620,1,8
454,196,177792,1,8
454,196,177963,1,8
454,196,178306,1,8
454,196,178477,1,0
315,211,178992,1,0
315,211,179334,1,0
315,211,179677,1,0
454,196,179849,1,8
454,196,180020,1,8
454,196,180192,1,8
454,196,180363,1,8
454,196,180534,1,8
454,196,180706,1,8
454,196,181049,1,8
397,113,181220,5,0
454,196,181563,1,8
359,213,181734,1,8
454,196,181906,1,0
408,205,182249,1,8
359,213,182420,1,8
397,242,182592,1,0
454,196,182934,1,8
454,196,183106,1,8
408,205,183277,1,0
408,205,183620,1,8
375,262,183963,1,0
326,320,184134,1,0
326,320,184306,1,0
326,320,184477,1,0
326,320,184649,1,0
326,320,184820,1,0
326,320,184992,1,0
326,320,185163,1,0
387,208,185334,2,0,B|151:292|151:292|311:83,1,490
124,125,186706,5,0
354,275,187220,1,0
354,275,187563,1,0
354,275,187906,1,0
436,199,188077,1,8
436,199,188592,1,8
436,199,188934,1,8
436,199,189277,1,8
436,199,189449,1,0
428,224,189963,1,0
428,224,190306,1,0
226,159,190649,1,0
287,227,190820,1,8
360,252,191334,1,8
428,224,191849,1,0
426,189,192192,1,0
426,189,192534,1,8
426,189,192877,1,0
426,189,193220,1,8
426,189,193563,1,0
426,189,193906,1,8
426,189,194249,1,0
426,189,194592,1,8
256,234,194934,1,0
256,234,195106,1,0
256,234,195277,1,0
256,234,195449,1,0
256,234,195620,1,0
256,234,195792,1,0
256,234,195963,1,0
275,67,196306,5,4
382,280,196820,1,4
452,152,197163,1,0
452,152,197249,1,0
415,231,197334,1,8
381,90,197677,2,4,B|179:251,1,245
