osu file format v10

[General]
AudioFilename: Kyoto feat. Sirah (Original Mix).mp3
AudioLeadIn: 2000
PreviewTime: 64756
Countdown: 0
SampleSet: Normal
StackLeniency: 0.7
Mode: 0
LetterboxInBreaks: 1

[Editor]
Bookmarks: 11163,22241,33106,44184,55156,66020,76992,87963,98934,109906,120877,131956,142820,153899,164763,175841,197784
DistanceSpacing: 1.4
BeatDivisor: 4
GridSize: 4

[Metadata]
Title:Kyoto (feat. Sirah)
TitleUnicode:Kyoto (feat. Sirah)
Artist:Skrillex
ArtistUnicode:Skrillex
Creator:Frozen Child
Version:Vass-RJ
Source:
Tags:La Cataline Vass_Bass Reiji-RJ Lepidopodus Dubstep
BeatmapID:172143
BeatmapSetID:55226

[Difficulty]
HPDrainRate:5
CircleSize:4
OverallDifficulty:6
ApproachRate:8
SliderMultiplier:2.6
SliderTickRate:1

[Events]
//Background and Video events
0,0,"1304278294440.jpg"
//Break Periods
2,44277,54299
2,64849,65270
2,108734,109156
2,130677,131099
2,152620,153042
//Storyboard Layer 0 (Background)
//Storyboard Layer 1 (Fail)
//Storyboard Layer 2 (Pass)
//Storyboard Layer 3 (Foreground)
//Storyboard Sound Samples
//Background Colour Transformations
3,100,163,162,255

[TimingPoints]
192,685.714285714286,4,1,1,55,1,0
534,-100,4,2,1,55,0,0
1220,-100,4,1,1,55,0,0
1906,-100,4,2,1,55,0,0
2506,-100,4,1,1,55,0,0
3020,-100,4,2,1,55,0,0
3963,-100,4,1,1,55,0,0
4049,-100,4,2,1,55,0,0
4477,-100,4,1,1,55,0,0
4820,-100,4,2,1,55,0,0
5420,-100,4,1,1,55,0,0
6020,-100,4,2,1,55,0,0
6706,-100,4,1,1,55,0,0
6792,-100,4,2,1,55,0,0
7220,-100,4,1,1,55,0,0
7306,-100,4,2,1,55,0,0
8077,-100,4,1,1,55,0,0
8163,-100,4,2,1,55,0,0
8334,-100,4,1,1,55,0,0
8506,-100,4,2,1,55,0,0
8934,-100,4,1,1,55,0,0
9020,-100,4,2,1,55,0,0
9449,-100,4,1,1,55,0,0
9620,-100,4,2,1,55,0,0
9706,-100,4,1,1,55,0,0
10220,-100,4,2,1,55,0,0
10477,-100,4,1,1,55,0,0
10563,-100,4,2,1,55,0,0
10906,-100,4,1,1,55,0,0
11506,-100,4,2,1,55,0,0
12106,-100,4,1,1,55,0,0
12363,-100,4,2,1,55,0,0
12620,-100,4,1,1,55,0,0
12792,-100,4,2,1,55,0,0
13477,-100,4,1,1,55,0,0
13992,-100,4,2,1,55,0,0
14934,-100,4,1,1,55,0,0
15020,-100,4,2,1,55,0,0
15449,-100,4,1,1,55,0,0
15792,-100,4,2,1,55,0,0
16392,-100,4,1,1,55,0,0
16992,-100,4,2,1,55,0,0
17592,-100,4,1,1,55,0,0
17763,-100,4,2,1,55,0,0
18192,-100,4,1,1,55,0,0
18277,-100,4,2,1,55,0,0
18963,-100,4,1,1,55,0,0
19477,-100,4,2,1,55,0,0
19906,-100,4,1,1,55,0,0
20163,-100,4,2,1,55,0,0
20420,-100,4,1,1,55,0,0
20592,-100,4,2,1,55,0,0
20677,-100,4,1,1,55,0,0
21192,-100,4,2,1,55,0,0
21449,-100,4,1,1,55,0,0
21792,-100,4,2,1,55,0,0
21877,-100,4,1,1,55,0,0
22049,-100,4,1,1,65,0,0
22477,-100,4,2,1,65,0,0
22820,-100,4,1,1,65,0,0
22906,-100,4,2,1,65,0,0
23592,-100,4,1,1,65,0,0
23763,-100,4,2,1,65,0,0
24106,-100,4,1,1,65,0,0
24277,-100,4,2,1,65,0,0
24620,-100,4,1,1,65,0,0
25220,-100,4,2,1,65,0,0
25477,-100,4,1,1,65,0,0
25734,-100,4,2,1,65,0,0
25820,-100,4,1,1,65,0,0
25992,-100,4,2,1,65,0,0
26420,-100,4,1,1,65,0,0
26506,-100,4,2,1,65,0,0
26849,-100,4,1,1,65,0,0
27020,-100,4,2,1,65,0,0
27363,-100,4,1,1,65,0,0
27963,-100,4,2,1,65,0,0
28220,-100,4,1,1,65,0,0
28477,-100,4,2,1,65,0,0
28563,-100,4,1,1,65,0,0
28734,-100,4,2,1,65,0,0
29163,-100,4,1,1,65,0,0
29249,-100,4,2,1,65,0,0
29592,-100,4,1,1,65,0,0
29763,-100,4,2,1,65,0,0
30106,-100,4,1,1,65,0,0
30706,-100,4,2,1,65,0,0
30792,-100,4,1,1,65,0,0
31049,-100,4,2,1,65,0,0
31392,-100,4,1,1,65,0,0
31477,-100,4,2,1,65,0,0
31734,-100,4,1,1,65,0,0
32249,-100,4,2,1,65,0,0
32334,-100,4,1,1,65,0,0
32677,-100,4,2,1,65,0,0
32849,-100,4,1,1,65,0,0
33449,-100,4,2,1,65,0,0
34049,-100,4,1,1,65,0,0
34220,-100,4,2,1,65,0,0
34649,-100,4,1,1,65,0,0
34734,-100,4,2,1,65,0,0
35077,-100,4,1,1,65,0,0
35249,-100,4,2,1,65,0,0
35592,-100,4,1,1,65,0,0
36192,-100,4,2,1,65,0,0
36534,-100,4,1,1,65,0,0
36620,-100,4,2,1,65,0,0
37306,-100,4,1,1,65,0,0
37477,-100,4,2,1,65,0,0
37906,-100,4,1,1,65,0,0
37992,-100,4,2,1,65,0,0
38163,-100,4,2,1,65,0,0
38334,-100,4,1,1,65,0,0
38934,-100,4,2,1,65,0,0
39192,-100,4,1,1,65,0,0
39449,-100,4,2,1,65,0,0
39534,-100,4,1,1,65,0,0
39706,-100,4,2,1,65,0,0
40134,-100,4,1,1,65,0,0
40220,-100,4,2,1,65,0,0
40563,-100,4,1,1,65,0,0
40734,-100,4,2,1,65,0,0
41163,-100,4,1,1,65,0,0
41677,-100,4,2,1,65,0,0
41763,-100,4,1,1,65,0,0
42192,-100,4,2,1,65,0,0
42706,-100,4,1,1,75,0,0
43220,-100,4,2,1,75,0,0
43306,-100,4,1,1,75,0,0
43477,-100,4,2,1,75,0,0
43820,-100,4,1,1,75,0,0
55220,-100,4,2,1,75,0,0
55306,-100,4,1,1,75,0,0
55563,-100,4,2,1,75,0,0
55649,-100,4,1,1,75,0,0
55906,-100,4,2,1,75,0,0
55992,-100,4,1,1,75,0,0
56249,-100,4,2,1,75,0,0
56334,-100,4,1,1,75,0,0
57192,-100,4,2,1,65,0,0
57363,-100,4,1,1,75,0,0
57534,-100,4,2,1,65,0,0
57706,-100,4,1,1,75,0,0
57963,-100,4,2,1,75,0,0
58049,-100,4,1,1,75,0,0
58306,-100,4,2,1,75,0,0
58392,-100,4,1,1,75,0,0
58649,-100,4,2,1,75,0,0
58734,-100,4,1,1,75,0,0
58992,-100,4,2,1,75,0,0
59077,-100,4,1,1,75,0,0
59934,-100,4,2,1,65,0,0
60106,-100,4,1,1,75,0,0
60277,-100,4,2,1,65,0,0
60449,-100,4,1,1,75,0,0
63277,-100,4,1,1,85,0,0
66020,-66.6666666666667,4,1,1,75,0,1
67306,-100,4,1,1,75,0,0
68763,-66.6666666666667,4,1,1,75,0,1
70048,-100,4,1,1,75,0,0
71506,-66.6666666666667,4,1,1,75,0,1
72706,-100,4,1,1,75,0,0
74249,-66.6666666666667,4,1,1,75,0,1
75449,-100,4,1,1,75,0,0
76992,-66.6666666666667,4,1,1,75,0,1
78192,-100,4,1,1,75,0,0
79734,-66.6666666666667,4,1,1,75,0,1
80934,-100,4,1,1,75,0,0
82477,-66.6666666666667,4,1,1,75,0,1
83677,-100,4,1,1,75,0,0
85220,-66.6666666666667,4,1,1,75,0,1
86420,-100,4,1,1,75,0,0
88134,-100,4,2,1,55,0,0
88563,-100,4,1,1,55,0,0
88992,-100,4,2,1,55,0,0
89249,-100,4,1,1,55,0,0
89506,-100,4,2,1,55,0,0
89934,-100,4,1,1,55,0,0
90363,-100,4,2,1,55,0,0
90620,-100,4,1,1,55,0,0
90877,-100,4,2,1,55,0,0
91392,-100,4,1,1,55,0,0
91734,-100,4,2,1,55,0,0
91992,-100,4,1,1,55,0,0
92249,-100,4,2,1,55,0,0
92677,-100,4,1,1,55,0,0
92934,-100,4,2,1,55,0,0
93363,-100,4,1,1,55,0,0
93620,-100,4,2,1,55,0,0
94134,-100,4,1,1,55,0,0
94306,-100,4,2,1,55,0,0
94820,-100,4,1,1,55,0,0
94992,-100,4,2,1,55,0,0
95506,-100,4,1,1,55,0,0
95677,-100,4,2,1,55,0,0
96192,-100,4,1,1,55,0,0
96277,-100,4,2,1,55,0,0
96792,-100,4,1,1,55,0,0
96963,-100,4,2,1,55,0,0
97477,-100,4,1,1,55,0,0
97649,-100,4,2,1,55,0,0
98249,-100,4,1,1,55,0,0
98334,-100,4,2,1,55,0,0
98934,-100,4,1,1,55,0,0
99106,-100,4,2,1,55,0,0
99534,-100,4,1,1,55,0,0
99706,-100,4,2,1,55,0,0
100220,-100,4,1,1,55,0,0
100477,-100,4,2,1,55,0,0
100906,-100,4,1,1,55,0,0
101334,-100,4,2,1,55,0,0
101592,-100,4,1,1,55,0,0
101849,-100,4,2,1,55,0,0
102363,-100,4,1,1,55,0,0
102706,-100,4,2,1,55,0,0
102963,-100,4,1,1,55,0,0
103220,-100,4,2,1,55,0,0
103649,-100,4,1,1,55,0,0
103906,-100,4,2,1,55,0,0
104334,-100,4,1,1,55,0,0
104592,-100,4,2,1,55,0,0
105106,-100,4,1,1,55,0,0
105277,-100,4,2,1,55,0,0
105792,-100,4,1,1,55,0,0
105963,-100,4,2,1,55,0,0
106477,-100,4,1,1,55,0,0
106649,-100,4,2,1,55,0,0
107163,-100,4,1,1,55,0,0
107249,-100,4,2,1,55,0,0
107763,-100,4,1,1,55,0,0
107934,-100,4,2,1,55,0,0
108449,-100,4,1,1,55,0,0
109906,-66.6666666666667,4,1,1,75,0,1
111277,-100,4,1,1,75,0,0
112649,-66.6666666666667,4,1,1,75,0,1
114020,-100,4,1,1,75,0,0
115392,-66.6666666666667,4,1,1,75,0,1
116763,-100,4,1,1,75,0,0
118134,-66.6666666666667,4,1,1,75,0,1
119506,-100,4,1,1,75,0,0
120877,-66.6666666666667,4,1,1,75,0,1
122249,-100,4,1,1,75,0,0
123620,-66.6666666666667,4,1,1,75,0,1
124992,-100,4,1,1,75,0,0
126363,-66.6666666666667,4,1,1,75,0,1
127734,-100,4,1,1,75,0,0
129106,-66.6666666666667,4,1,1,75,0,1
130477,-66.6666666666667,4,1,1,75,0,0
131763,-100,4,1,1,55,0,0
131935,-100,4,1,1,40,0,0
132192,-100,4,2,1,75,0,0
132792,-100,4,1,1,75,0,0
133049,-100,4,2,1,75,0,0
133306,-100,4,1,1,75,0,0
133734,-100,4,2,1,75,0,0
134163,-100,4,1,1,75,0,0
134763,-100,4,2,1,75,0,0
135620,-100,4,1,1,75,0,0
135706,-100,4,2,1,75,0,0
136049,-100,4,1,1,75,0,0
136392,-100,4,2,1,75,0,0
137077,-100,4,1,1,75,0,0
137592,-100,4,2,1,75,0,0
138277,-100,4,1,1,75,0,0
138534,-100,4,2,1,75,0,0
138877,-100,4,1,1,75,0,0
138963,-100,4,2,1,75,0,0
139649,-100,4,1,1,75,0,0
139906,-100,4,2,1,75,0,0
140077,-100,4,1,1,75,0,0
140163,-100,4,2,1,75,0,0
140506,-100,4,1,1,75,0,0
140849,-100,4,2,1,75,0,0
141106,-100,4,1,1,75,0,0
141277,-100,4,2,1,75,0,0
141363,-100,4,1,1,75,0,0
141877,-100,4,2,1,75,0,0
142134,-100,4,1,1,75,0,0
142306,-100,4,2,1,75,0,0
142563,-100,4,1,1,75,0,0
142992,-100,4,2,1,75,0,0
143849,-100,4,1,1,75,0,0
143934,-100,4,2,1,75,0,0
144277,-100,4,1,1,75,0,0
144449,-100,4,2,1,75,0,0
145134,-100,4,1,1,75,0,0
145392,-100,4,2,1,75,0,0
145477,-100,4,1,1,75,0,0
145820,-100,4,2,1,75,0,0
146506,-100,4,1,1,75,0,0
146677,-100,4,2,1,75,0,0
147020,-100,4,1,1,75,0,0
147277,-100,4,2,1,75,0,0
148049,-100,4,1,1,75,0,0
148477,-100,4,2,1,75,0,0
149249,-100,4,1,1,75,0,0
149420,-100,4,2,1,75,0,0
149849,-100,4,1,1,75,0,0
149934,-100,4,2,1,75,0,0
150620,-100,4,1,1,75,0,0
150792,-100,4,2,1,75,0,0
150963,-100,4,1,1,75,0,0
151134,-100,4,2,1,75,0,0
151477,-100,4,1,1,75,0,0
151820,-100,4,2,1,75,0,0
152077,-100,4,1,1,75,0,0
152163,-100,4,2,1,75,0,0
153706,-100,4,1,1,75,0,0
154134,-100,4,2,1,55,0,0
154734,-100,4,1,1,55,0,0
154906,-100,4,2,1,55,0,0
155249,-100,4,1,1,45,0,0
155420,-100,4,2,1,55,0,0
156192,-100,4,1,1,55,0,0
156277,-100,4,2,1,55,0,0
156449,-100,4,1,1,55,0,0
156877,-100,4,2,1,55,0,0
157477,-100,4,1,1,55,0,0
157649,-100,4,2,1,55,0,0
158077,-100,4,1,1,55,0,0
158420,-100,4,2,1,55,0,0
159020,-100,4,1,1,55,0,0
159620,-100,4,2,1,55,0,0
160306,-100,4,1,1,55,0,0
160392,-100,4,2,1,55,0,0
160820,-100,4,1,1,55,0,0
160906,-100,4,2,1,55,0,0
161592,-100,4,1,1,55,0,0
161763,-100,4,2,1,55,0,0
161934,-100,4,1,1,55,0,0
162106,-100,4,2,1,55,0,0
162534,-100,4,1,1,55,0,0
162792,-100,4,2,1,55,0,0
163049,-100,4,1,1,55,0,0
163220,-100,4,2,1,55,0,0
163306,-100,4,1,1,55,0,0
163820,-100,4,2,1,55,0,0
164077,-100,4,1,1,55,0,0
164163,-100,4,2,1,55,0,0
164592,-100,4,1,1,55,0,0
164934,-100,4,2,1,55,0,0
165363,-100,4,1,1,55,0,0
165877,-100,4,2,1,55,0,0
166220,-100,4,1,1,55,0,0
166392,-100,4,2,1,55,0,0
166734,-100,4,1,1,55,0,0
166906,-100,4,2,1,55,0,0
167420,-100,4,1,1,55,0,0
167849,-100,4,2,1,55,0,0
168106,-100,4,1,1,55,0,0
168620,-100,4,2,1,55,0,0
169049,-100,4,1,1,55,0,0
169306,-100,4,2,1,55,0,0
169477,-100,4,1,1,55,0,0
169906,-100,4,2,1,55,0,0
169992,-100,4,1,1,55,0,0
170592,-100,4,2,1,55,0,0
170677,-100,4,1,1,55,0,0
171020,-100,4,2,1,55,0,0
171192,-100,4,1,1,55,0,0
171363,-100,4,2,1,55,0,0
171792,-100,4,1,1,55,0,0
171877,-100,4,2,1,55,0,0
172220,-100,4,1,1,55,0,0
172392,-100,4,2,1,55,0,0
172563,-100,4,1,1,55,0,0
172734,-100,4,2,1,55,0,0
172906,-100,4,1,1,55,0,0
173077,-100,4,2,1,55,0,0
173506,-100,4,1,1,55,0,0
173763,-100,4,2,1,55,0,0
174020,-100,4,1,1,55,0,0
174192,-100,4,2,1,55,0,0
175734,-100,4,1,1,55,0,0

[Colours]
Combo1 : 255,220,21
Combo2 : 255,139,83
Combo3 : 89,255,89
Combo4 : 252,90,67
Combo5 : 45,251,173

[HitObjects]
64,128,192,2,2,B|192:116,1,130,4|0,0:0|0:0,0:0:0
268,72,706,1,0,0:0:0
340,112,877,2,0,B|332:252,1,130,8|0,0:0|0:0,0:0:0
332,242,1734,1,0,0:0:0
316,324,1906,2,0,B|180:348,1,130,0|8,0:0|0:0,0:0:0
64,232,2592,1,0,0:0:0
64,232,2934,6,2,B|68:156|52:88,1,130,4|0,0:0|0:0,0:0:0
28,20,3449,1,0,0:0:0
108,44,3620,2,0,B|240:36,1,130,8|0,0:0|0:0,0:0:0
238,37,4477,1,0,0:0:0
352,52,4649,2,0,B|420:44,1,65,0|0,0:0|0:0,0:0:0
460,120,4992,2,0,B|395:127,1,65,8|0,0:0|0:0,0:0:0
344,192,5334,1,0,0:0:0
224,340,5677,6,2,B|88:348,1,130,4|0,0:0|0:0,0:0:0
36,200,6192,1,0,0:0:0
92,264,6363,2,0,B|221:256,1,130,8|0,0:0|0:0,0:0:0
221,255,7220,1,0,0:0:0
344,248,7392,2,0,B|362:185,1,65,0|2,0:0|0:0,0:0:0
296,116,7735,2,0,B|277:178,1,65,8|0,0:0|0:0,0:0:0
200,104,8077,6,2,B|56:112,1,130,0|4,0:0|0:0,0:0:0
40,192,8592,1,2,0:0:0
40,192,8677,1,0,0:0:0
40,192,8763,1,0,0:0:0
68,272,8934,1,0,0:0:0
92,352,9106,2,0,B|136:348,4,32.5,0|0|0|2|0,0:0|0:0|0:0|0:0|0:0,0:0:0
216,344,9620,1,0,0:0:0
312,336,9792,22,0,B|352:340|380:340,1,65
424,252,10134,2,0,B|384:248|356:248,1,65,0|2,0:0|0:0,0:0:0
296,188,10477,2,0,B|304:108,1,65,8|0,0:0|0:0,0:0:0
216,56,10820,2,0,B|208:100|208:100|212:144|212:144|204:188,1,130,0|4,0:0|0:0,0:0:0
312,336,11506,6,0,B|376:332,1,65,10|0,0:0|0:0,0:0:0
444,280,11849,2,0,B|468:216|440:152,1,130,8|0,0:0|0:0,0:0:0
308,48,12534,2,0,B|316:120,1,65
240,152,12877,2,0,B|176:180,1,65,0|0,0:0|0:0,0:0:0
200,260,13220,2,0,B|264:232,1,65,8|0,0:0|0:0,0:0:0
112,252,13563,6,2,B|97:381,2,130,0|4|0,0:0|0:0|0:0,0:0:0
200,260,14420,1,0,0:0:0
288,268,14592,1,8,0:0:0
288,268,14934,1,0,0:0:0
288,268,15277,2,0,B|352:256,1,65
436,264,15620,2,0,B|464:196|436:136,1,130,0|8,0:0|0:0,0:0:0
364,44,16134,1,0,0:0:0
272,120,16306,2,0,B|200:132,1,65,4|0,0:0|0:0,0:0:0
164,204,16649,6,2,B|120:200|120:200|80:208|80:208|36:200,2,130,4|0|8,0:0|0:0|0:0,0:0:0
296,312,17677,2,0,B|424:300,1,130
388,224,18192,2,0,B|258:236,1,130
164,204,18706,1,8,0:0:0
164,204,19049,1,0,0:0:0
164,204,19392,21,4,0:0:0
240,124,19563,1,8,0:0:0
256,128,19649,1,2,0:0:0
272,132,19734,1,8,0:0:0
372,156,19906,1,0,0:0:0
464,104,20077,2,0,B|496:80,4,32.5,0|2|2|2|0,0:0|0:0|0:0|0:0|0:0,0:0:0
372,156,20592,1,0,0:0:0
424,256,20763,2,0,B|416:328,1,65
316,272,21106,2,0,B|292:240,3,32.5,0|2|2|2,0:0|0:0|0:0|0:0,0:0:0
316,272,21449,2,0,B|316:348,1,65,8|0,0:0|0:0,0:0:0
196,240,21792,2,0,B|204:312,1,65,4|0,0:0|0:0,0:0:0
80,236,22134,6,2,B|64:96,1,130,4|0,0:0|0:0,0:0:0
144,32,22649,2,0,B|158:161,1,130
196,232,23163,2,0,B|232:248|260:248,1,65,0|2,0:0|0:0,0:0:0
304,112,23506,2,0,B|275:138|264:164,1,65
384,248,23849,2,0,B|357:218|332:207,1,65,0|2,0:0|0:0,0:0:0
412,160,24192,2,0,B|444:100|412:32,1,130,8|4,0:0|0:0,0:0:0
304,112,24706,1,0,0:0:0
256,36,24877,6,2,B|128:40,1,130,4|0,0:0|0:0,0:0:0
24,124,25392,2,0,B|153:119,1,130
212,188,25906,2,0,B|216:228|212:252,1,65,0|2,0:0|0:0,0:0:0
112,328,26249,2,0,B|108:288|112:264,1,65,0|0,0:0|0:0,0:0:0
212,252,26592,1,0,0:0:0
276,340,26763,1,2,0:0:0
380,288,26934,1,0,0:0:0
380,288,27277,5,4,0:0:0
380,288,27449,1,0,0:0:0
380,288,27620,2,2,B|416:224|400:160,1,130,4|0,0:0|0:0,0:0:0
324,72,28134,2,0,B|288:128|304:199,1,130
244,144,28649,2,0,B|172:152,1,65,0|2,0:0|0:0,0:0:0
80,76,28992,2,0,B|144:68,1,65
96,216,29334,2,0,B|88:148,1,65,0|2,0:0|0:0,0:0:0
192,224,29677,2,0,B|212:352,1,130,8|4,0:0|0:0,0:0:0
120,364,30192,1,0,0:0:0
296,352,30363,22,2,B|364:332|440:364,1,130,4|0,0:0|0:0,0:0:0
356,296,30877,2,0,B|340:224|372:160,1,130
432,104,31392,1,0,0:0:0
392,24,31563,1,2,0:0:0
368,168,31734,6,0,B|268:176,1,97.5
256,168,32077,1,0,0:0:0
160,48,32249,1,2,0:0:0
216,120,32420,2,0,B|228:192|208:256,1,130,8|4,0:0|0:0,0:0:0
40,276,32934,1,0,0:0:0
128,344,33106,6,2,B|116:272|136:208,1,130,4|0,0:0|0:0,0:0:0
88,128,33620,2,0,B|216:120,1,130
296,168,34134,1,0,0:0:0
364,104,34306,1,2,0:0:0
420,172,34477,2,0,B|492:180,1,65
440,280,34820,2,0,B|448:320|428:348,1,65,0|2,0:0|0:0,0:0:0
328,304,35163,2,0,B|272:264|204:288,1,130,8|4,0:0|0:0,0:0:0
136,348,35677,1,0,0:0:0
72,284,35849,6,2,B|52:224|60:156,1,130,4|0,0:0|0:0,0:0:0
152,36,36363,1,0,0:0:0
152,36,36534,2,0,B|165:96|157:164,1,130,8|0,0:0|0:0,0:0:0
168,256,37049,1,2,0:0:0
256,236,37220,2,0,B|324:232,1,65
408,212,37563,2,0,B|416:180|416:144,1,65,0|2,0:0|0:0,0:0:0
320,16,37906,2,0,B|296:76|328:144,2,130,8|4|4,0:0|0:0|0:0,0:0:0
472,280,38934,21,0,0:0:0
384,300,39106,2,0,B|256:292,1,130
104,340,39620,2,0,B|176:344,1,65,0|2,0:0|0:0,0:0:0
255,293,39963,2,0,B|247:225,1,65
316,156,40306,2,0,B|380:160,1,65,0|2,0:0|0:0,0:0:0
216,64,40649,2,0,B|345:71,1,130,8|4,0:0|0:0,0:0:0
436,80,41163,1,0,0:0:0
346,72,41334,6,2,B|314:136|344:200,1,130,4|4,0:0|0:0,0:0:0
432,224,41849,1,0,0:0:0
432,224,42020,2,0,B|456:292|420:352,1,130,8|4,0:0|0:0,0:0:0
332,336,42534,1,2,0:0:0
332,336,42706,2,0,B|264:324,1,65
204,228,43049,2,0,B|268:237,1,65,4|2,0:0|0:0,0:0:0
204,136,43392,1,8,0:0:0
116,116,43563,1,0,0:0:0
60,188,43734,1,4,0:0:0
116,260,43906,1,0,0:0:0
204,228,44077,5,4,0:0:0
80,40,55049,6,0,B|72:104,1,65
180,180,55392,2,0,B|172:116,1,65
272,68,55734,2,0,B|264:132,1,65
372,208,56077,2,0,B|364:144,1,65
424,72,56420,1,0,0:0:0
424,72,56763,1,0,0:0:0
424,72,57106,1,0,0:0:0
424,72,57277,1,4,0:0:0
424,72,57449,1,0,0:0:0
436,252,57792,22,0,B|444:320,1,65
340,272,58134,2,0,B|344:196,1,65
248,252,58477,2,0,B|256:320,1,65
156,272,58819,2,0,B|160:196,1,65
96,140,59163,1,0,0:0:0
96,140,59506,1,0,0:0:0
96,140,59849,1,0,0:0:0
96,140,60020,1,4,0:0:0
96,140,60192,1,0,0:0:0
260,60,60534,6,0,B|328:52,1,65
396,148,60877,2,0,B|328:140,1,65
248,224,61220,2,0,B|316:216,1,65
384,312,61563,2,0,B|316:304,1,65
244,316,61906,5,0,0:0:0
172,192,62077,1,0,0:0:0
160,328,62249,1,0,0:0:0
248,224,62420,1,0,0:0:0
116,260,62592,1,0,0:0:0
116,260,62763,1,0,0:0:0
116,260,62934,1,0,0:0:0
116,260,63106,1,0,0:0:0
256,192,63277,12,4,64649,0:0:0
80,108,66020,22,0,B|68:156|68:156|88:204,1,97.50000371933,6|0,0:0|0:0,0:0:0
192,264,66363,2,0,B|204:216|204:216|184:168,1,97.50000371933,2|2,0:0|0:0,0:0:0
260,88,66706,2,2,B|356:100,1,97.50000371933,14|0,0:0|0:0,0:0:0
324,192,67049,2,0,B|420:204,1,97.50000371933,2|2,0:0|0:0,0:0:0
500,252,67392,53,4,0:0:0
420,204,67563,1,0,0:0:0
372,288,67734,1,2,0:0:0
452,336,67906,1,0,0:0:0
280,308,68077,2,0,B|212:320,1,65,12|0,0:0|0:0,0:0:0
132,284,68420,2,0,B|104:236|116:180,1,97.5,2|0,0:0|0:0,0:0:0
128,176,68763,6,0,B|224:184,1,97.50000371933,4|2,0:0|0:0,0:0:0
340,140,69106,2,2,B|364:96|348:44,1,97.50000371933,0|2,0:0|0:0,0:0:0
192,28,69449,1,12,0:0:0
84,132,69620,1,2,0:0:0
84,132,69792,2,0,B|181:140,1,97.50000371933,0|2,0:0|0:0,0:0:0
236,212,70134,5,6,0:0:0
416,268,70306,2,2,B|348:244|292:284,1,130,2|0,0:0|0:0,0:0:0
200,296,70820,2,2,B|136:283,1,65,8|2,0:0|0:0,0:0:0
64,180,71163,2,2,B|127:192,1,65,2|2,0:0|0:0,0:0:0
236,212,71506,54,0,B|256:168|256:168|248:120,1,97.50000371933,4|2,0:0|0:0,0:0:0
352,40,71849,2,2,B|332:84|332:84|340:132,1,97.50000371933,0|2,0:0|0:0,0:0:0
344,236,72192,2,2,B|440:252,1,97.50000371933,10|2,0:0|0:0,0:0:0
328,332,72534,2,2,B|232:316,1,97.50000371933,0|2,0:0|0:0,0:0:0
140,312,72877,22,0,B|124:280|132:248,1,65,4|0,0:0|0:0,0:0:0
56,192,73220,2,0,B|76:168|116:164,1,65,2|0,0:0|0:0,0:0:0
144,72,73563,2,0,B|176:88|188:120,1,65,8|0,0:0|0:0,0:0:0
212,208,73906,1,2,0:0:0
212,208,74249,38,2,B|312:200,1,97.50000371933,4|2,0:0|0:0,0:0:0
163,310,74592,2,2,B|260:300,1,97.50000371933,0|2,0:0|0:0,0:0:0
260,300,74849,1,0,0:0:0
260,300,74934,1,8,0:0:0
364,344,75106,1,2,0:0:0
444,288,75277,2,2,B|464:240|448:192,1,97.50000371933,0|2,0:0|0:0,0:0:0
360,216,75620,37,6,0:0:0
360,216,75792,2,2,B|332:148|368:88,1,130,2|0,0:0|0:0,0:0:0
432,28,76306,2,2,B|504:36,1,65,10|2,0:0|0:0,0:0:0
284,56,76649,2,2,B|219:48,1,65,2|0,0:0|0:0,0:0:0
88,52,76992,22,0,B|76:108|96:152,1,97.50000371933,4|2,0:0|0:0,0:0:0
176,256,77335,2,0,B|196:156,1,97.50000371933,2|2,0:0|0:0,0:0:0
304,88,77678,2,0,B|284:184,1,97.50000371933,14|2,0:0|0:0,0:0:0
372,288,78021,2,0,B|384:232|368:192,1,97.50000371933,2|2,0:0|0:0,0:0:0
428,124,78364,54,0,B|500:116,1,65,0|0,0:0|0:0,0:0:0
304,88,78706,2,0,B|239:80,1,65,2|0,0:0|0:0,0:0:0
248,172,79049,2,0,B|240:244,1,65,12|0,0:0|0:0,0:0:0
148,244,79392,2,0,B|160:148,1,97.5,2|0,0:0|0:0,0:0:0
152,140,79735,6,2,B|164:44,1,97.50000371933,6|2,0:0|0:0,0:0:0
48,152,80078,2,2,B|32:208|52:248,1,97.50000371933,0|2,0:0|0:0,0:0:0
148,344,80421,2,2,B|100:356|100:356|52:344,1,97.50000371933,12|2,0:0|0:0,0:0:0
148,244,80764,2,0,B|196:232|196:232|244:244,1,97.50000371933,2|0,0:0|0:0,0:0:0
296,316,81106,5,0,0:0:0
388,312,81278,2,2,B|412:160,1,130,2|0,0:0|0:0,0:0:0
440,96,81792,2,0,B|512:88,1,65,10|2,0:0|0:0,0:0:0
360,124,82135,2,2,B|295:131,1,65,2|0,0:0|0:0,0:0:0
176,60,82478,54,0,B|272:48,1,97.50000371933,6|2,0:0|0:0,0:0:0
196,160,82821,2,2,B|208:208|208:208|192:256,1,97.50000371933,2|2,0:0|0:0,0:0:0
68,196,83164,2,0,B|56:148|56:148|72:100,1,97.50000371933,14|2,0:0|0:0,0:0:0
193,255,83506,2,0,B|289:267,1,97.50000371933,0|0,0:0|0:0,0:0:0
383,340,83849,22,0,B|380:276,1,65
472,264,84192,2,0,B|468:199,1,65,2|0,0:0|0:0,0:0:0
420,124,84535,2,0,B|456:124|484:116,1,65,8|0,0:0|0:0,0:0:0
340,80,84878,2,0,B|324:136|344:176,1,97.5,2|0,0:0|0:0,0:0:0
336,184,85221,38,0,B|232:192,1,97.50000371933,6|2,0:0|0:0,0:0:0
132,108,85564,2,2,B|229:100,1,97.50000371933,0|2,0:0|0:0,0:0:0
64,208,85906,2,0,B|52:240|52:240|52:268|52:268|40:300,1,97.50000371933,6|0,0:0|0:0,0:0:0
212,284,86249,2,2,B|224:250|224:250|224:222|224:222|236:190,1,97.50000371933,0|2,0:0|0:0,0:0:0
336,184,86592,37,0,0:0:0
464,304,87020,1,0,0:0:0
475,313,87106,2,0,B|487:181,1,130
484,176,87534,1,0,0:0:0
480,168,87620,1,0,0:0:0
452,80,87792,1,0,0:0:0
344,60,87963,6,0,B|284:96|216:68,1,130,4|8,0:0|0:0,0:0:0
116,36,88477,1,8,0:0:0
68,128,88649,2,0,B|80:260,1,130,12|0,0:0|0:0,0:0:0
68,340,89163,1,2,0:0:0
148,312,89334,22,0,B|212:308,1,65,0|2,0:0|0:0,0:0:0
284,212,89677,2,0,B|216:216,1,65,2|2,0:0|0:0,0:0:0
308,300,90020,2,0,B|440:292,1,130,12|2,0:0|0:0,0:0:0
504,344,90534,1,2,0:0:0
476,184,90706,6,0,B|484:112,1,65
468,28,91049,1,4,0:0:0
396,80,91392,1,12,0:0:0
396,80,91734,1,2,0:0:0
396,80,92077,5,0,0:0:0
256,172,92420,1,2,0:0:0
172,160,92592,1,2,0:0:0
156,248,92763,2,0,B|28:236,1,130,0|4,0:0|0:0,0:0:0
240,260,93449,5,0,0:0:0
408,332,93792,2,0,B|432:296|416:232,1,65,4|2,0:0|0:0,0:0:0
364,200,94134,2,0,B|340:236|356:300,1,65,8|2,0:0|0:0,0:0:0
292,336,94477,1,2,0:0:0
184,192,94820,1,0,0:0:0
364,180,95163,2,0,B|396:124|372:52,2,130,2|12|4,0:0|0:0|0:0,0:0:0
240,260,96192,21,8,0:0:0
152,276,96363,1,10,0:0:0
168,364,96534,1,10,0:0:0
256,348,96706,1,8,0:0:0
152,276,96877,5,12,0:0:0
56,260,97049,1,4,0:0:0
76,164,97220,1,2,0:0:0
172,180,97392,1,0,0:0:0
264,112,97563,6,0,B|296:104,7,32.5,0|2|2|2|2|2|2|2,0:0|0:0|0:0|0:0|0:0|0:0|0:0|0:0,0:0:0
188,68,98249,2,0,B|148:56,8,32.5,0|2|0|2|0|2|0|2|4,0:0|0:0|0:0|0:0|0:0|0:0|0:0|0:0|0:0,0:0:0
172,180,99106,5,8,0:0:0
76,200,99277,2,0,B|48:268|76:328,1,130,8|12,0:0|0:0,0:0:0
256,344,99963,2,0,B|328:356,1,65,0|2,0:0|0:0,0:0:0
448,264,100306,2,0,B|383:275,1,65,0|2,0:0|0:0,0:0:0
292,244,100649,2,0,B|268:176|296:112,2,130,0|12|0,0:0|0:0|0:0,0:0:0
372,188,101506,1,0,0:0:0
293,116,101677,22,0,B|299:39,1,65,0|2,0:0|0:0,0:0:0
192,100,102020,2,0,B|176:28,1,65,4|2,0:0|0:0,0:0:0
116,160,102363,2,0,B|148:224|120:292,1,130,12|0,0:0|0:0,0:0:0
16,256,102877,1,2,0:0:0
60,344,103049,2,0,B|124:312|192:348,1,130
292,368,103563,1,2,0:0:0
400,348,103734,2,0,B|448:224,1,130,12|0,0:0|0:0,0:0:0
468,132,104249,1,2,0:0:0
468,132,104420,5,4,0:0:0
332,12,104763,2,0,B|344:104,1,65,4|2,0:0|0:0,0:0:0
264,128,105106,2,0,B|252:36,1,65,8|2,0:0|0:0,0:0:0
164,48,105449,2,0,B|180:156,2,65,2|4|0,0:0|0:0|0:0,0:0:0
72,64,106134,1,2,0:0:0
76,76,106477,1,12,0:0:0
80,88,106820,1,0,0:0:0
60,316,107163,6,0,B|100:316|120:288,1,65,8|8,0:0|0:0,0:0:0
104,136,107506,2,0,B|97:175|121:199,1,65,8|8,0:0|0:0,0:0:0
204,244,107849,2,0,B|276:252,1,65,12|8,0:0|0:0,0:0:0
320,168,108192,2,0,B|248:176,1,65,8|0,0:0|0:0,0:0:0
360,276,108534,5,4,0:0:0
360,276,109906,6,0,B|408:296|460:272,1,97.50000371933,6|2,0:0|0:0,0:0:0
348,172,110249,2,2,B|300:152|252:176,1,97.50000371933,0|2,0:0|0:0,0:0:0
152,224,110592,2,0,B|160:320,1,97.50000371933,14|2,0:0|0:0,0:0:0
52,248,110934,2,0,B|44:148,1,97.50000371933,2|2,0:0|0:0,0:0:0
120,52,111277,6,0,B|192:56,1,65,4|0,0:0|0:0,0:0:0
200,136,111620,2,0,B|264:140,1,65,2|0,0:0|0:0,0:0:0
152,224,111963,2,0,B|216:228,1,65,12|0,0:0|0:0,0:0:0
312,248,112306,2,0,B|332:296|308:348,1,97.5,2|0,0:0|0:0,0:0:0
328,352,112649,54,0,B|428:340,1,97.50000371933,4|2,0:0|0:0,0:0:0
448,232,112992,2,2,B|464:184|464:184|448:140,1,97.50000371933,0|2,0:0|0:0,0:0:0
352,56,113334,2,0,B|336:104|336:104|352:148,1,97.50000371933,14|2,0:0|0:0,0:0:0
312,248,113677,2,0,B|212:260,1,97.50000371933,2|0,0:0|0:0,0:0:0
100,288,114020,21,6,0:0:0
100,288,114192,2,2,B|60:232|84:164,1,130,2|0,0:0|0:0,0:0:0
180,144,114706,1,12,0:0:0
168,48,114877,1,2,0:0:0
72,68,115049,1,2,0:0:0
84,164,115220,1,2,0:0:0
228,180,115392,38,0,B|324:172,1,97.50000371933,4|2,0:0|0:0,0:0:0
440,252,115734,2,2,B|336:264,1,97.50000371933,0|2,0:0|0:0,0:0:0
240,292,116077,1,8,0:0:0
116,248,116249,1,2,0:0:0
156,132,116420,1,2,0:0:0
280,176,116592,1,2,0:0:0
400,140,116763,38,0,B|404:204,1,65,4|0,0:0|0:0,0:0:0
280,176,117106,2,0,B|276:112,1,65,2|0,0:0|0:0,0:0:0
152,68,117449,2,0,B|156:140,1,65,8|0,0:0|0:0,0:0:0
60,216,117792,1,2,0:0:0
60,216,118134,22,2,B|108:196|152:228,1,97.50000371933,4|2,0:0|0:0,0:0:0
224,308,118477,2,2,B|324:296,1,97.50000371933,0|2,0:0|0:0,0:0:0
336,304,118734,1,0,0:0:0
352,312,118820,2,2,B|448:300,1,97.50000371933,10|2,0:0|0:0,0:0:0
436,196,119163,2,2,B|460:152|440:100,1,97.50000371933,0|2,0:0|0:0,0:0:0
348,112,119506,53,6,0:0:0
260,156,119677,2,2,B|128:148,1,130,2|0,0:0|0:0,0:0:0
56,212,120192,2,0,B|64:276,1,65,10|2,0:0|0:0,0:0:0
132,148,120534,2,0,B|124:84,1,65,2|0,0:0|0:0,0:0:0
260,156,120877,6,0,B|256:208|256:208|276:256,1,97.50000371933,6|2,0:0|0:0,0:0:0
348,112,121220,2,2,B|352:60|352:60|332:12,1,97.50000371933
176,40,121563,2,0,B|72:36,1,97.50000371933,14|2,0:0|0:0,0:0:0
36,144,121906,2,2,B|133:147,1,97.50000371933,2|0,0:0|0:0,0:0:0
156,244,122249,6,0,B|148:280|160:312,1,65
264,220,122592,2,0,B|272:184|259:152,1,65,2|0,0:0|0:0,0:0:0
328,84,122934,2,0,B|392:68,1,65,8|0,0:0|0:0,0:0:0
488,12,123277,2,0,B|456:52|464:108,1,97.5,2|0,0:0|0:0,0:0:0
468,112,123620,54,2,B|480:160|480:160|468:212,1,97.50000371933,6|2,0:0|0:0,0:0:0
264,220,123963,2,2,B|300:184|300:184|348:184,1,97.50000371933,0|2,0:0|0:0,0:0:0
444,344,124306,2,2,B|400:329|400:329|380:281,1,97.50000371933,12|2,0:0|0:0,0:0:0
240,340,124649,2,2,B|128:352,1,97.50000371933
20,216,124992,21,0,0:0:0
152,328,125163,2,2,B|176:256|148:200,1,130
20,216,125677,1,8,0:0:0
12,104,125849,1,2,0:0:0
128,80,126020,1,0,0:0:0
148,200,126192,1,2,0:0:0
128,80,126363,38,0,B|176:56|224:72,1,97.50000371933,6|2,0:0|0:0,0:0:0
352,148,126706,2,2,B|304:172|256:156,1,97.50000371933
264,260,127049,2,2,B|284:356,1,97.50000371933,12|2,0:0|0:0,0:0:0
372,244,127392,2,2,B|352:148,1,97.50000371933,0|2,0:0|0:0,0:0:0
404,68,127734,37,0,0:0:0
320,20,127906,1,0,0:0:0
268,100,128077,2,0,B|200:116,1,65,2|0,0:0|0:0,0:0:0
76,44,128420,1,8,0:0:0
164,84,128592,1,0,0:0:0
164,84,128763,2,0,B|176:136|164:180,1,97.5,2|0,0:0|0:0,0:0:0
160,188,129106,22,2,B|112:204|112:204|64:188,1,97.50000371933,6|2,0:0|0:0,0:0:0
164,280,129449,2,2,B|212:264|212:264|259:280,1,97.50000371933,0|2,0:0|0:0,0:0:0
360,360,129792,2,2,B|372:260,1,97.50000371933,12|2,0:0|0:0,0:0:0
496,340,130134,2,2,B|508:240,1,97.50000371933,0|2,0:0|0:0,0:0:0
432,112,130477,53,4,0:0:0
432,112,131849,22,2,B|304:120,1,130,4|0,0:0|0:0,0:0:0
228,160,132363,1,2,0:0:0
228,160,132534,2,0,B|160:148,1,65,8|0,0:0|0:0,0:0:0
88,188,132877,2,0,B|58:250|90:314,1,130
90,313,133392,2,0,B|150:273|222:301,1,130
288,332,133906,2,0,B|352:316,1,65,8|0,0:0|0:0,0:0:0
464,344,134249,1,4,0:0:0
464,344,134592,6,0,B|470:274|476:208,1,130,4|2,0:0|0:0,0:0:0
400,132,135106,1,0,0:0:0
400,132,135277,2,0,B|396:166|392:196,1,65,8|0,0:0|0:0,0:0:0
344,268,135620,2,0,B|276:268|276:268|220:296|220:296|152:296,1,195
76,264,136306,2,0,B|64:232|68:196,1,65
132,144,136649,2,0,B|196:136,1,65,8|0,0:0|0:0,0:0:0
272,96,136992,2,0,B|276:60|264:28,1,65
360,56,137334,6,2,B|423:62|423:62|489:69,1,130,4|0,0:0|0:0,0:0:0
272,96,138020,2,0,B|204:88,1,65,8|0,0:0|0:0,0:0:0
132,144,138363,2,0,B|108:212|140:272,1,130
240,344,138877,2,0,B|264:276|232:216,1,130
316,176,139392,2,0,B|380:183,1,65,8|0,0:0|0:0,0:0:0
456,240,139734,1,4,0:0:0
456,240,140077,5,4,0:0:0
464,156,140249,2,0,B|496:144,2,32.5,2|2|0,0:0|0:0|0:0,0:0:0
360,136,140592,1,0,0:0:0
368,52,140764,2,0,B|400:40,4,32.5,0|2|2|2|0,0:0|0:0|0:0|0:0|0:0,0:0:0
292,84,141277,1,0,0:0:0
200,112,141449,21,0,0:0:0
228,204,141620,1,0,0:0:0
320,176,141792,1,0,0:0:0
292,84,141963,1,0,0:0:0
140,180,142134,2,0,B|68:192,1,65,8|0,0:0|0:0,0:0:0
124,276,142477,2,0,B|136:340,1,65,4|0,0:0|0:0,0:0:0
232,344,142820,6,0,B|292:304|352:348,1,130,4|2,0:0|0:0,0:0:0
480,288,143334,1,0,0:0:0
396,276,143506,2,0,B|408:136,1,130,8|0,0:0|0:0,0:0:0
472,72,144020,1,2,0:0:0
376,56,144192,6,0,B|344:52|316:72,1,65,0|0,0:0|0:0,0:0:0
296,200,144534,2,0,B|293:167|267:144,1,65,0|2,0:0|0:0,0:0:0
216,60,144877,2,0,B|148:32|88:80,1,130,8|4,0:0|0:0,0:0:0
16,16,145392,1,0,0:0:0
156,128,145563,6,2,B|184:200|152:260,1,130,4|2,0:0|0:0,0:0:0
56,260,146077,1,0,0:0:0
116,336,146249,1,8,0:0:0
116,336,146592,1,0,0:0:0
116,336,146763,2,0,B|248:340,1,130,2|0,0:0|0:0,0:0:0
308,288,147277,2,0,B|296:220,1,65,0|2,0:0|0:0,0:0:0
456,360,147620,2,0,B|326:363,1,130,8|2,0:0|0:0,0:0:0
388,228,148134,1,0,0:0:0
308,288,148306,21,4,0:0:0
256,100,148649,2,0,B|168:108,1,65,2|0,0:0|0:0,0:0:0
116,44,148992,2,0,B|164:100|124:168,1,130,8|0,0:0|0:0,0:0:0
36,128,149506,1,2,0:0:0
126,164,149677,2,0,B|204:176,1,65,0|0,0:0|0:0,0:0:0
308,288,150020,2,0,B|230:299,1,65,2|0,0:0|0:0,0:0:0
172,364,150363,2,0,B|124:308|164:240,1,130,8|4,0:0|0:0,0:0:0
252,208,150877,1,2,0:0:0
308,288,151049,5,4,0:0:0
388,236,151220,2,0,B|424:212,2,32.5,2|0|2,0:0|0:0|0:0,0:0:0
252,208,151563,1,0,0:0:0
340,152,151734,2,0,B|320:120,4,32.5,0|2|0|0|0,0:0|0:0|0:0|0:0|0:0,0:0:0
388,236,152249,1,2,0:0:0
388,236,152420,5,4,0:0:0
388,236,153792,6,2,B|424:180|400:112,2,130,4|2|8,0:0|0:0|0:0,0:0:0
256,332,154820,2,0,B|188:336|120:340,1,130
52,248,155334,2,0,B|113:244|181:240,1,130,0|0,0:0|0:0,0:0:0
284,236,155849,1,8,0:0:0
284,236,156192,1,4,0:0:0
284,236,156534,22,2,B|300:96,1,130,4|2,0:0|0:0,0:0:0
312,24,157049,1,0,0:0:0
384,72,157220,2,0,B|448:68,1,65,8|0,0:0|0:0,0:0:0
300,108,157563,2,0,B|170:113,1,130
84,80,158077,1,0,0:0:0
84,80,158249,1,0,0:0:0
64,260,158592,2,0,B|72:328,1,65,8|2,0:0|0:0,0:0:0
136,208,158934,2,0,B|204:204,1,65,4|0,0:0|0:0,0:0:0
288,224,159277,6,2,B|316:288|276:348,2,130,4|2|0,0:0|0:0|0:0,0:0:0
144,108,160306,2,0,B|276:120,1,130
288,224,160820,2,0,B|420:236,1,130,0|0,0:0|0:0,0:0:0
484,300,161334,1,8,0:0:0
484,300,161677,1,4,0:0:0
484,300,162020,5,4,0:0:0
396,320,162192,2,2,B|364:327,2,32.5
276,304,162534,1,0,0:0:0
188,324,162706,2,0,B|156:331,4,32.5,0|2|2|2|0,0:0|0:0|0:0|0:0|0:0,0:0:0
80,292,163220,1,0,0:0:0
144,228,163392,6,0,B|209:216,1,65
184,112,163734,2,0,B|152:100,3,32.5,0|2|2|2,0:0|0:0|0:0|0:0,0:0:0
184,112,164077,2,0,B|248:104,1,65,8|0,0:0|0:0,0:0:0
312,180,164420,1,4,0:0:0
440,76,164592,1,0,0:0:0
312,180,164763,22,0,B|444:164,1,130,4|2,0:0|0:0,0:0:0
440,76,165277,1,0,0:0:0
384,224,165449,2,0,B|424:280|400:352,1,130,8|0,0:0|0:0,0:0:0
204,340,165963,1,0,0:0:0
264,280,166134,2,0,B|300:280|328:300,1,65,0|0,0:0|0:0,0:0:0
204,340,166477,2,0,B|168:340|140:320,1,65,0|2,0:0|0:0,0:0:0
80,256,166820,1,8,0:0:0
60,136,166992,1,0,0:0:0
180,116,167163,1,4,0:0:0
204,232,167334,1,2,0:0:0
180,116,167506,6,0,B|328:88,1,130,4|2,0:0|0:0,0:0:0
456,72,168020,1,0,0:0:0
364,144,168192,2,0,B|328:88|360:20,1,130,8|0,0:0|0:0,0:0:0
456,72,168706,1,0,0:0:0
452,176,168877,2,0,B|424:212|392:224,1,65
244,196,169220,2,0,B|288:196|312:208,1,65,0|2,0:0|0:0,0:0:0
352,348,169563,2,0,B|336:316|344:284,1,65,8|0,0:0|0:0,0:0:0
432,304,169906,1,4,0:0:0
256,296,170077,1,0,0:0:0
108,324,170249,6,0,B|72:268|96:200,2,130,4|2|8,0:0|0:0|0:0,0:0:0
256,296,171106,1,0,0:0:0
184,240,171277,2,0,B|192:168,1,65
276,103,171620,2,0,B|284:168,1,65
375,216,171963,2,0,B|383:144,1,65,0|2,0:0|0:0,0:0:0
468,80,172306,2,0,B|475:144,2,65,8|2|4,0:0|0:0|0:0,0:0:0
388,36,172820,1,0,0:0:0
276,104,172992,5,4,0:0:0
176,28,173163,2,0,B|136:12,2,32.5,2|0|2,0:0|0:0|0:0,0:0:0
276,104,173506,1,0,0:0:0
144,136,173677,2,0,B|148:184,4,32.5,0|2|0|0|0,0:0|0:0|0:0|0:0|0:0,0:0:0
24,56,174192,1,0,0:0:0
24,56,174363,5,4,0:0:0
256,192,174449,12,4,175734,0:0:0
