osu file format v10

[General]
AudioFilename: Kyoto feat. Sirah (Original Mix).mp3
AudioLeadIn: 2000
PreviewTime: 64756
Countdown: 0
SampleSet: Soft
StackLeniency: 0.7
Mode: 0
LetterboxInBreaks: 1

[Editor]
Bookmarks: 22241,44184,55156,66127,109906,131956,153899,175841,197784
DistanceSpacing: 1
BeatDivisor: 4
GridSize: 4

[Metadata]
Title:Kyoto (feat. Sirah)
TitleUnicode:
Artist:Skrillex
ArtistUnicode:
Creator:Frozen Child
Version:Normal
Source:
Tags:La Cataline Vass_Bass Reiji-RJ Lepidopodus Dubstep
BeatmapID:168558
BeatmapSetID:55226

[Difficulty]
HPDrainRate:4
CircleSize:4
OverallDifficulty:4
ApproachRate:5
SliderMultiplier:2
SliderTickRate:1

[Events]
//Background and Video events
0,0,"1304278294440.jpg"
//Break Periods
2,44276,53849
//Storyboard Layer 0 (Background)
//Storyboard Layer 1 (Fail)
//Storyboard Layer 2 (Pass)
//Storyboard Layer 3 (Foreground)
//Storyboard Sound Samples
//Background Colour Transformations
3,100,163,162,255

[TimingPoints]
192,685.714285714286,4,1,1,55,1,0
534,-100,4,2,1,55,0,0
1220,-100,4,1,1,55,0,0
1906,-100,4,2,1,55,0,0
2506,-100,4,1,1,55,0,0
3020,-100,4,2,1,55,0,0
3963,-100,4,1,1,55,0,0
4820,-100,4,2,1,55,0,0
5420,-100,4,1,1,55,0,0
6363,-100,4,2,1,55,0,0
6620,-100,4,1,1,55,0,0
7734,-100,4,2,1,55,0,0
8420,-100,4,1,1,55,0,0
8506,-100,4,2,1,55,0,0
9449,-100,4,1,1,55,0,0
10563,-100,4,2,1,55,0,0
10906,-100,4,1,1,55,0,0
11849,-100,4,2,1,55,0,0
12192,-100,4,1,1,55,0,0
12792,-100,4,2,1,55,0,0
13477,-100,4,1,1,55,0,0
13992,-100,4,2,1,55,0,0
14934,-100,4,1,1,55,0,0
15792,-100,4,2,1,55,0,0
16392,-100,4,1,1,55,0,0
16992,-100,4,2,1,55,0,0
17592,-100,4,1,1,55,0,0
18277,-100,4,2,1,55,0,0
18963,-100,4,1,1,55,0,0
19477,-100,4,2,1,55,0,0
20420,-100,4,1,1,55,0,0
21449,-100,4,2,1,55,0,0
22049,-100,4,1,1,65,0,0
32677,-100,4,2,1,65,0,0
32849,-100,4,1,1,65,0,0
66020,-100,4,1,1,75,0,1
67306,-100,4,1,1,75,0,0
68763,-100,4,1,1,75,0,1
70048,-100,4,1,1,75,0,0
71506,-100,4,1,1,75,0,1
72706,-100,4,1,1,75,0,0
74249,-100,4,1,1,75,0,1
75449,-100,4,1,1,75,0,0
76992,-100,4,1,1,75,0,1
78192,-100,4,1,1,75,0,0
79734,-100,4,1,1,75,0,1
80934,-100,4,1,1,75,0,0
82477,-100,4,1,1,75,0,1
83677,-100,4,1,1,75,0,0
85220,-100,4,1,1,75,0,1
86420,-100,4,1,1,75,0,0
88134,-100,4,2,1,55,0,0
88563,-100,4,1,1,55,0,0
89506,-100,4,2,1,55,0,0
89934,-100,4,1,1,55,0,0
90877,-100,4,2,1,55,0,0
91392,-100,4,1,1,55,0,0
92249,-100,4,2,1,55,0,0
92677,-100,4,1,1,55,0,0
93620,-100,4,2,1,55,0,0
94134,-100,4,1,1,55,0,0
94306,-100,4,2,1,55,0,0
94820,-100,4,1,1,55,0,0
95677,-100,4,2,1,55,0,0
96192,-100,4,1,1,55,0,0
96277,-100,4,2,1,55,0,0
96792,-100,4,1,1,55,0,0
96963,-100,4,2,1,55,0,0
97477,-100,4,1,1,55,0,0
98334,-100,4,2,1,55,0,0
98934,-100,4,1,1,55,0,0
99963,-100,4,2,1,55,0,0
100220,-100,4,1,1,55,0,0
101334,-100,4,2,1,55,0,0
101592,-100,4,1,1,55,0,0
102706,-100,4,2,1,55,0,0
103049,-100,4,1,1,55,0,0
103392,-100,4,2,1,55,0,0
103649,-100,4,1,1,55,0,0
103906,-100,4,2,1,55,0,0
108449,-100,4,1,1,55,0,0
109906,-100,4,1,1,75,0,1
111277,-100,4,1,1,75,0,0
112649,-100,4,1,1,75,0,1
114020,-100,4,1,1,75,0,0
115392,-100,4,1,1,75,0,1
116763,-100,4,1,1,75,0,0
118134,-100,4,1,1,75,0,1
119506,-100,4,1,1,75,0,0
120877,-100,4,1,1,75,0,1
122249,-100,4,1,1,75,0,0
123620,-100,4,1,1,75,0,1
124992,-100,4,1,1,75,0,0
126363,-100,4,1,1,55,0,1
127734,-100,4,1,1,75,0,0
129106,-100,4,1,1,75,0,1
130477,-100,4,1,1,75,0,0
133734,-100,4,2,1,75,0,0
134163,-100,4,1,1,75,0,0
134763,-100,4,2,1,75,0,0
135620,-100,4,1,1,75,0,0
136392,-100,4,2,1,75,0,0
137077,-100,4,1,1,75,0,0
137934,-100,4,2,1,75,0,0
138363,-100,4,1,1,75,0,0
138963,-100,4,2,1,75,0,0
139649,-100,4,1,1,75,0,0
140163,-100,4,2,1,75,0,0
141106,-100,4,1,1,75,0,0
141877,-100,4,2,1,75,0,0
142563,-100,4,1,1,75,0,0
142992,-100,4,2,1,75,0,0
143849,-100,4,1,1,75,0,0
144449,-100,4,2,1,75,0,0
145134,-100,4,1,1,75,0,0
145820,-100,4,2,1,75,0,0
146506,-100,4,1,1,75,0,0
147277,-100,4,2,1,75,0,0
148049,-100,4,1,1,75,0,0
148477,-100,4,2,1,75,0,0
149249,-100,4,1,1,75,0,0
149934,-100,4,2,1,75,0,0
150620,-100,4,1,1,75,0,0
151134,-100,4,2,1,75,0,0
152077,-100,4,1,1,75,0,0
154477,-100,4,2,1,75,0,0
154820,-100,4,1,1,55,0,0
155420,-100,4,2,1,55,0,0
156192,-100,4,1,1,55,0,0
156877,-100,4,2,1,55,0,0
157477,-100,4,1,1,55,0,0
158420,-100,4,2,1,55,0,0
159020,-100,4,1,1,55,0,0
159620,-100,4,2,1,55,0,0
160306,-100,4,1,1,55,0,0
160906,-100,4,2,1,55,0,0
161592,-100,4,1,1,55,0,0
162106,-100,4,2,1,55,0,0
163306,-100,4,1,1,55,0,0
163477,-100,4,2,1,55,0,0
164592,-100,4,1,1,55,0,0
173334,-100,4,2,1,55,0,0
173677,-100,4,1,1,55,0,0
173849,-100,4,2,1,55,0,0
175563,-100,4,1,1,55,0,0

[Colours]
Combo1 : 45,251,173
Combo2 : 255,139,83
Combo3 : 89,255,89
Combo4 : 252,90,67

[HitObjects]
40,128,192,2,0,B|96:136|136:96,1,100,4|0,0:0|0:0,0:0:0
168,64,706,1,2,0:0:0
208,96,877,1,8,0:0:0
284,160,1220,2,0,B|436:160,2,150,0|0|8,0:0|0:0|0:0,0:0:0
244,252,2592,5,0,0:0:0
164,292,2934,2,0,B|108:308|52:292|20:244|36:180,1,200,0|8,0:0|0:0,0:0:0
28,92,3963,1,0,0:0:0
172,56,4477,1,0,0:0:0
172,56,4649,1,0,0:0:0
268,48,4992,1,8,0:0:0
364,40,5334,1,2,0:0:0
456,32,5677,6,0,B|464:136,1,100
472,232,6363,1,8,0:0:0
392,296,6706,2,0,B|240:288,2,150,0|0|8,0:0|0:0|0:0,0:0:0
488,304,8077,1,4,0:0:0
432,224,8420,6,0,B|312:216,1,100,0|2,0:0|0:0,0:0:0
232,208,9106,2,0,B|168:204,2,50
312,144,9792,1,0,0:0:0
396,92,10134,1,2,0:0:0
312,36,10477,1,0,0:0:0
228,88,10820,1,2,0:0:0
204,184,11163,5,0,0:0:0
108,216,11506,1,0,0:0:0
96,316,11849,1,8,0:0:0
188,276,12192,2,0,B|348:276,2,150,0|0|8,0:0|0:0|0:0,0:0:0
148,248,13392,1,4,0:0:0
108,216,13563,6,0,B|136:164|100:100,1,100
52,36,14249,1,0,0:0:0
152,28,14592,1,8,0:0:0
252,24,14934,2,0,B|416:20,2,150,0|0|8,0:0|0:0|0:0,0:0:0
164,72,16306,2,0,B|112:104,2,50,0|4|0,0:0|0:0|0:0,0:0:0
204,164,16992,5,0,0:0:0
256,248,17334,1,8,0:0:0
312,164,17677,1,0,0:0:0
460,192,18192,2,0,B|488:148|480:84|428:48,1,150,0|8,0:0|0:0,0:0:0
340,60,19049,1,0,0:0:0
244,88,19392,6,0,B|124:88,1,100,0|2,0:0|0:0,0:0:0
72,156,20077,2,0,B|56:204,2,50,8|0|0,0:0|0:0|0:0,0:0:0
172,172,20763,2,0,B|220:212,2,50
120,84,21449,1,8,0:0:0
212,48,21792,1,4,0:0:0
316,40,22134,6,0,B|416:44,1,100
456,76,22649,1,0,0:0:0
468,124,22820,2,0,B|472:240,1,100,8|0,0:0|0:0,0:0:0
396,292,23506,2,0,B|344:300,2,50
460,368,24192,2,0,B|516:360,2,50,8|0|0,0:0|0:0|0:0,0:0:0
480,272,24877,6,0,B|488:216|464:152,1,100,4|0,0:0|0:0,0:0:0
424,152,25392,2,0,B|308:140,2,100
464,120,26249,2,0,B|468:68,2,50
484,220,26934,2,0,B|484:272,2,50,8|0|0,0:0|0:0|0:0,0:0:0
388,192,27620,6,0,B|280:160|188:232,1,200,0|8,0:0|0:0,0:0:0
172,320,28649,2,0,B|20:348,2,150,0|0|8,0:0|0:0|0:0,0:0:0
268,296,30020,1,0,0:0:0
368,292,30363,6,0,B|396:80,1,200,0|8,0:0|0:0,0:0:0
480,44,31392,1,0,0:0:0
492,144,31734,2,0,B|500:196,2,50
408,88,32420,2,0,B|352:76,2,50,8|0|4,0:0|0:0|0:0,0:0:0
324,188,33106,6,0,B|224:192,1,100
172,196,33621,1,0,0:0:0
132,228,33792,2,0,B|128:344,1,100,8|0,0:0|0:0,0:0:0
188,376,34478,2,0,B|240:384,2,50
232,284,35164,2,0,B|176:276,2,50,8|0|0,0:0|0:0|0:0,0:0:0
328,256,35849,6,0,B|376:216|368:152,1,100
408,136,36364,2,0,B|524:124,2,100
372,100,37221,2,0,B|368:48,2,50
288,156,37906,2,0,B|288:208,2,50,8|0|0,0:0|0:0|0:0,0:0:0
184,128,38592,6,0,B|136:168|144:232,1,100
104,248,39107,2,0,B|-12:260,2,100,0|0|0,0:0|0:0|0:0,0:0:0
140,284,39964,2,0,B|144:336,2,50
224,228,40649,2,0,B|224:176,2,50,8|0|0,0:0|0:0|0:0,0:0:0
256,192,41334,12,4,44076,0:0:0
133,54,55049,5,0,0:0:0
76,136,55392,1,0,0:0:0
157,193,55734,1,0,0:0:0
215,111,56077,1,0,0:0:0
264,200,56420,6,0,B|262:315,3,100
364,304,57792,6,0,B|363:205,3,100
440,140,59163,1,0,0:0:0
372,68,59506,1,0,0:0:0
284,116,59849,1,0,0:0:0
196,72,60192,1,0,0:0:0
256,192,60534,12,4,64649,0:0:0
42,62,66020,6,0,B|86:91|153:74,1,100,6|2,0:0|0:0,0:0:0
184,60,66534,1,2,0:0:0
232,77,66706,2,0,B|351:84,1,100,8|0,0:0|0:0,0:0:0
420,132,67392,2,0,B|456:168,2,50
356,208,68077,2,0,B|376:268,2,50,8|0|2,0:0|0:0|0:0,0:0:0
260,232,68763,6,0,B|108:240,1,150,2|0,0:0|0:0,0:0:0
60,240,69449,2,0,B|44:132,2,100,8|0|0,0:0|0:0|0:0,0:0:0
80,284,70306,6,2,B|112:328|176:340|216:304,1,150,2|8,0:0|0:0,0:0:0
280,232,71163,1,0,0:0:0
352,164,71506,5,0,0:0:0
432,112,71849,2,0,B|436:64,2,50,0|0|8,0:0|0:0|0:0,0:0:0
480,200,72534,1,0,0:0:0
392,248,72877,2,0,B|356:296,2,50
452,328,73563,2,0,B|416:368,2,50,8|0|2,0:0|0:0|0:0,0:0:0
492,236,74249,6,0,B|472:72,1,150,2|0,0:0|0:0,0:0:0
400,96,74934,2,0,B|412:196,1,100,8|2,0:0|0:0,0:0:0
352,276,75620,6,0,B|272:308|152:280,1,200,0|8,0:0|0:0,0:0:0
80,216,76649,1,0,0:0:0
136,132,76992,6,0,B|224:116|224:116|292:116,1,150,6|0,0:0|0:0,0:0:0
324,148,77677,2,0,B|356:192|428:192,1,100,8|0,0:0|0:0,0:0:0
476,112,78363,2,0,B|472:52,2,50
484,212,79049,2,0,B|488:272,2,50,8|0|2,0:0|0:0|0:0,0:0:0
408,148,79734,6,0,B|344:88|264:72,1,150,2|0,0:0|0:0,0:0:0
252,116,80420,2,0,B|228:220,2,100,8|0|0,0:0|0:0|0:0,0:0:0
228,72,81277,2,0,B|128:48,1,100,2|0,0:0|0:0,0:0:0
100,88,81792,1,8,0:0:0
68,184,82134,1,0,0:0:0
132,260,82477,6,0,B|244:280,1,100,2|0,0:0|0:0,0:0:0
276,296,82992,1,0,0:0:0
324,288,83163,2,0,B|356:240|348:176,1,100,8|2,0:0|0:0,0:0:0
304,104,83849,2,0,B|144:60,2,150
256,192,85220,12,4,86592,0:0:0
136,64,87963,6,0,B|136:172,1,100,0|2,0:0|0:0,0:0:0
192,248,88649,1,8,0:0:0
256,324,88992,2,0,B|364:324,1,100
428,256,89677,1,2,0:0:0
480,172,90020,2,0,B|480:72,1,100,8|0,0:0|0:0,0:0:0
388,28,90706,2,0,B|308:60|228:36,1,150
192,24,91392,6,0,B|144:124,1,100,8|0,0:0|0:0,0:0:0
100,204,92077,2,0,B|188:256|304:232,1,200,0|8,0:0|0:0,0:0:0
380,188,93106,1,0,0:0:0
460,128,93449,2,0,B|496:176|484:244|448:280|388:288,1,200,0|8,0:0|0:0,0:0:0
300,288,94477,1,2,0:0:0
204,252,94820,2,0,B|36:128,1,200,0|8,0:0|0:0,0:0:0
40,32,95849,1,2,0:0:0
140,44,96192,6,0,B|252:44,1,100,0|2,0:0|0:0,0:0:0
340,44,96877,2,0,B|448:44,1,100,8|2,0:0|0:0,0:0:0
440,44,97563,2,0,B|400:120|416:216|432:252,1,200,0|8,0:0|0:0,0:0:0
488,320,98592,1,2,0:0:0
392,344,98934,6,0,B|184:336,1,200,0|8,0:0|0:0,0:0:0
112,276,99963,1,2,0:0:0
112,276,100306,2,0,B|140:152|80:64,1,200,0|8,0:0|0:0,0:0:0
12,24,101334,1,2,0:0:0
112,16,101677,6,0,B|320:16,1,200,0|8,0:0|0:0,0:0:0
412,16,102706,1,2,0:0:0
484,84,103049,2,0,B|456:192,1,100,0|2,0:0|0:0,0:0:0
364,216,103734,2,0,B|388:118,1,100,8|2,0:0|0:0,0:0:0
256,192,104420,12,0,108534,0:0:0
470,62,109906,6,0,B|426:91|359:74,1,100,6|2,0:0|0:0,0:0:0
328,60,110420,1,2,0:0:0
280,77,110592,2,0,B|161:84,1,100,8|0,0:0|0:0,0:0:0
92,132,111278,2,0,B|56:168,2,50
156,208,111963,2,0,B|136:268,2,50,8|0|2,0:0|0:0|0:0,0:0:0
252,232,112649,6,0,B|404:240,1,150,2|0,0:0|0:0,0:0:0
452,240,113335,2,0,B|468:132,2,100,8|0|0,0:0|0:0|0:0,0:0:0
432,284,114192,6,2,B|400:328|336:340|296:304,1,150,2|8,0:0|0:0,0:0:0
232,232,115049,1,0,0:0:0
160,164,115392,5,0,0:0:0
80,112,115735,2,0,B|76:64,2,50,0|0|8,0:0|0:0|0:0,0:0:0
32,200,116420,1,0,0:0:0
120,248,116763,2,0,B|156:296,2,50
60,328,117449,2,0,B|96:368,2,50,8|0|2,0:0|0:0|0:0,0:0:0
20,236,118135,6,0,B|40:72,1,150,2|0,0:0|0:0,0:0:0
112,96,118820,2,0,B|100:196,1,100,8|2,0:0|0:0,0:0:0
160,276,119506,6,0,B|240:308|360:280,1,200,0|8,0:0|0:0,0:0:0
432,216,120535,1,0,0:0:0
376,132,120878,6,0,B|288:116|288:116|220:116,1,150,6|0,0:0|0:0,0:0:0
188,148,121563,2,0,B|156:192|84:192,1,100,8|0,0:0|0:0,0:0:0
36,112,122249,2,0,B|40:52,2,50
28,212,122935,2,0,B|24:272,2,50,8|0|2,0:0|0:0|0:0,0:0:0
104,148,123620,6,0,B|168:88|248:72,1,150,2|0,0:0|0:0,0:0:0
260,116,124306,2,0,B|284:220,2,100,8|0|0,0:0|0:0|0:0,0:0:0
284,72,125163,2,2,B|384:48,1,100,2|0,0:0|0:0,0:0:0
412,88,125678,1,8,0:0:0
444,184,126020,1,0,0:0:0
380,260,126363,6,0,B|268:280,1,100,2|0,0:0|0:0,0:0:0
236,296,126878,1,0,0:0:0
188,288,127049,2,0,B|156:240|164:176,1,100,8|0,0:0|0:0,0:0:0
208,104,127735,2,0,B|368:60,2,150
256,192,129106,12,4,130478,0:0:0
452,72,131849,6,0,B|340:60,1,100
280,128,132534,1,8,2:0:0
184,168,132877,2,0,B|24:140,2,150,0|0|8,0:0|0:0|0:0,0:0:0
240,252,134249,1,0,0:0:0
340,240,134592,5,0,0:0:0
432,200,134934,2,0,B|432:144,2,50,0|0|8,0:0|0:0|0:0,0:0:0
476,292,135620,2,0,B|388:340|272:328,1,200
200,268,136649,2,0,B|152:240,2,50,8|0|0,0:0|0:0|0:0,0:0:0
296,240,137334,6,0,B|400:64,1,200,0|8,0:0|0:0,0:0:0
312,16,138363,2,0,B|228:160,2,150,0|0|8,0:0|0:0|0:0,0:0:0
412,28,139734,1,0,0:0:0
456,116,140077,6,0,B|460:232,1,100,0|2,0:0|0:0,0:0:0
444,316,140763,2,0,B|380:328,2,50
372,244,141449,2,0,B|304:256,2,50
452,184,142134,2,0,B|440:72|312:60,1,200,8|4,0:0|0:0,0:0:0
236,120,143163,6,0,B|184:156,2,50,2|2|8,0:0|0:0|0:0,0:0:0
324,168,143849,2,0,B|456:272,2,150,0|0|8,0:0|0:0|0:0,0:0:0
308,68,145220,1,0,0:0:0
236,136,145563,6,0,B|160:168|80:152,1,150
48,128,146249,1,8,0:0:0
28,224,146592,2,0,B|8:384,2,150,0|0|8,0:0|0:0|0:0,0:0:0
124,196,147963,2,0,B|180:200,2,50,2|0|0,0:0|0:0|0:0,0:0:0
44,132,148649,6,0,B|20:72,2,50,2|0|8,0:0|0:0|0:0,0:0:0
40,232,149334,2,0,B|124:364,2,150,0|0|8,0:0|0:0|0:0,0:0:0
104,156,150706,1,0,0:0:0
168,80,151049,6,0,B|148:28,2,50,0|2|0,0:0|0:0|0:0,0:0:0
220,168,151734,2,0,B|264:192,2,50,0|2|0,0:0|0:0|0:0,0:0:0
256,192,152420,12,4,153792,0:0:0
104,120,154477,5,8,0:0:0
188,176,154820,2,0,B|344:156,2,150,0|0|8,0:0|0:0|0:0,0:0:0
140,264,156192,1,0,0:0:0
200,344,156534,6,0,B|408:340,1,200,0|8,0:0|0:0,0:0:0
476,272,157563,2,0,B|472:104,2,150,0|0|8,0:0|0:0|0:0,0:0:0
376,272,158934,1,4,0:0:0
292,220,159277,6,0,B|176:208,1,100
144,220,159792,1,2,0:0:0
96,236,159963,1,8,0:0:0
56,144,160306,2,0,B|196:68,2,150,0|0|8,0:0|0:0|0:0,0:0:0
28,240,161677,1,0,0:0:0
108,304,162020,6,0,B|228:292,1,100,0|2,0:0|0:0,0:0:0
300,260,162706,2,0,B|308:204,2,50,8|0|0,0:0|0:0|0:0,0:0:0
236,184,163392,2,0,B|244:124,2,50,0|0|8,0:0|0:0|0:0,0:0:0
164,116,164077,2,0,B|172:52,2,50,8|0|4,0:0|0:0|0:0,0:0:0
84,176,164763,6,0,B|68:280,1,100
100,316,165277,1,0,0:0:0
152,312,165449,2,0,B|200:292|272:320,1,100,8|0,0:0|0:0,0:0:0
292,220,166134,2,0,B|248:212|224:216,2,50
240,136,166820,2,0,B|188:136,2,50,8|0|0,0:0|0:0|0:0,0:0:0
340,136,167506,6,0,B|216:308,1,200,0|8,0:0|0:0,0:0:0
156,224,168534,2,0,B|60:352,2,150,0|0|8,0:0|0:0|0:0,0:0:0
228,152,169906,1,0,0:0:0
252,56,170249,6,0,B|180:100|92:96|44:80,1,200,0|8,0:0|0:0,0:0:0
32,180,171277,2,0,B|8:336,2,150,0|0|8,0:0|0:0|0:0,0:0:0
128,152,172649,1,0,0:0:0
200,220,172992,2,0,B|236:328,1,100,0|2,0:0|0:0,0:0:0
332,316,173677,2,0,B|312:252,2,50
256,192,174363,12,4,175734,0:0:0
