osu file format v10

[General]
AudioFilename: Kyoto feat. Sirah (Original Mix).mp3
AudioLeadIn: 2000
PreviewTime: 64756
Countdown: 0
SampleSet: Normal
StackLeniency: 0.7
Mode: 0
LetterboxInBreaks: 1

[Editor]
Bookmarks: 22241,44184,55156,66127,131956,153899,175841,197784
DistanceSpacing: 0.4
BeatDivisor: 8
GridSize: 4

[Metadata]
Title:Kyoto (feat. Sirah)
TitleUnicode:
Artist:Skrillex
ArtistUnicode:
Creator:Frozen Child
Version:Frozen-LC
Source:
Tags:La Cataline Vass_Bass Reiji-RJ Lepidopodus Dubstep
BeatmapID:172193
BeatmapSetID:55226

[Difficulty]
HPDrainRate:7
CircleSize:4
OverallDifficulty:7
ApproachRate:9
SliderMultiplier:3
SliderTickRate:1

[Events]
//Background and Video events
0,0,"1304278294440.jpg"
//Break Periods
2,44277,54449
2,64849,65420
2,108734,109306
2,130677,131249
2,152620,153192
//Storyboard Layer 0 (Background)
//Storyboard Layer 1 (Fail)
//Storyboard Layer 2 (Pass)
//Storyboard Layer 3 (Foreground)
//Storyboard Sound Samples
//Background Colour Transformations
3,100,163,162,255

[TimingPoints]
192,685.714285714286,4,1,1,55,1,0
534,-100,4,2,1,55,0,0
1220,-100,4,1,1,55,0,0
1906,-100,4,2,1,55,0,0
2506,-100,4,1,1,55,0,0
3020,-100,4,2,1,55,0,0
3963,-100,4,1,1,55,0,0
4049,-100,4,2,1,55,0,0
4477,-100,4,1,1,55,0,0
4820,-100,4,2,1,55,0,0
5420,-100,4,1,1,55,0,0
6020,-100,4,2,1,55,0,0
6706,-100,4,1,1,55,0,0
6792,-100,4,2,1,55,0,0
7220,-100,4,1,1,55,0,0
7306,-100,4,2,1,55,0,0
8077,-100,4,1,1,55,0,0
8163,-100,4,2,1,55,0,0
8334,-100,4,1,1,55,0,0
8506,-100,4,2,1,55,0,0
8934,-100,4,1,1,55,0,0
9020,-100,4,2,1,55,0,0
9449,-100,4,1,1,55,0,0
9620,-100,4,2,1,55,0,0
9706,-100,4,1,1,55,0,0
10220,-100,4,2,1,55,0,0
10477,-100,4,1,1,55,0,0
10563,-100,4,2,1,55,0,0
10906,-100,4,1,1,55,0,0
11506,-100,4,2,1,55,0,0
12106,-100,4,1,1,55,0,0
12363,-100,4,2,1,55,0,0
12620,-100,4,1,1,55,0,0
12792,-100,4,2,1,55,0,0
13477,-100,4,1,1,55,0,0
13992,-100,4,2,1,55,0,0
14934,-100,4,1,1,55,0,0
15020,-100,4,2,1,55,0,0
15449,-100,4,1,1,55,0,0
15792,-100,4,2,1,55,0,0
16392,-100,4,1,1,55,0,0
16992,-100,4,2,1,55,0,0
17592,-100,4,1,1,55,0,0
17763,-100,4,2,1,55,0,0
18192,-100,4,1,1,55,0,0
18277,-100,4,2,1,55,0,0
18963,-100,4,1,1,55,0,0
19477,-100,4,2,1,55,0,0
19906,-100,4,1,1,55,0,0
20163,-100,4,2,1,55,0,0
20420,-100,4,1,1,55,0,0
20592,-100,4,2,1,55,0,0
20677,-100,4,1,1,55,0,0
21192,-100,4,2,1,55,0,0
21449,-100,4,1,1,55,0,0
21792,-100,4,2,1,55,0,0
21877,-100,4,1,1,55,0,0
22049,-100,4,1,1,65,0,0
22477,-100,4,2,1,65,0,0
22820,-100,4,1,1,65,0,0
22906,-100,4,2,1,65,0,0
23592,-100,4,1,1,65,0,0
23763,-100,4,2,1,65,0,0
24106,-100,4,1,1,65,0,0
24277,-100,4,2,1,65,0,0
24620,-100,4,1,1,65,0,0
25220,-100,4,2,1,65,0,0
25477,-100,4,1,1,65,0,0
25992,-100,4,2,1,65,0,0
26420,-100,4,1,1,65,0,0
26506,-100,4,2,1,65,0,0
26849,-100,4,1,1,65,0,0
27020,-100,4,2,1,65,0,0
27363,-100,4,1,1,65,0,0
27963,-100,4,2,1,65,0,0
28220,-100,4,1,1,65,0,0
28477,-100,4,2,1,65,0,0
28563,-100,4,1,1,65,0,0
28734,-100,4,2,1,65,0,0
29163,-100,4,1,1,65,0,0
29249,-100,4,2,1,65,0,0
29592,-100,4,1,1,65,0,0
29763,-100,4,2,1,65,0,0
30106,-100,4,1,1,65,0,0
30706,-100,4,2,1,65,0,0
30792,-100,4,1,1,65,0,0
31049,-100,4,2,1,65,0,0
31392,-100,4,1,1,65,0,0
31477,-100,4,2,1,65,0,0
31734,-100,4,1,1,65,0,0
32249,-100,4,2,1,65,0,0
32334,-100,4,1,1,65,0,0
32677,-100,4,2,1,65,0,0
32849,-100,4,1,1,65,0,0
33449,-100,4,2,1,65,0,0
34049,-100,4,1,1,65,0,0
34220,-100,4,2,1,65,0,0
34649,-100,4,1,1,65,0,0
34734,-100,4,2,1,65,0,0
35077,-100,4,1,1,65,0,0
35249,-100,4,2,1,65,0,0
35592,-100,4,1,1,65,0,0
36192,-100,4,2,1,65,0,0
36534,-100,4,1,1,65,0,0
36620,-100,4,2,1,65,0,0
37306,-100,4,1,1,65,0,0
37477,-100,4,2,1,65,0,0
37906,-100,4,1,1,65,0,0
37992,-100,4,2,1,65,0,0
38163,-100,4,2,1,65,0,0
38334,-100,4,1,1,65,0,0
38934,-100,4,2,1,65,0,0
39192,-100,4,1,1,65,0,0
39449,-100,4,2,1,65,0,0
39534,-100,4,1,1,65,0,0
39706,-100,4,2,1,65,0,0
40134,-100,4,1,1,65,0,0
40220,-100,4,2,1,65,0,0
40563,-100,4,1,1,65,0,0
40734,-100,4,2,1,65,0,0
41163,-100,4,1,1,65,0,0
41677,-100,4,2,1,65,0,0
41763,-100,4,1,1,65,0,0
42192,-100,4,2,1,65,0,0
42706,-100,4,1,1,75,0,0
43220,-100,4,2,1,75,0,0
43306,-100,4,1,1,75,0,0
43477,-100,4,2,1,75,0,0
43820,-100,4,1,1,75,0,0
57192,-100,4,2,1,65,0,0
57363,-100,4,1,1,75,0,0
57534,-100,4,2,1,65,0,0
57706,-100,4,1,1,75,0,0
59934,-100,4,2,1,65,0,0
60106,-100,4,1,1,75,0,0
60277,-100,4,2,1,65,0,0
60449,-100,4,1,1,75,0,0
63277,-100,4,1,1,85,0,0
66020,-54.054054054054,4,1,1,75,0,1
67306,-100,4,1,1,75,0,0
68763,-54.054054054054,4,1,1,75,0,1
70048,-100,4,1,1,75,0,0
71506,-54.054054054054,4,1,1,75,0,1
72706,-100,4,1,1,75,0,0
74249,-54.054054054054,4,1,1,75,0,1
75449,-100,4,1,1,75,0,0
76992,-54.054054054054,4,1,1,75,0,1
78192,-100,4,1,1,75,0,0
79734,-54.054054054054,4,1,1,75,0,1
80934,-100,4,1,1,75,0,0
82477,-54.054054054054,4,1,1,75,0,1
83677,-100,4,1,1,75,0,0
85220,-54.054054054054,4,1,1,75,0,1
86420,-100,4,1,1,75,0,0
88134,-100,4,2,1,55,0,0
88563,-100,4,1,1,55,0,0
88992,-100,4,2,1,55,0,0
89249,-100,4,1,1,55,0,0
89506,-100,4,2,1,55,0,0
89934,-100,4,1,1,55,0,0
90363,-100,4,2,1,55,0,0
90620,-100,4,1,1,55,0,0
90877,-100,4,2,1,55,0,0
91392,-100,4,1,1,55,0,0
91734,-100,4,2,1,55,0,0
91992,-100,4,1,1,55,0,0
92249,-100,4,2,1,55,0,0
92677,-100,4,1,1,55,0,0
92934,-100,4,2,1,55,0,0
93363,-100,4,1,1,55,0,0
93620,-100,4,2,1,55,0,0
94134,-100,4,1,1,55,0,0
94306,-100,4,2,1,55,0,0
94820,-100,4,1,1,55,0,0
94992,-100,4,2,1,55,0,0
95506,-100,4,1,1,55,0,0
95677,-100,4,2,1,55,0,0
96192,-100,4,1,1,55,0,0
96277,-100,4,2,1,55,0,0
96792,-100,4,1,1,55,0,0
96963,-100,4,2,1,55,0,0
97477,-100,4,1,1,55,0,0
97649,-100,4,2,1,55,0,0
98249,-100,4,1,1,55,0,0
98334,-100,4,2,1,55,0,0
98934,-100,4,1,1,55,0,0
99106,-100,4,2,1,55,0,0
99534,-100,4,1,1,55,0,0
99963,-100,4,2,1,55,0,0
100220,-100,4,1,1,55,0,0
100477,-100,4,2,1,55,0,0
100906,-100,4,1,1,55,0,0
101334,-100,4,2,1,55,0,0
101592,-100,4,1,1,55,0,0
101849,-100,4,2,1,55,0,0
102363,-100,4,1,1,55,0,0
102706,-100,4,2,1,55,0,0
102963,-100,4,1,1,55,0,0
103220,-100,4,2,1,55,0,0
103649,-100,4,1,1,55,0,0
103906,-100,4,2,1,55,0,0
104334,-100,4,1,1,55,0,0
104592,-100,4,2,1,55,0,0
105106,-100,4,1,1,55,0,0
105277,-100,4,2,1,55,0,0
105792,-100,4,1,1,55,0,0
105963,-100,4,2,1,55,0,0
106477,-100,4,1,1,55,0,0
106649,-100,4,2,1,55,0,0
107163,-100,4,1,1,55,0,0
107249,-100,4,2,1,55,0,0
107763,-100,4,1,1,55,0,0
107934,-100,4,2,1,55,0,0
108449,-100,4,1,1,55,0,0
109906,-54.054054054054,4,1,1,75,0,1
111277,-100,4,1,1,75,0,0
112649,-54.054054054054,4,1,1,75,0,1
114020,-100,4,1,1,75,0,0
115392,-54.054054054054,4,1,1,75,0,1
116763,-100,4,1,1,75,0,0
118134,-54.054054054054,4,1,1,75,0,1
119506,-100,4,1,1,75,0,0
120877,-54.054054054054,4,1,1,75,0,1
122249,-100,4,1,1,75,0,0
123620,-54.054054054054,4,1,1,75,0,1
124992,-100,4,1,1,75,0,0
126363,-54.054054054054,4,1,1,75,0,1
127734,-100,4,1,1,75,0,0
129106,-54.054054054054,4,1,1,75,0,1
130477,-54.054054054054,4,1,1,75,0,0
131763,-100,4,1,1,55,0,0
131935,-100,4,1,1,40,0,0
132192,-100,4,2,1,75,0,0
132792,-100,4,1,1,75,0,0
133049,-100,4,2,1,75,0,0
133306,-100,4,1,1,75,0,0
133734,-100,4,2,1,75,0,0
134163,-100,4,1,1,75,0,0
134763,-100,4,2,1,75,0,0
135620,-100,4,1,1,75,0,0
135706,-100,4,2,1,75,0,0
136049,-100,4,1,1,75,0,0
136392,-100,4,2,1,75,0,0
137077,-100,4,1,1,75,0,0
137592,-100,4,2,1,75,0,0
138277,-100,4,1,1,75,0,0
138534,-100,4,2,1,75,0,0
138877,-100,4,1,1,75,0,0
138963,-100,4,2,1,75,0,0
139649,-100,4,1,1,75,0,0
139906,-100,4,2,1,75,0,0
140077,-100,4,1,1,75,0,0
140163,-100,4,2,1,75,0,0
140506,-100,4,1,1,75,0,0
140849,-100,4,2,1,75,0,0
141106,-100,4,1,1,75,0,0
141277,-100,4,2,1,75,0,0
141363,-100,4,1,1,75,0,0
141877,-100,4,2,1,75,0,0
142134,-100,4,1,1,75,0,0
142306,-100,4,2,1,75,0,0
142563,-100,4,1,1,75,0,0
142992,-100,4,2,1,75,0,0
143849,-100,4,1,1,75,0,0
143934,-100,4,2,1,75,0,0
144277,-100,4,1,1,75,0,0
144449,-100,4,2,1,75,0,0
145134,-100,4,1,1,75,0,0
145392,-100,4,2,1,75,0,0
145477,-100,4,1,1,75,0,0
145820,-100,4,2,1,75,0,0
146506,-100,4,1,1,75,0,0
146677,-100,4,2,1,75,0,0
147020,-100,4,1,1,75,0,0
147277,-100,4,2,1,75,0,0
148049,-100,4,1,1,75,0,0
148477,-100,4,2,1,75,0,0
149249,-100,4,1,1,75,0,0
149420,-100,4,2,1,75,0,0
149849,-100,4,1,1,75,0,0
149934,-100,4,2,1,75,0,0
150620,-100,4,1,1,75,0,0
150792,-100,4,2,1,75,0,0
150963,-100,4,1,1,75,0,0
151134,-100,4,2,1,75,0,0
151477,-100,4,1,1,75,0,0
151820,-100,4,2,1,75,0,0
152077,-100,4,1,1,75,0,0
152163,-100,4,2,1,75,0,0
153706,-100,4,1,1,75,0,0
154134,-100,4,2,1,55,0,0
155249,-100,4,1,1,45,0,0
155420,-100,4,2,1,55,0,0
156192,-100,4,1,1,55,0,0
156277,-100,4,2,1,55,0,0
156449,-100,4,1,1,55,0,0
156877,-100,4,2,1,55,0,0
157477,-100,4,1,1,55,0,0
157649,-100,4,2,1,55,0,0
158077,-100,4,1,1,55,0,0
158420,-100,4,2,1,55,0,0
159020,-100,4,1,1,55,0,0
159620,-100,4,2,1,55,0,0
160306,-100,4,1,1,55,0,0
160392,-100,4,2,1,55,0,0
160820,-100,4,1,1,55,0,0
160906,-100,4,2,1,55,0,0
161592,-100,4,1,1,55,0,0
161763,-100,4,2,1,55,0,0
161934,-100,4,1,1,55,0,0
162106,-100,4,2,1,55,0,0
162534,-100,4,1,1,55,0,0
162792,-100,4,2,1,55,0,0
163049,-100,4,1,1,55,0,0
163220,-100,4,2,1,55,0,0
163306,-100,4,1,1,55,0,0
163820,-100,4,2,1,55,0,0
164077,-100,4,1,1,55,0,0
164163,-100,4,2,1,55,0,0
164592,-100,4,1,1,55,0,0
165106,-100,4,2,1,55,0,0
165363,-100,4,1,1,55,0,0
165877,-100,4,2,1,55,0,0
166220,-100,4,1,1,55,0,0
166563,-100,4,2,1,55,0,0
166734,-100,4,1,1,55,0,0
167249,-100,4,2,1,55,0,0
167420,-100,4,1,1,55,0,0
167849,-100,4,2,1,55,0,0
168106,-100,4,1,1,55,0,0
168620,-100,4,2,1,55,0,0
169049,-100,4,1,1,55,0,0
169306,-100,4,2,1,55,0,0
169477,-100,4,1,1,55,0,0
169906,-100,4,2,1,55,0,0
169992,-100,4,1,1,55,0,0
170592,-100,4,2,1,55,0,0
170849,-100,4,1,1,55,0,0
171363,-100,4,2,1,55,0,0
171792,-100,4,1,1,55,0,0
171877,-100,4,2,1,55,0,0
172220,-100,4,1,1,55,0,0
172392,-100,4,2,1,55,0,0
172563,-100,4,1,1,55,0,0
172734,-100,4,2,1,55,0,0
172906,-100,4,1,1,55,0,0
173077,-100,4,2,1,55,0,0
173506,-100,4,1,1,55,0,0
173763,-100,4,2,1,55,0,0
174020,-100,4,1,1,55,0,0
174192,-100,4,2,1,55,0,0
175734,-100,4,1,1,55,0,0

[Colours]
Combo1 : 255,220,21
Combo2 : 255,139,83
Combo3 : 89,255,89
Combo4 : 252,90,67
Combo5 : 45,251,173 sliderborder :
129,126,112

[HitObjects]
112,52,192,2,2,B|168:120|116:212,1,150,4|8,0:0|0:0,0:0:0
92,268,706,1,0,0:0:0
292,160,877,2,0,B|380:176|440:120,1,150,8|0,0:0|0:0,0:0:0
432,126,1734,2,0,B|472:196,1,75
464,324,2077,2,0,B|420:248,1,75,0|8,0:0|0:0,0:0:0
344,248,2420,1,0,0:0:0
320,324,2592,2,2,B|168:276,1,150,4|12,0:0|0:0,0:0:0
104,140,3106,5,8,0:0:0
96,124,3192,1,0,0:0:0
88,108,3277,2,0,B|48:20,1,75,8|8,0:0|0:0,0:0:0
212,112,3620,2,0,B|288:256,1,150,8|0,0:0|0:0,0:0:0
244,316,4134,2,0,B|304:348|356:312|360:268,1,150
384,188,4649,6,0,B|424:120,1,75
460,52,4991,1,8,0:0:0
388,12,5163,1,0,0:0:0
348,84,5334,1,2,0:0:0
423,124,5506,1,0,0:0:0
348,84,5677,6,2,B|288:128|192:108,1,150,4|8,0:0|0:0,0:0:0
128,80,6191,1,0,0:0:0
272,192,6363,2,0,B|444:244,1,150,8|0,0:0|0:0,0:0:0
496,256,6877,1,0,0:0:0
496,256,6963,1,0,0:0:0
496,256,7049,2,0,B|472:352,1,75
452,172,7391,2,0,B|472:72,1,75
444,20,7734,2,0,B|368:64|272:8,1,150,8|4,0:0|0:0,0:0:0
256,92,8249,1,0,0:0:0
72,284,8420,21,4,0:0:0
96,200,8591,1,10,0:0:0
100,188,8677,1,2,0:0:0
104,176,8763,2,0,B|128:100,1,75,10|0,0:0|0:0,0:0:0
208,124,9106,1,8,0:0:0
228,128,9191,1,0,0:0:0
244,132,9277,1,2,0:0:0
264,136,9363,1,0,0:0:0
284,140,9449,6,0,B|356:160,1,75,0|2,0:0|0:0,0:0:0
320,316,9791,2,0,B|340:236,1,75
376,76,10134,1,0,0:0:0
396,72,10220,1,2,0:0:0
416,68,10306,1,2,0:0:0
436,64,10391,1,2,0:0:0
456,60,10477,1,8,0:0:0
496,180,10649,1,0,0:0:0
380,232,10820,1,4,0:0:0
324,116,10992,1,0,0:0:0
72,168,11163,6,2,B|132:232|216:192,1,150,4|10,0:0|0:0,0:0:0
244,120,11677,1,0,0:0:0
152,288,11849,2,0,B|112:356,1,75,8|0,0:0|0:0,0:0:0
272,280,12192,2,0,B|308:200,1,75
332,136,12534,1,0,0:0:0
364,60,12706,1,0,0:0:0
400,244,12877,1,0,0:0:0
368,320,13049,1,0,0:0:0
244,200,13220,2,0,B|168:168,1,75,8|0,0:0|0:0,0:0:0
32,72,13563,6,2,B|120:92|178:34,1,150,0|4,0:0|0:0,0:0:0
320,64,14077,1,8,0:0:0
336,64,14163,1,0,0:0:0
352,64,14249,2,0,B|440:80,1,75,8|8,0:0|0:0,0:0:0
244,200,14592,2,0,B|80:168,1,150,8|0,0:0|0:0,0:0:0
16,152,15106,1,2,0:0:0
16,152,15192,1,0,0:0:0
16,152,15277,2,0,B|0:228,1,75
160,328,15620,2,0,B|72:308,1,75
176,216,15963,21,8,0:0:0
280,168,16134,1,2,0:0:0
452,168,16306,1,0,0:0:0
360,232,16477,1,0,0:0:0
220,88,16649,6,2,B|168:20|64:24,1,150,4|8,0:0|0:0,0:0:0
292,296,17163,2,0,B|344:364|448:360,1,150,8|0,0:0|0:0,0:0:0
468,292,17677,1,0,0:0:0
396,208,17849,1,0,0:0:0
396,208,17934,1,0,0:0:0
396,208,18020,2,0,B|324:184,1,75
204,140,18363,5,2,0:0:0
132,100,18534,1,0,0:0:0
212,268,18706,1,8,0:0:0
292,236,18877,1,0,0:0:0
32,204,19049,6,2,B|180:140,1,150,4|4,0:0|0:0,0:0:0
247,116,19563,1,10,0:0:0
256,132,19649,1,2,0:0:0
264,148,19734,2,0,B|304:220,1,75,8|8,0:0|0:0,0:0:0
152,56,20077,1,8,0:0:0
132,52,20163,1,2,0:0:0
112,48,20249,1,2,0:0:0
92,44,20334,1,2,0:0:0
72,40,20420,22,0,B|12:88,1,75
40,268,20763,2,0,B|100:220,1,75
320,140,21106,1,0,0:0:0
340,136,21192,1,2,0:0:0
356,132,21277,1,2,0:0:0
372,128,21363,1,2,0:0:0
392,124,21449,1,8,0:0:0
464,80,21620,2,0,B|488:176,1,75,0|4,0:0|0:0,0:0:0
496,236,21963,1,0,0:0:0
396,300,22134,6,2,B|216:280,1,150,4|8,0:0|0:0,0:0:0
164,272,22649,2,0,B|176:184,1,75,0|8,0:0|0:0,0:0:0
240,156,22992,2,0,B|212:108|144:108|108:144,1,150,0|0,0:0|0:0,0:0:0
196,44,23506,5,0,0:0:0
176,196,23677,1,0,0:0:0
276,72,23849,1,2,0:0:0
176,196,24020,1,0,0:0:0
320,140,24192,1,8,0:0:0
176,196,24363,1,0,0:0:0
264,256,24534,1,2,0:0:0
368,224,24706,1,0,0:0:0
192,276,24877,6,2,B|168:324|96:324|68:280,1,150,4|8,0:0|0:0,0:0:0
128,228,25392,1,4,0:0:0
248,332,25563,2,0,B|400:348,1,150,8|0,0:0|0:0,0:0:0
480,356,26077,1,0,0:0:0
480,356,26163,1,0,0:0:0
480,356,26249,2,0,B|488:272,1,75
344,200,26592,2,0,B|436:208,1,75,2|0,0:0|0:0,0:0:0
500,212,26934,1,8,0:0:0
504,128,27106,1,0,0:0:0
420,124,27277,1,4,0:0:0
416,208,27449,1,0,0:0:0
112,232,27620,22,2,B|200:276|272:232,1,150,4|8,0:0|0:0,0:0:0
276,320,28134,1,4,0:0:0
220,168,28306,2,0,B|192:88,1,75,8|0,0:0|0:0,0:0:0
120,64,28649,1,0,0:0:0
296,220,28820,1,0,0:0:0
296,220,28906,1,0,0:0:0
296,220,28992,6,0,B|392:196,1,75
448,184,29334,1,2,0:0:0
464,264,29506,1,0,0:0:0
384,280,29677,1,8,0:0:0
296,220,29849,2,0,B|240:140,1,75,2|4,0:0|0:0,0:0:0
152,228,30192,1,0,0:0:0
152,228,30363,6,2,B|100:156|-4:200,1,150,0|8,0:0|0:0,0:0:0
72,264,30877,1,0,0:0:0
72,264,30963,1,0,0:0:0
72,264,31049,1,8,0:0:0
96,112,31220,2,0,B|112:28,1,75
192,48,31563,1,2,0:0:0
192,48,31649,1,0,0:0:0
192,48,31734,6,0,B|268:60,1,75
400,188,32077,2,0,B|316:172,1,75
240,204,32420,1,8,0:0:0
176,288,32592,1,0,0:0:0
232,376,32763,1,4,0:0:0
296,296,32934,1,0,0:0:0
468,284,33106,22,2,B|408:208|312:220,1,150,4|8,0:0|0:0,0:0:0
44,100,33620,2,0,B|104:176|200:164,1,150,4|2,0:0|0:0,0:0:0
220,96,34134,1,0,0:0:0
396,120,34306,1,0,0:0:0
396,120,34392,1,0,0:0:0
396,120,34477,2,0,B|428:200,1,75
316,64,34820,2,0,B|232:20,1,75,2|0,0:0|0:0,0:0:0
312,152,35163,1,8,0:0:0
400,32,35334,1,0,0:0:0
292,176,35506,1,4,0:0:0
420,8,35677,1,0,0:0:0
244,236,35849,6,2,B|196:296|104:264,1,150,4|8,0:0|0:0,0:0:0
56,200,36363,2,0,B|-12:156,1,75,4|8,0:0|0:0,0:0:0
200,128,36706,2,0,B|336:216,1,150
396,256,37220,1,0,0:0:0
444,188,37391,1,0,0:0:0
376,140,37563,1,2,0:0:0
324,204,37734,2,2,B|260:268,1,75,0|8,0:0|0:0,0:0:0
96,144,38077,1,0,0:0:0
208,216,38249,1,4,0:0:0
200,104,38420,1,0,0:0:0
104,252,38591,6,2,B|80:304|0:312|-32:272,1,150,4|8,0:0|0:0,0:0:0
28,216,39106,1,4,0:0:0
124,344,39277,2,0,B|204:364,1,75,8|0,0:0|0:0,0:0:0
276,384,39620,1,0,0:0:0
376,256,39791,1,0,0:0:0
384,240,39877,1,0,0:0:0
392,224,39963,6,0,B|432:144,1,75
268,44,40306,2,0,B|352:88,1,75,2|0,0:0|0:0,0:0:0
416,68,40649,1,8,0:0:0
288,140,40820,1,0,0:0:0
200,124,40991,2,0,B|132:96,1,75,4|0,0:0|0:0,0:0:0
272,236,41334,22,2,B|408:296,1,150,4|4,0:0|0:0,0:0:0
500,296,41849,1,0,0:0:0
336,352,42020,2,0,B|256:352,1,75,8|0,0:0|0:0,0:0:0
112,288,42363,1,4,0:0:0
48,140,42534,1,8,0:0:0
40,124,42620,1,0,0:0:0
32,108,42706,6,0,B|-8:32,1,75,4|0,0:0|0:0,0:0:0
140,104,43049,2,0,B|184:184,1,75,4|0,0:0|0:0,0:0:0
216,240,43391,1,8,0:0:0
308,152,43563,1,0,0:0:0
388,272,43734,1,4,0:0:0
472,128,43906,1,0,0:0:0
508,332,44077,1,4,0:0:0
48,192,55049,5,0,0:0:0
156,68,55391,1,0,0:0:0
257,191,55734,1,0,0:0:0
152,316,56077,1,0,0:0:0
152,316,56249,1,0,0:0:0
48,192,56420,1,0,0:0:0
48,192,56591,1,0,0:0:0
156,68,56763,1,0,0:0:0
156,68,56934,1,0,0:0:0
256,192,57106,1,0,0:0:0
256,192,57277,1,4,0:0:0
372,68,57449,1,0,0:0:0
472,196,57620,1,4,0:0:0
360,316,57791,5,0,0:0:0
256,192,58134,1,0,0:0:0
152,316,58477,1,0,0:0:0
360,316,58820,1,0,0:0:0
256,192,58992,1,0,0:0:0
256,192,59163,1,0,0:0:0
256,192,59334,1,0,0:0:0
152,316,59506,1,0,0:0:0
152,316,59677,1,0,0:0:0
360,316,59849,1,0,0:0:0
360,316,60020,1,4,0:0:0
256,192,60191,1,0,0:0:0
256,192,60363,1,4,0:0:0
176,176,60534,22,0,B|96:144,1,75,4|0,0:0|0:0,0:0:0
36,40,60877,2,0,B|108:68,1,75
280,44,61220,2,0,B|360:76,1,75
420,180,61563,2,0,B|348:152,1,75
232,340,61906,2,0,B|152:308,1,75
92,204,62249,2,0,B|164:232,1,75
328,244,62591,2,0,B|360:164,1,75
464,104,62934,2,0,B|436:176,1,75
316,132,63277,5,4,0:0:0
300,136,63363,1,0,0:0:0
280,140,63449,1,0,0:0:0
264,144,63534,1,0,0:0:0
244,148,63620,1,0,0:0:0
228,152,63706,1,0,0:0:0
212,156,63791,1,0,0:0:0
196,160,63877,1,0,0:0:0
180,164,63963,1,0,0:0:0
164,168,64049,1,0,0:0:0
148,172,64134,1,0,0:0:0
132,176,64220,1,0,0:0:0
116,180,64306,1,0,0:0:0
100,184,64392,1,0,0:0:0
84,188,64477,1,0,0:0:0
68,192,64563,1,0,0:0:0
52,196,64649,1,4,0:0:0
360,72,66020,38,0,B|314:143|344:216,1,138.750006202609,4|0,0:0|0:0,0:0:0
464,288,66363,2,0,B|510:217|472:136,1,138.750006202609,2|2,0:0|0:0,0:0:0
192,168,66706,2,2,B|166:247|222:303,1,138.750006202609,12|2,0:0|0:0,0:0:0
352,336,67049,1,2,0:0:0
392,144,67220,1,0,0:0:0
392,144,67306,1,0,0:0:0
392,144,67391,38,0,B|400:64,1,75,0|0,0:0|0:0,0:0:0
464,296,67734,2,0,B|456:216,1,75,2|0,0:0|0:0,0:0:0
280,248,68077,2,0,B|368:248,1,75,12|0,0:0|0:0,0:0:0
112,160,68420,2,0,B|224:168,1,112.5
224,168,68763,22,2,B|256:96|256:34,1,138.750006202609,4|2,0:0|0:0,0:0:0
32,288,69106,2,2,B|102:256|166:256,1,138.750006202609,0|2,0:0|0:0,0:0:0
167,256,69363,1,0,0:0:0
167,256,69449,1,12,0:0:0
384,144,69620,1,2,0:0:0
272,264,69791,2,2,B|328:312|408:312,1,138.750006202609
216,352,70134,21,0,0:0:0
216,352,70306,2,2,B|48:352,1,150,2|0,0:0|0:0,0:0:0
88,192,70820,1,12,0:0:0
112,56,70991,1,2,0:0:0
248,80,71163,1,2,0:0:0
224,224,71334,1,2,0:0:0
448,264,71506,38,2,B|480:200|480:200|472:112,1,138.750006202609,4|2,0:0|0:0,0:0:0
360,32,71849,2,2,B|328:96|328:96|336:184,1,138.750006202609,2|2,0:0|0:0,0:0:0
176,336,72191,2,2,B|336:320,1,138.750006202609,8|2,0:0|0:0,0:0:0
224,224,72534,2,2,B|64:248,1,138.750006202609
85,244,72877,6,0,B|72:160,1,75
208,328,73220,2,0,B|200:240,1,75,2|0,0:0|0:0,0:0:0
248,144,73563,2,0,B|234:59,1,75,8|0,0:0|0:0,0:0:0
383,248,73906,2,0,B|376:136,1,112.5,2|0,0:0|0:0,0:0:0
376,136,74249,54,2,B|441:141|441:141|457:133|457:133|513:141,1,138.750006202609,4|2,0:0|0:0,0:0:0
344,333,74591,2,2,B|280:328|280:328|264:336|264:336|208:328,1,138.750006202609,2|0,0:0|0:0,0:0:0
192,304,74849,1,0,0:0:0
176,280,74934,2,0,B|160:208|160:208|216:168,1,138.750006202609,10|2,0:0|0:0,0:0:0
296,0,75277,2,2,B|336:64|336:64|296:120,1,138.750006202609
64,264,75620,53,4,0:0:0
64,264,75791,2,2,B|56:192|72:88,1,150,2|0,0:0|0:0,0:0:0
168,136,76306,1,12,0:0:0
272,96,76477,1,2,0:0:0
376,136,76649,1,2,0:0:0
472,88,76820,1,2,0:0:0
504,192,76992,6,0,B|448:248|464:336,1,138.750006202609,4|2,0:0|0:0,0:0:0
288,244,77334,2,0,B|272:100,1,138.749999470711,2|2,0:0|0:0,0:0:0
56,248,77677,2,0,B|128:272|152:366,1,138.750006202609,10|2,0:0|0:0,0:0:0
304,352,78020,1,2,0:0:0
384,144,78191,1,0,0:0:0
384,144,78277,1,0,0:0:0
384,144,78363,38,0,B|390:105|392:64,1,75
152,64,78706,2,0,B|151:100|164:144,1,75,2|0,0:0|0:0,0:0:0
288,240,79049,2,0,B|376:240,1,75,12|0,0:0|0:0,0:0:0
96,232,79391,2,0,B|208:240,1,112.5,2|0,0:0|0:0,0:0:0
208,240,79734,22,2,B|240:170|240:106,1,138.750006202609,0|2,0:0|0:0,0:0:0
368,344,80077,2,2,B|336:274|336:210,1,138.750006202609,0|2,0:0|0:0,0:0:0
336,209,80334,1,0,0:0:0
336,209,80420,1,12,0:0:0
96,232,80591,1,2,0:0:0
160,368,80763,2,2,B|208:312|208:232,1,138.750006202609
200,72,81106,21,4,0:0:0
200,72,81277,2,2,B|160:72|160:72|96:64|96:64|48:64,1,150,2|0,0:0|0:0,0:0:0
50,64,81706,1,0,0:0:0
50,64,81791,1,12,0:0:0
96,232,81963,1,2,0:0:0
224,152,82134,1,2,0:0:0
240,320,82306,1,2,0:0:0
360,240,82477,38,2,B|392:176|392:176|384:88,1,138.750006202609,4|2,0:0|0:0,0:0:0
472,240,82820,2,0,B|440:304|440:304|448:392,1,138.750006202609,2|2,0:0|0:0,0:0:0
102,340,83163,2,2,B|240:320,1,138.750006202609,8|2,0:0|0:0,0:0:0
152,216,83506,2,2,B|14:236,1,138.750006202609
136,128,83849,6,0,B|120:96|124:44,1,75
272,96,84191,2,0,B|288:128|284:184,1,75,2|0,0:0|0:0,0:0:0
248,352,84534,2,0,B|224:312|232:277,1,75,8|0,0:0|0:0,0:0:0
384,192,84877,2,0,B|496:200,1,112.5,2|0,0:0|0:0,0:0:0
496,200,85220,54,2,B|496:136|496:136|491:63,1,138.750006202609,4|2,0:0|0:0,0:0:0
303,126,85563,2,2,B|296:192|296:192|304:264,1,138.750006202609,2|0,0:0|0:0,0:0:0
272,264,85820,1,0,0:0:0
240,264,85906,2,2,B|168:264|168:264|104:320,1,138.750006202609,12|2,0:0|0:0,0:0:0
151,90,86249,2,2,B|146:157|146:157|96:208,1,138.750006202609
8,248,86591,53,2,0:0:0
424,368,87106,2,0,B|448:368|448:368|464:256|464:256|432:240,1,150
464,224,87534,1,0,0:0:0
472,200,87620,1,12,0:0:0
248,216,87792,1,0,0:0:0
48,224,87963,22,0,B|32:184|64:136,1,75,4|2,0:0|0:0,0:0:0
248,216,88306,2,0,B|264:256|232:304,1,75,8|8,0:0|0:0,0:0:0
160,168,88649,2,0,B|120:96|176:16,1,150,12|2,0:0|0:0,0:0:0
169,26,89163,1,2,0:0:0
304,124,89334,2,0,B|272:104|232:112,1,75,0|2,0:0|0:0,0:0:0
208,240,89677,2,0,B|240:260|280:252,1,75,2|2,0:0|0:0,0:0:0
512,232,90020,2,0,B|464:168|352:208,1,150,12|2,0:0|0:0,0:0:0
375,200,90534,1,2,0:0:0
408,344,90706,6,0,B|440:320|440:248,1,75,0|2,0:0|0:0,0:0:0
228,152,91049,2,0,B|188:192|212:260,1,112.5,4|2,0:0|0:0,0:0:0
240,344,91392,2,0,B|320:288|272:184,1,150,12|2,0:0|0:0,0:0:0
282,212,91906,1,2,0:0:0
112,256,92077,2,0,B|16:272,1,75,0|2,0:0|0:0,0:0:0
40,120,92420,2,0,B|136:136,1,75,2|2,0:0|0:0,0:0:0
400,256,92763,2,0,B|496:272,1,75,12|0,0:0|0:0,0:0:0
472,120,93106,2,0,B|376:136,1,75,4|0,0:0|0:0,0:0:0
192,167,93449,6,0,B|192:208|208:240,1,75,0|0,0:0|0:0,0:0:0
296,308,93792,2,0,B|404:296,1,75,4|2,0:0|0:0,0:0:0
168,352,94134,2,0,B|93:358,1,75,12|0,0:0|0:0,0:0:0
192,168,94477,2,0,B|180:72,1,75,4|2,0:0|0:0,0:0:0
320,192,94820,2,0,B|394:198,1,75,0|2,0:0|0:0,0:0:0
328,32,95163,2,0,B|408:28,1,75,12|0,0:0|0:0,0:0:0
184,96,95506,2,0,B|109:102,1,75,12|0,0:0|0:0,0:0:0
320,192,95849,2,2,B|482:200,1,150,4|4,0:0|0:0,0:0:0
448,288,96363,5,10,0:0:0
360,296,96534,1,10,0:0:0
280,336,96706,1,8,0:0:0
112,304,96877,21,12,0:0:0
192,288,97049,1,4,0:0:0
264,240,97220,1,2,0:0:0
296,160,97392,1,2,0:0:0
408,112,97563,5,0,0:0:0
409,104,97649,1,2,0:0:0
410,96,97734,1,2,0:0:0
411,88,97820,1,2,0:0:0
412,80,97906,1,2,0:0:0
414,72,97992,1,2,0:0:0
414,64,98077,1,2,0:0:0
415,56,98163,1,2,0:0:0
417,48,98249,5,12,0:0:0
417,63,98334,1,2,0:0:0
419,78,98420,1,4,0:0:0
424,93,98506,1,2,0:0:0
428,108,98592,1,2,0:0:0
434,122,98677,1,2,0:0:0
440,136,98763,1,2,0:0:0
447,150,98849,1,2,0:0:0
450,164,98934,6,0,B|466:204|434:252,1,75,4|8,0:0|0:0,0:0:0
344,320,99277,2,0,B|304:336|271:313,1,75,8|8,0:0|0:0,0:0:0
152,128,99620,2,0,B|224:88|304:144,1,150,12|2,0:0|0:0,0:0:0
352,224,100134,1,2,0:0:0
176,232,100306,2,0,B|136:240|104:220,1,75,0|2,0:0|0:0,0:0:0
136,20,100649,2,0,B|176:12|208:32,1,75,2|2,0:0|0:0,0:0:0
0,312,100992,2,0,B|-32:223|31:175,1,150,12|2,0:0|0:0,0:0:0
152,128,101506,1,2,0:0:0
240,288,101677,22,0,B|216:320|144:320,1,75,0|2,0:0|0:0,0:0:0
324,176,102020,2,0,B|292:80,1,75,4|2,0:0|0:0,0:0:0
472,184,102363,2,0,B|509:259|456:336,1,150,12|2,0:0|0:0,0:0:0
462,326,102877,1,2,0:0:0
240,288,103049,2,0,B|224:192,1,75,0|2,0:0|0:0,0:0:0
280,40,103392,2,0,B|296:136,1,75,2|2,0:0|0:0,0:0:0
392,200,103734,2,0,B|319:213,1,75,12|0,0:0|0:0,0:0:0
120,104,104077,2,0,B|193:116,1,75,0|0,0:0|0:0,0:0:0
488,120,104420,6,0,B|481:194,1,75,0|0,0:0|0:0,0:0:0
408,352,104763,2,0,B|416:240,1,75
384,120,105106,2,0,B|368:32,1,75,12|0,0:0|0:0,0:0:0
184,64,105449,2,0,B|276:40,1,75,4|2,0:0|0:0,0:0:0
270,153,105792,2,0,B|312:216,1,75,0|2,0:0|0:0,0:0:0
225,271,106134,2,0,B|188:272|144:264,1,75
352,296,106477,2,0,B|427:290,1,75,12|0,0:0|0:0,0:0:0
196,174,106820,2,2,B|124:158|48:152,1,150,2|4,0:0|0:0,0:0:0
0,264,107334,5,8,0:0:0
104,312,107506,1,10,0:0:0
152,208,107677,1,8,0:0:0
272,112,107849,5,12,0:0:0
328,200,108020,1,4,0:0:0
408,136,108192,1,2,0:0:0
352,48,108363,1,2,0:0:0
48,152,108534,21,4,0:0:0
48,152,109906,54,2,B|119:106|192:136,1,138.750006202609,2|0,0:0|0:0,0:0:0
328,200,110249,2,0,B|374:129|336:48,1,138.750006202609,2|2,0:0|0:0,0:0:0
200,136,110592,2,2,B|149:186|175:265,1,138.750006202609,12|2,0:0|0:0,0:0:0
232,368,110934,1,2,0:0:0
376,304,111106,1,0,0:0:0
376,304,111192,1,0,0:0:0
376,304,111277,38,0,B|456:312,1,75,0|0,0:0|0:0,0:0:0
256,208,111620,2,0,B|248:288,1,75,2|0,0:0|0:0,0:0:0
168,56,111963,2,0,B|256:56,1,75,12|0,0:0|0:0,0:0:0
488,80,112306,2,0,B|376:72,1,112.5
376,72,112649,22,2,B|344:142|344:206,1,138.750006202609
176,208,112992,2,2,B|107:202|37:208,1,138.750006202609,0|2,0:0|0:0,0:0:0
36,208,113249,1,0,0:0:0
36,208,113334,1,12,0:0:0
264,144,113506,1,2,0:0:0
272,264,113677,2,2,B|328:312|408:312,1,138.750006202609
504,256,114020,21,0,0:0:0
360,192,114192,2,2,B|384:112|344:24,1,150,2|0,0:0|0:0,0:0:0
160,48,114706,1,12,0:0:0
352,44,114877,1,2,0:0:0
160,48,115049,1,2,0:0:0
352,44,115220,1,2,0:0:0
160,48,115392,38,2,B|152:96|128:112|128:112|136:200,1,138.750006202609,6|2,0:0|0:0,0:0:0
72,344,115734,2,2,B|48:288|48:288|41:206,1,138.750006202609,2|2,0:0|0:0,0:0:0
176,320,116077,2,2,B|216:316|248:304|248:304|336:320,1,138.750006202609,8|2,0:0|0:0,0:0:0
464,256,116420,2,2,B|400:248|400:248|312:224,1,138.750006202609
176,200,116763,6,0,B|152:168|163:116,1,75
376,104,117106,2,0,B|288:112,1,75,2|0,0:0|0:0,0:0:0
96,240,117449,2,0,B|88:280|108:314,1,75,8|0,0:0|0:0,0:0:0
336,360,117792,2,0,B|359:308|327:252,1,112.5,0|0,0:0|0:0,0:0:0
327,252,118134,54,2,B|392:257|392:257|408:249|408:249|464:257,1,138.750006202609,6|2,0:0|0:0,0:0:0
400,136,118477,2,2,B|480:144|480:144|512:64,1,138.750006202609,2|0,0:0|0:0,0:0:0
504,72,118734,1,0,0:0:0
504,48,118820,1,10,0:0:0
312,80,118992,1,2,0:0:0
230,194,119163,2,2,B|150:186|150:186|128:240,1,138.750006202609,2|2,0:0|0:0,0:0:0
328,248,119506,53,6,0:0:0
48,336,119677,2,2,B|0:272|32:176,1,150,2|0,0:0|0:0,0:0:0
144,80,120192,1,12,0:0:0
312,80,120363,1,2,0:0:0
144,80,120534,1,2,0:0:0
312,80,120706,1,2,0:0:0
408,208,120877,6,0,B|352:152|264:168,1,138.750006202609,2|0,0:0|0:0,0:0:0
168,184,121220,2,0,B|184:336,1,138.749999470711,2|2,0:0|0:0,0:0:0
309,306,121563,2,0,B|384:288|408:216,1,138.750006202609,10|2,0:0|0:0,0:0:0
472,344,121906,1,2,0:0:0
480,144,122077,1,0,0:0:0
480,144,122163,1,0,0:0:0
480,144,122249,38,0,B|486:105|488:64,1,75
312,72,122592,2,0,B|311:108|320:148,1,75,2|0,0:0|0:0,0:0:0
168,184,122934,2,0,B|93:184,1,75,12|0,0:0|0:0,0:0:0
96,32,123277,2,0,B|208:24,1,112.5,2|0,0:0|0:0,0:0:0
208,24,123620,22,2,B|240:94|240:158,1,138.750006202609,2|2,0:0|0:0,0:0:0
368,344,123963,2,2,B|336:274|336:210,1,138.750006202609,0|2,0:0|0:0,0:0:0
336,209,124220,1,0,0:0:0
336,209,124306,1,12,0:0:0
472,240,124477,1,2,0:0:0
240,280,124649,2,2,B|184:232|104:232,1,138.750006202609
0,312,124992,21,4,0:0:0
82,111,125163,2,2,B|160:88|160:128|229:120,1,150,2|0,0:0|0:0,0:0:0
230,120,125592,1,0,0:0:0
230,120,125677,1,12,0:0:0
376,112,125849,1,2,0:0:0
376,272,126020,1,2,0:0:0
240,280,126192,1,2,0:0:0
376,272,126363,38,2,B|440:304|440:304|528:296,1,138.750006202609,6|2,0:0|0:0,0:0:0
240,280,126706,2,0,B|176:248|176:248|88:256,1,138.750006202609,2|2,0:0|0:0,0:0:0
232,120,127049,2,2,B|360:200,1,138.750006202609,8|2,0:0|0:0,0:0:0
480,160,127392,2,2,B|352:72,1,138.750006202609
114,92,127734,6,0,B|112:128|132:168,1,75
325,291,128077,2,0,B|328:256|308:220,1,75,2|0,0:0|0:0,0:0:0
16,296,128420,2,0,B|8:327|32:367,1,75,8|0,0:0|0:0,0:0:0
128,168,128763,2,0,B|240:176,1,112.5,2|0,0:0|0:0,0:0:0
240,176,129106,54,2,B|240:112|240:112|235:39,1,138.750006202609,6|2,0:0|0:0,0:0:0
168,264,129449,1,2,0:0:0
312,232,129620,1,0,0:0:0
312,232,129706,1,0,0:0:0
312,232,129792,2,2,B|312:304|312:304|280:384,1,138.750006202609,12|2,0:0|0:0,0:0:0
24,264,130134,2,2,B|24:192|24:192|56:112,1,138.750006202609,12|2,0:0|0:0,0:0:0
312,112,130477,53,8,0:0:0
312,112,131849,22,2,B|385:116|385:116|401:116|401:116|473:124,1,150,4|0,0:0|0:0,0:0:0
440,256,132363,1,2,0:0:0
461,122,132534,1,8,0:0:0
440,256,132706,1,0,0:0:0
304,272,132877,2,0,B|240:224|152:264,1,150
40,280,133392,2,0,B|18:212|32:120,1,150
31,132,133820,1,0,0:0:0
31,132,133906,2,0,B|128:128,1,75,8|0,0:0|0:0,0:0:0
424,208,134249,1,4,0:0:0
424,208,134592,6,0,B|499:202,1,75,4|0,0:0|0:0,0:0:0
402,121,134934,2,0,B|328:128,1,75,2|0,0:0|0:0,0:0:0
234,294,135277,2,0,B|384:288,1,150,8|0,0:0|0:0,0:0:0
72,144,135963,5,0,0:0:0
48,288,136134,1,0,0:0:0
136,272,136306,1,0,0:0:0
8,208,136477,1,0,0:0:0
152,184,136649,1,8,0:0:0
176,176,136734,1,0,0:0:0
200,168,136820,1,0,0:0:0
312,64,136992,1,0,0:0:0
344,216,137163,1,0,0:0:0
312,64,137334,6,2,B|368:56|440:64,1,112.5,4|0,0:0|0:0,0:0:0
488,208,137677,1,0,0:0:0
488,208,138020,2,0,B|493:246|485:282,1,75,8|0,0:0|0:0,0:0:0
256,336,138363,2,0,B|251:297|259:261,1,75
259,261,138620,1,0,0:0:0
259,261,138706,2,0,B|169:247,1,75
432,360,139049,2,0,B|341:347,1,75
120,328,139392,1,8,0:0:0
96,224,139563,1,0,0:0:0
64,112,139734,1,4,0:0:0
64,112,140077,21,4,0:0:0
192,120,140249,1,2,0:0:0
192,120,140334,1,2,0:0:0
192,120,140420,1,2,0:0:0
328,136,140592,1,0,0:0:0
442,132,140763,1,0,0:0:0
440,154,140849,1,2,0:0:0
439,176,140934,1,2,0:0:0
437,198,141020,1,2,0:0:0
437,220,141106,2,0,B|429:318,1,75
256,288,141449,5,0,0:0:0
256,288,141620,1,0,0:0:0
100,278,141792,1,0,0:0:0
81,290,141877,1,2,0:0:0
61,279,141963,1,2,0:0:0
40,288,142049,1,2,0:0:0
16,288,142134,2,0,B|0:248|0:208,1,75,8|0,0:0|0:0,0:0:0
160,208,142477,1,4,0:0:0
152,360,142649,1,0,0:0:0
112,120,142820,6,0,B|96:80|96:47,1,75,4|2,0:0|0:0,0:0:0
240,80,143163,2,0,B|272:208,1,112.5,2|0,0:0|0:0,0:0:0
267,189,143506,2,0,B|304:224|376:192|416:216,1,150,8|0,0:0|0:0,0:0:0
504,264,144020,1,0,0:0:0
456,368,144192,1,2,0:0:0
352,312,144363,1,0,0:0:0
168,248,144534,1,2,0:0:0
104,144,144706,1,0,0:0:0
200,80,144877,2,0,B|304:88,1,75,8|0,0:0|0:0,0:0:0
104,144,145220,2,0,B|16:144,1,75,4|0,0:0|0:0,0:0:0
56,256,145563,6,2,B|42:318|34:366,1,112.5,4|0,0:0|0:0,0:0:0
34,366,145906,1,2,0:0:0
136,336,146077,1,0,0:0:0
168,240,146249,2,0,B|179:190|184:152,1,75,8|0,0:0|0:0,0:0:0
232,64,146592,1,0,0:0:0
280,232,146763,2,0,B|329:219|353:217,1,75,0|2,0:0|0:0,0:0:0
445,294,147106,2,0,B|443:318|432:368,1,75,0|0,0:0|0:0,0:0:0
408,64,147449,1,2,0:0:0
512,144,147620,2,0,B|499:217,1,75,8|0,0:0|0:0,0:0:0
416,168,147963,21,4,0:0:0
312,136,148134,1,0,0:0:0
200,104,148306,2,2,B|187:30,1,75,4|2,0:0|0:0,0:0:0
16,80,148649,2,0,B|90:67,1,75,2|0,0:0|0:0,0:0:0
56,240,148992,1,8,0:0:0
144,352,149163,1,0,0:0:0
56,240,149334,1,0,0:0:0
144,352,149506,1,0,0:0:0
56,240,149677,6,0,B|144:216,1,75,2|0,0:0|0:0,0:0:0
200,104,150020,2,0,B|240:88|296:96,1,75
384,120,150363,1,8,0:0:0
352,248,150534,1,2,0:0:0
240,216,150706,1,4,0:0:0
273,93,150877,1,2,0:0:0
160,296,151049,5,4,0:0:0
104,184,151220,1,2,0:0:0
100,161,151306,1,2,0:0:0
103,138,151392,1,2,0:0:0
128,40,151563,1,0,0:0:0
240,216,151734,1,0,0:0:0
255,232,151820,1,2,0:0:0
264,252,151906,1,2,0:0:0
266,274,151992,1,2,0:0:0
264,296,152077,2,0,B|263:338|245:390,1,75,0|0,0:0|0:0,0:0:0
88,312,152420,5,4,0:0:0
88,312,153792,22,2,B|132:224|92:152,1,150,4|2,0:0|0:0,0:0:0
276,72,154306,2,0,B|184:68,1,75,0|8,0:0|0:0,0:0:0
292,148,154649,2,0,B|444:156,1,150,2|0,0:0|0:0,0:0:0
476,80,155163,1,0,0:0:0
412,32,155334,1,0,0:0:0
408,232,155506,1,0,0:0:0
492,264,155677,1,0,0:0:0
408,232,155849,1,8,0:0:0
332,280,156020,6,0,B|232:264,1,75,4|4,0:0|0:0,0:0:0
172,296,156363,1,4,0:0:0
48,176,156534,2,2,B|200:212,1,150,4|2,0:0|0:0,0:0:0
256,264,157049,1,0,0:0:0
368,104,157220,2,0,B|300:144,1,75,8|0,0:0|0:0,0:0:0
328,220,157563,1,0,0:0:0
160,64,157734,5,0,0:0:0
160,64,157820,1,0,0:0:0
160,64,157906,2,0,B|88:80,1,75
208,132,158249,2,0,B|280:116,1,75
300,36,158592,1,8,0:0:0
372,76,158763,1,2,0:0:0
300,244,158934,1,4,0:0:0
224,272,159106,1,0,0:0:0
144,296,159277,6,2,B|76:148,1,150,4|2,0:0|0:0,0:0:0
32,92,159792,1,0,0:0:0
196,96,159963,2,0,B|264:120|352:104,1,150,8|0,0:0|0:0,0:0:0
468,188,160477,1,0,0:0:0
464,200,160563,1,0,0:0:0
460,214,160649,22,0,B|432:294,1,75
352,300,160992,1,2,0:0:0
208,272,161163,1,0,0:0:0
140,320,161334,1,8,0:0:0
200,144,161506,1,4,0:0:0
264,96,161677,1,0,0:0:0
132,192,161849,1,4,0:0:0
328,48,162020,5,4,0:0:0
420,220,162192,1,2,0:0:0
432,232,162277,1,2,0:0:0
444,244,162363,2,0,B|504:300,1,75,2|0,0:0|0:0,0:0:0
360,160,162706,1,8,0:0:0
348,148,162792,1,2,0:0:0
336,136,162877,1,2,0:0:0
324,124,162963,1,2,0:0:0
312,112,163049,2,0,B|208:88,1,75
80,172,163392,6,0,B|184:196,1,75
312,252,163734,1,0,0:0:0
324,264,163820,1,2,0:0:0
336,276,163906,1,2,0:0:0
348,288,163992,1,2,0:0:0
360,300,164077,1,8,0:0:0
436,264,164249,1,4,0:0:0
456,148,164420,2,2,B|472:64,1,75,0|0,0:0|0:0,0:0:0
240,108,164763,6,2,B|216:260,1,150,4|2,0:0|0:0,0:0:0
152,340,165277,1,0,0:0:0
320,272,165449,2,0,B|488:304,1,150,8|0,0:0|0:0,0:0:0
508,372,165963,1,0,0:0:0
468,204,166134,21,0,0:0:0
440,124,166306,1,0,0:0:0
364,152,166477,1,0,0:0:0
392,232,166649,1,0,0:0:0
232,96,166820,2,0,B|160:120|80:108,1,150,8|4,0:0|0:0,0:0:0
24,52,167334,1,0,0:0:0
80,192,167506,6,2,B|76:352,1,150,4|2,0:0|0:0,0:0:0
156,364,168020,1,0,0:0:0
426,237,168192,2,0,B|352:264|280:224,1,150,8|0,0:0|0:0,0:0:0
184,92,168706,5,0,0:0:0
168,96,168792,1,0,0:0:0
156,100,168877,2,0,B|72:120,1,75
96,200,169220,1,0,0:0:0
112,280,169392,1,0,0:0:0
252,172,169563,2,0,B|272:16,1,150,8|6,0:0|0:0,0:0:0
352,12,170077,1,0,0:0:0
340,184,170249,6,2,B|504:196,1,150,4|2,0:0|0:0,0:0:0
512,276,170763,1,0,0:0:0
320,264,170934,2,0,B|168:256,1,150,8|0,0:0|0:0,0:0:0
68,176,171449,1,0,0:0:0
56,164,171534,1,0,0:0:0
44,152,171620,2,0,B|32:68,1,75
144,20,171963,2,0,B|156:104,1,75,2|0,0:0|0:0,0:0:0
212,152,172306,1,8,0:0:0
327,57,172477,1,0,0:0:0
435,167,172649,1,4,0:0:0
322,261,172820,1,0,0:0:0
206,300,172992,21,4,0:0:0
126,276,173163,1,2,0:0:0
110,272,173249,1,2,0:0:0
96,268,173334,2,0,B|20:244,1,75,0|0,0:0|0:0,0:0:0
222,129,173677,1,8,0:0:0
242,133,173763,1,2,0:0:0
258,137,173849,1,2,0:0:0
278,141,173934,1,2,0:0:0
298,145,174020,2,0,B|370:165,1,75,8|0,0:0|0:0,0:0:0
438,119,174363,5,4,0:0:0
256,192,174449,12,4,175734,0:0:0
