osu file format v10

[General]
AudioFilename: Kyoto feat. Sirah (Original Mix).mp3
AudioLeadIn: 2000
PreviewTime: 64756
Countdown: 0
SampleSet: Normal
StackLeniency: 0.7
Mode: 0
LetterboxInBreaks: 1

[Editor]
Bookmarks: 22241,44184,55156,66127,131956,153899,175841,197784
DistanceSpacing: 1.2
BeatDivisor: 4
GridSize: 4

[Metadata]
Title:Kyoto (feat. Sirah)
TitleUnicode:
Artist:Skrillex
ArtistUnicode:
Creator:Frozen Child
Version:Easy
Source:
Tags:La Cataline Vass_Bass Reiji-RJ Lepidopodus Dubstep
BeatmapID:167635
BeatmapSetID:55226

[Difficulty]
HPDrainRate:2
CircleSize:3
OverallDifficulty:2
ApproachRate:3
SliderMultiplier:1.6
SliderTickRate:1

[Events]
//Background and Video events
0,0,"1304278294440.jpg"
//Break Periods
2,44277,53609
//Storyboard Layer 0 (Background)
//Storyboard Layer 1 (Fail)
//Storyboard Layer 2 (Pass)
//Storyboard Layer 3 (Foreground)
//Storyboard Sound Samples
//Background Colour Transformations
3,100,163,162,255

[TimingPoints]
192,685.714285714286,4,1,1,55,1,0
534,-100,4,2,1,55,0,0
1220,-100,4,1,1,55,0,0
1906,-100,4,2,1,55,0,0
2506,-100,4,1,1,55,0,0
3020,-100,4,2,1,55,0,0
3963,-100,4,1,1,55,0,0
4820,-100,4,2,1,55,0,0
5420,-100,4,1,1,55,0,0
6363,-100,4,2,1,55,0,0
6620,-100,4,1,1,55,0,0
7734,-100,4,2,1,55,0,0
8420,-100,4,1,1,55,0,0
8506,-100,4,2,1,55,0,0
9449,-100,4,1,1,55,0,0
10563,-100,4,2,1,55,0,0
10906,-100,4,1,1,55,0,0
11849,-100,4,2,1,55,0,0
12192,-100,4,1,1,55,0,0
12792,-100,4,2,1,55,0,0
13477,-100,4,1,1,55,0,0
13992,-100,4,2,1,55,0,0
14934,-100,4,1,1,55,0,0
15792,-100,4,2,1,55,0,0
16392,-100,4,1,1,55,0,0
16992,-100,4,2,1,55,0,0
17592,-100,4,1,1,55,0,0
18277,-100,4,2,1,55,0,0
18963,-100,4,1,1,55,0,0
19477,-100,4,2,1,55,0,0
20420,-100,4,1,1,55,0,0
21449,-100,4,2,1,55,0,0
22049,-100,4,1,1,65,0,0
32677,-100,4,2,1,65,0,0
32849,-100,4,1,1,65,0,0
43477,-100,4,2,1,75,0,0
43820,-100,4,1,1,75,0,0
66020,-100,4,1,1,75,0,1
67306,-100,4,1,1,75,0,0
68763,-100,4,1,1,75,0,1
70048,-100,4,1,1,75,0,0
71506,-100,4,1,1,75,0,1
72706,-100,4,1,1,75,0,0
74249,-100,4,1,1,75,0,1
75449,-100,4,1,1,75,0,0
76992,-100,4,1,1,75,0,1
78192,-100,4,1,1,75,0,0
79734,-100,4,1,1,75,0,1
80934,-100,4,1,1,75,0,0
82477,-100,4,1,1,75,0,1
83677,-100,4,1,1,75,0,0
85220,-100,4,1,1,75,0,1
86420,-100,4,1,1,75,0,0
88134,-100,4,2,1,55,0,0
88563,-100,4,1,1,55,0,0
89506,-100,4,2,1,55,0,0
89934,-100,4,1,1,55,0,0
90877,-100,4,2,1,55,0,0
91392,-100,4,1,1,55,0,0
92249,-100,4,2,1,55,0,0
92677,-100,4,1,1,55,0,0
93620,-100,4,2,1,55,0,0
94134,-100,4,1,1,55,0,0
94306,-100,4,2,1,55,0,0
94820,-100,4,1,1,55,0,0
95677,-100,4,2,1,55,0,0
96192,-100,4,1,1,55,0,0
96277,-100,4,2,1,55,0,0
96792,-100,4,1,1,55,0,0
96963,-100,4,2,1,55,0,0
97477,-100,4,1,1,55,0,0
98334,-100,4,2,1,55,0,0
98934,-100,4,1,1,55,0,0
99963,-100,4,2,1,55,0,0
100220,-100,4,1,1,55,0,0
101334,-100,4,2,1,55,0,0
101592,-100,4,1,1,55,0,0
102706,-100,4,2,1,55,0,0
103049,-100,4,1,1,55,0,0
103906,-100,4,2,1,55,0,0
108449,-100,4,1,1,55,0,0
109906,-100,4,1,1,75,0,1
111277,-100,4,1,1,75,0,0
112649,-100,4,1,1,75,0,1
114020,-100,4,1,1,75,0,0
115392,-100,4,1,1,75,0,1
116763,-100,4,1,1,75,0,0
118134,-100,4,1,1,75,0,1
119506,-100,4,1,1,75,0,0
120877,-100,4,1,1,75,0,1
122249,-100,4,1,1,75,0,0
123620,-100,4,1,1,75,0,1
124992,-100,4,1,1,75,0,0
126363,-100,4,1,1,75,0,1
127734,-100,4,1,1,75,0,0
129106,-100,4,1,1,75,0,1
130477,-100,4,1,1,75,0,0
131935,-100,4,1,1,75,0,0
133734,-100,4,2,1,75,0,0
134163,-100,4,1,1,75,0,0
134763,-100,4,2,1,75,0,0
135620,-100,4,1,1,75,0,0
136392,-100,4,2,1,75,0,0
137077,-100,4,1,1,75,0,0
137934,-100,4,2,1,75,0,0
138363,-100,4,1,1,75,0,0
138963,-100,4,2,1,75,0,0
139649,-100,4,1,1,75,0,0
140163,-100,4,2,1,75,0,0
141106,-100,4,1,1,75,0,0
141877,-100,4,2,1,75,0,0
142563,-100,4,1,1,75,0,0
142992,-100,4,2,1,75,0,0
143849,-100,4,1,1,75,0,0
144449,-100,4,2,1,75,0,0
145134,-100,4,1,1,75,0,0
145820,-100,4,2,1,75,0,0
146506,-100,4,1,1,75,0,0
147277,-100,4,2,1,75,0,0
148049,-100,4,1,1,75,0,0
148477,-100,4,2,1,75,0,0
149249,-100,4,1,1,75,0,0
149934,-100,4,2,1,75,0,0
150620,-100,4,1,1,75,0,0
151134,-100,4,2,1,75,0,0
152077,-100,4,1,1,75,0,0
154477,-100,4,2,1,55,0,0
154820,-100,4,1,1,55,0,0
155420,-100,4,2,1,55,0,0
156192,-100,4,1,1,55,0,0
156877,-100,4,2,1,55,0,0
157477,-100,4,1,1,55,0,0
158420,-100,4,2,1,55,0,0
159020,-100,4,1,1,55,0,0
159620,-100,4,2,1,55,0,0
160306,-100,4,1,1,55,0,0
160906,-100,4,2,1,55,0,0
161592,-100,4,1,1,55,0,0
162106,-100,4,2,1,55,0,0
163306,-100,4,1,1,55,0,0
163477,-100,4,2,1,55,0,0
164592,-100,4,1,1,55,0,0
173334,-100,4,2,1,55,0,0
173677,-100,4,1,1,55,0,0
173849,-100,4,2,1,55,0,0
175563,-100,4,1,1,55,0,0

[Colours]
Combo1 : 45,251,173
Combo2 : 255,139,83
Combo3 : 89,255,89
Combo4 : 252,90,67

[HitObjects]
96,144,192,2,0,B|176:192,1,80,4|2,0:0|0:0,0:0:0
256,160,877,1,8,0:0:0
344,128,1220,2,0,B|416:120|432:56,2,120,0|0|8,0:0|0:0|0:0,0:0:0
368,224,2592,1,0,0:0:0
352,320,2934,6,0,B|184:320,1,160,4|8,0:0|0:0,0:0:0
152,232,3963,2,0,B|328:232,1,160
328,136,4992,1,8,0:0:0
496,44,5677,6,0,B|496:204,1,160,4|8,0:0|0:0,0:0:0
436,280,6706,1,0,0:0:0
292,284,7220,1,0,0:0:0
148,288,7734,1,8,0:0:0
56,120,8420,6,0,B|24:32,1,80,0|2,0:0|0:0,0:0:0
124,60,9106,2,0,B|156:148,1,80,8|0,0:0|0:0,0:0:0
248,152,9792,2,0,B|216:72,1,80,0|0,0:0|0:0,0:0:0
312,88,10477,2,0,B|344:168,1,80,8|4,0:0|0:0,0:0:0
404,236,11163,22,0,B|388:316|300:332|276:316,1,160,4|8,0:0|0:0,0:0:0
208,264,12192,1,0,0:0:0
116,152,12706,1,0,0:0:0
228,60,13220,1,8,0:0:0
292,132,13563,1,4,0:0:0
384,136,13906,6,0,B|416:216|384:296,1,160,0|8,0:0|0:0,0:0:0
312,352,14934,1,0,0:0:0
256,216,15449,1,0,0:0:0
120,272,15963,1,8,0:0:0
96,80,16649,6,0,B|168:128|264:96,1,160,4|8,0:0|0:0,0:0:0
336,64,17677,1,0,0:0:0
416,184,18192,1,0,0:0:0
476,52,18706,1,8,0:0:0
488,248,19392,6,0,B|472:344,1,80,0|2,0:0|0:0,0:0:0
384,352,20077,2,0,B|400:264,1,80,8|0,0:0|0:0,0:0:0
324,212,20763,2,0,B|308:292,1,80
216,320,21449,2,0,B|232:240,1,80,8|4,0:0|0:0,0:0:0
128,240,22134,22,0,B|120:160|200:128|240:144,1,160,4|8,0:0|0:0,0:0:0
256,48,23163,1,0,0:0:0
360,144,23677,1,0,0:0:0
320,280,24192,1,8,0:0:0
128,312,24877,6,0,B|64:152,1,160,0|8,0:0|0:0,0:0:0
80,64,25906,1,0,0:0:0
224,40,26420,1,0,0:0:0
256,176,26934,1,8,0:0:0
400,296,27620,6,0,B|392:216|440:144,1,160,0|8,0:0|0:0,0:0:0
400,56,28649,1,0,0:0:0
256,80,29163,1,0,0:0:0
112,56,29677,1,8,0:0:0
80,248,30363,6,0,B|152:208|224:256|224:296,1,160,0|8,0:0|0:0,0:0:0
296,336,31392,1,0,0:0:0
376,280,31734,2,0,B|392:200,1,80
488,224,32420,2,0,B|504:144,1,80,8|4,0:0|0:0,0:0:0
464,56,33106,22,0,B|400:96|304:80,1,160,4|8,0:0|0:0,0:0:0
256,160,34134,1,0,0:0:0
144,64,34649,1,0,0:0:0
75,190,35163,1,8,0:0:0
208,328,35849,6,0,B|368:312,1,160,0|8,0:0|0:0,0:0:0
432,248,36877,1,0,0:0:0
472,112,37392,1,0,0:0:0
344,48,37906,1,8,0:0:0
208,184,38592,6,0,B|200:112|120:80|80:96,1,160,0|8,0:0|0:0,0:0:0
32,168,39620,1,0,0:0:0
112,288,40134,1,0,0:0:0
256,296,40649,1,8,0:0:0
448,288,41334,6,0,B|456:128,1,160,0|8,0:0|0:0,0:0:0
392,56,42363,1,0,0:0:0
328,128,42706,2,0,B|304:176,2,40
272,48,43392,1,8,0:0:0
176,72,43734,1,4,0:0:0
128,152,44077,5,4,0:0:0
48,332,55049,6,0,B|16:252,1,80
88,188,55734,2,0,B|120:276,1,80
192,204,56420,2,0,B|192:116,1,80
212,28,57106,1,0,0:0:0
268,108,57449,1,0,0:0:0
352,72,57792,6,0,B|376:120|424:120,1,80
448,208,58477,2,0,B|400:232|400:280,1,80
320,320,59163,1,0,0:0:0
224,304,59506,1,0,0:0:0
128,284,59849,2,0,B|152:176,1,80
256,192,60534,12,4,64649,0:0:0
104,320,66020,6,2,B|80:152,1,160,6|8,0:0|0:0,0:0:0
152,96,67049,1,0,0:0:0
176,192,67392,2,0,B|336:192,1,160,0|8,0:0|0:0,0:0:0
360,96,68420,1,2,0:0:0
456,72,68763,6,2,B|480:160|456:240,1,160,2|8,0:0|0:0,0:0:0
424,320,69792,1,0,0:0:0
336,288,70134,2,0,B|168:248,1,160,0|8,0:0|0:0,0:0:0
88,224,71163,1,0,0:0:0
128,136,71506,6,2,B|288:176,1,160,2|8,0:0|0:0,0:0:0
376,200,72534,1,0,0:0:0
408,112,72877,2,0,B|240:64,1,160,0|8,0:0|0:0,0:0:0
168,32,73906,1,2,0:0:0
104,104,74249,6,2,B|136:192|96:264,1,160,2|8,0:0|0:0,0:0:0
48,336,75277,1,0,0:0:0
144,336,75620,2,0,B|320:336,1,160,0|8,0:0|0:0,0:0:0
400,344,76649,1,0,0:0:0
464,280,76992,6,2,B|472:112,1,160,6|8,0:0|0:0,0:0:0
480,24,78020,1,0,0:0:0
392,72,78363,2,0,B|304:104|224:64,1,160,0|8,0:0|0:0,0:0:0
152,24,79392,1,2,0:0:0
64,64,79734,6,2,B|88:152|48:232,1,160,2|8,0:0|0:0,0:0:0
8,304,80763,1,0,0:0:0
104,304,81106,2,0,B|248:216,1,160,0|8,0:0|0:0,0:0:0
320,168,82134,1,0,0:0:0
376,240,82477,6,2,B|432:192|408:104|360:96,1,160,2|8,0:0|0:0,0:0:0
288,64,83506,1,0,0:0:0
192,80,83849,2,0,B|24:80,1,160,0|8,0:0|0:0,0:0:0
32,176,84877,1,2,0:0:0
80,256,85220,6,2,B|208:288|336:256,1,240,2|0,0:0|0:0,0:0:0
385,192,86592,1,4,0:0:0
456,80,87963,6,0,B|376:72,1,80,4|2,0:0|0:0,0:0:0
280,56,88649,1,8,0:0:0
88,64,89334,6,0,B|72:152,1,80,4|2,0:0|0:0,0:0:0
56,240,90020,1,8,0:0:0
200,368,90706,6,0,B|280:376,1,80,4|2,0:0|0:0,0:0:0
376,352,91392,1,8,0:0:0
448,176,92077,6,0,B|464:88,1,80,4|2,0:0|0:0,0:0:0
368,76,92763,1,8,0:0:0
180,32,93449,6,0,B|12:32,1,160,0|8,0:0|0:0,0:0:0
4,128,94477,1,0,0:0:0
100,140,94820,2,0,B|164:196|124:292,1,160,0|8,0:0|0:0,0:0:0
144,380,95849,1,0,0:0:0
224,324,96192,6,0,B|224:228,2,80,0|4|8,0:0|0:0|0:0,0:0:0
304,376,97220,1,4,0:0:0
380,317,97563,2,0,B|385:150,1,160,0|8,0:0|0:0,0:0:0
322,83,98592,1,4,0:0:0
228,64,98934,6,0,B|228:224,1,160,0|8,0:0|0:0,0:0:0
228,320,99963,1,4,0:0:0
132,316,100306,2,0,B|132:148,1,160,0|8,0:0|0:0,0:0:0
104,72,101334,1,4,0:0:0
192,40,101677,6,0,B|360:56,1,160,0|8,0:0|0:0,0:0:0
424,120,102706,1,4,0:0:0
360,192,103049,2,0,B|344:280|368:360,1,160,0|8,0:0|0:0,0:0:0
464,352,104077,1,4,0:0:0
256,192,104420,12,4,108534,0:0:0
104,64,109906,6,2,B|80:232,1,160,6|8,0:0|0:0,0:0:0
152,288,110935,1,0,0:0:0
176,192,111278,2,0,B|336:192,1,160,0|8,0:0|0:0,0:0:0
360,288,112306,1,2,0:0:0
456,312,112649,6,2,B|480:224|456:144,1,160,2|8,0:0|0:0,0:0:0
424,64,113678,1,0,0:0:0
336,96,114020,2,0,B|168:136,1,160,0|8,0:0|0:0,0:0:0
88,160,115049,1,0,0:0:0
128,248,115392,6,2,B|288:208,1,160,2|8,0:0|0:0,0:0:0
376,184,116420,1,0,0:0:0
408,272,116763,2,0,B|240:320,1,160,0|8,0:0|0:0,0:0:0
168,352,117792,1,2,0:0:0
96,288,118135,6,2,B|128:200|88:128,1,160,2|8,0:0|0:0,0:0:0
40,56,119163,1,0,0:0:0
132,36,119506,2,0,B|308:36,1,160,0|8,0:0|0:0,0:0:0
392,40,120535,1,0,0:0:0
464,104,120878,6,2,B|472:272,1,160,2|8,0:0|0:0,0:0:0
480,360,121906,1,0,0:0:0
392,312,122249,2,0,B|304:280|224:320,1,160,0|8,0:0|0:0,0:0:0
152,360,123278,1,2,0:0:0
64,320,123620,6,2,B|88:232|48:152,1,160,2|8,0:0|0:0,0:0:0
8,80,124649,1,0,0:0:0
104,80,124992,2,0,B|248:168,1,160,0|8,0:0|0:0,0:0:0
320,216,126020,1,0,0:0:0
376,144,126363,6,2,B|432:192|408:280|360:288,1,160,2|8,0:0|0:0,0:0:0
288,320,127392,1,0,0:0:0
192,304,127735,2,0,B|24:304,1,160,0|8,0:0|0:0,0:0:0
32,208,128763,1,2,0:0:0
80,128,129106,6,2,B|208:96|336:128,1,240,2|0,0:0|0:0,0:0:0
408,160,130478,1,4,0:0:0
112,288,131849,6,0,B|192:264|272:312,1,160,4|8,0:0|2:0,0:0:0
344,368,132877,1,0,0:0:0
360,224,133392,1,0,0:0:0
336,80,133906,1,8,0:0:0
244,56,134249,5,0,0:0:0
200,140,134592,2,0,B|120:116|40:140,1,160,4|8,0:0|0:0,0:0:0
16,232,135620,1,0,0:0:0
120,328,136134,2,0,B|168:344,1,40
248,312,136649,1,8,0:0:0
404,272,137334,6,0,B|452:120,1,160,4|8,0:0|0:0,0:0:0
364,84,138363,1,0,0:0:0
256,180,138877,1,0,0:0:0
148,84,139392,1,8,0:0:0
164,180,139734,5,0,0:0:0
120,264,140077,2,0,B|160:344,1,80,0|2,0:0|0:0,0:0:0
252,344,140763,2,0,B|212:264,1,80,8|0,0:0|0:0,0:0:0
264,188,141449,2,0,B|304:260,1,80
400,264,142134,2,0,B|360:192,1,80,8|0,0:0|0:0,0:0:0
432,128,142820,6,0,B|392:56|288:64,1,160,4|8,0:0|0:0,0:0:0
256,152,143849,1,0,0:0:0
256,296,144363,1,0,0:0:0
128,232,144877,1,8,0:0:0
96,144,145220,5,4,0:0:0
16,88,145563,2,0,B|24:48|88:32|136:40|152:64,1,160,4|8,0:0|0:0,0:0:0
216,136,146592,1,0,0:0:0
344,192,147106,1,0,0:0:0
256,304,147620,1,8,0:0:0
164,280,147963,1,2,0:0:0
176,184,148306,6,0,B|128:112|32:136,1,160,4|8,0:0|0:0,0:0:0
80,224,149334,1,0,0:0:0
200,296,149849,1,0,0:0:0
336,256,150363,1,8,0:0:0
248,216,150706,5,0,0:0:0
328,160,151049,2,0,B|368:80,1,80,0|2,0:0|0:0,0:0:0
456,88,151734,2,0,B|416:176,1,80,8|0,0:0|0:0,0:0:0
256,192,152420,12,4,153792,0:0:0
96,192,154477,5,8,0:0:0
184,144,154820,1,0,0:0:0
256,264,155334,1,0,0:0:0
328,144,155849,1,8,0:0:0
416,192,156192,1,4,0:0:0
432,288,156534,6,0,B|416:344|376:360|376:360|296:360,1,160,4|8,0:0|0:0,0:0:0
256,280,157563,1,0,0:0:0
128,344,158077,1,0,0:0:0
36,232,158592,1,8,0:0:0
36,136,158934,1,4,0:0:0
112,76,159277,6,0,B|272:36,1,160,4|8,0:0|0:0,0:0:0
336,104,160306,2,0,B|336:165|304:224,2,120,0|0|8,0:0|0:0|0:0,0:0:0
404,36,161677,1,0,0:0:0
464,104,162020,6,0,B|456:200,1,80,4|2,0:0|0:0,0:0:0
368,224,162706,2,0,B|360:320,1,80,8|2,0:0|0:0,0:0:0
280,360,163392,2,0,B|112:344,1,160,0|8,0:0|0:0,0:0:0
64,268,164420,1,4,0:0:0
40,176,164763,6,0,B|200:144,1,160,4|8,0:0|0:0,0:0:0
256,64,165792,1,0,0:0:0
388,120,166306,1,0,0:0:0
324,248,166820,1,8,0:0:0
308,344,167163,5,4,0:0:0
392,328,167506,2,0,B|456:264|416:176,1,160,4|8,0:0|0:0,0:0:0
328,144,168534,1,0,0:0:0
256,272,169049,1,0,0:0:0
144,180,169563,1,8,0:0:0
216,68,170249,6,0,B|256:148|360:124,1,160,4|8,0:0|0:0,0:0:0
436,84,171277,1,0,0:0:0
428,228,171792,1,0,0:0:0
300,296,172306,1,8,0:0:0
244,216,172649,5,4,0:0:0
328,168,172992,2,0,B|320:88,1,80,4|2,0:0|0:0,0:0:0
232,48,173677,2,0,B|236:127,1,80,12|2,0:0|0:0,0:0:0
256,192,174363,12,4,175734,0:0:0
