osu file format v9

[General]
AudioFilename: SKRILLEX - Kill EVERYBODY.mp3
AudioLeadIn: 0
PreviewTime: 79327
Countdown: 0
SampleSet: Normal
StackLeniency: 0.7
Mode: 0
LetterboxInBreaks: 1
EpilepsyWarning: 1

[Editor]
Bookmarks: 15192,181023,213622,230157,292757,295827
DistanceSpacing: 0.2
BeatDivisor: 6
GridSize: 8

[Metadata]
Title:Kill EVERYBODY
Artist:Skrillex
Creator:thekillerhjkhjk
Version:WUBWUBWUB
Source:Scary Monsters And Nice Sprites
Tags:SKRILLEX Dubstep wubstep dirtystep

[Difficulty]
HPDrainRate:8
CircleSize:5
OverallDifficulty:8
ApproachRate:7
SliderMultiplier:2.24
SliderTickRate:2

[Events]
//Background and Video events
0,0,"skrillex_by_chollo-d378sfs.png"
//Break Periods
2,45630,59648
2,147680,161699
//Storyboard Layer 0 (Background)
//Storyboard Layer 1 (Fail)
//Storyboard Layer 2 (Pass)
//Storyboard Layer 3 (Foreground)
//Storyboard Sound Samples
//Background Colour Transformations
3,100,163,162,255

[TimingPoints]
74.3085304034261,472.455825380327,4,1,0,65,1,0
30311,-83.3333333333333,4,1,0,65,0,0
60429,-133.333333333333,4,2,0,100,0,0
75548,-100,4,2,0,100,0,0
79446,-66.6666666666667,4,1,0,70,0,1
111513,-133.333333333333,4,2,0,100,0,0
112871,-66.6666666666667,4,1,0,70,0,1
113462,-58.8235294117647,4,1,0,70,0,1
117714,-50,4,1,0,70,0,1
118068,-58.8235294117647,4,1,0,70,0,1
118659,-50,4,1,0,70,0,1
119131,-58.8235294117647,4,1,0,70,0,1
133187,-58.8235294117647,4,2,0,70,0,1
133305,-200,4,2,0,70,0,1
133777,-58.8235294117647,4,1,0,70,0,1
147479,-66.6666666666667,4,1,0,70,0,0
160707,-133.333333333333,4,2,0,100,0,0
181023,-66.6666666666667,4,1,0,70,0,0
181495,-66.6666666666667,4,1,0,70,0,1
194724,-111.111111111111,4,1,0,70,0,1
195196,-83.3333333333333,4,1,0,70,0,1
195668,-66.6666666666667,4,1,0,70,0,1
196141,-55.5555555555556,4,1,0,70,0,1
196613,-66.6666666666667,4,1,0,70,0,1
213385,-133.333333333333,4,2,0,100,0,0
214803,-50,4,1,0,70,0,0
215039,-50,4,1,0,70,0,1
215393,-50,4,1,0,70,0,0
215511,-58.8235294117647,4,1,0,70,0,1
235239,-58.8235294117647,4,2,0,5,0,1
235475,-58.8235294117647,4,1,0,70,0,1
236299,-50,4,1,0,70,0,1
247638,-58.8235294117647,4,1,0,70,0,1
249530,-100,4,1,0,70,0,0

[Colours]
Combo1 : 136,82,0
Combo2 : 0,64,0
Combo3 : 0,0,160
Combo4 : 128,0,0

[HitObjects]
96,88,15192,2,0,B|192:176|192:176|208:128|264:112|288:128,1,224,4|8
272,208,15901,1,0
208,272,16137,2,0,B|240:304|288:312|336:272,2,112,0|0|8
136,176,17082,6,0,B|136:256|144:264|144:264|128:264|128:264|144:280|144:280|128:280|128:280|136:288|136:368,1,224,0|8
376,359,18027,2,0,B|376:288|384:280|384:280|368:280|368:280|384:264|384:264|368:264|368:264|376:256|376:176,1,224,0|8
256,40,18972,6,0,B|328:48|352:112|328:176|256:184,1,224,4|8
336,224,19681,1,0
256,256,19917,2,0,B|184:248|160:184|184:120|256:112,1,224,0|8
80,104,20862,1,0
80,280,21334,1,8
240,192,21807,2,0,B|200:96|160:192|120:288|80:192,1,224,0|8
296,328,22752,6,0,B|408:240|408:240|408:312|472:304,1,224,4|8
256,192,23460,1,0
216,328,23697,2,0,B|104:240|104:240|104:312|40:304,1,224,0|8
168,160,24642,6,0,B|200:96|256:88|312:96|344:160,1,224,0|8
168,224,25586,2,0,B|200:288|256:296|312:288|344:224,1,224,0|8
336,48,26531,6,0,B|424:88|392:176|392:176|328:152,1,224,4|8
256,192,27240,1,0
183,231,27476,2,0,B|120:208|120:208|88:296|176:336,1,224,0|8
344,272,28421,5,0
368,256,28500,1,0
392,272,28579,1,2
384,80,28815,1,4
352,80,28894,1,4
32,192,29366,5,0
80,192,29484,1,0
128,192,29602,1,0
176,192,29720,1,0
224,192,29839,2,2,B|336:192,1,112,0|2
384,288,30311,6,0,B|328:352|256:320,1,134.400003204346,4|2
339,242,30783,2,0,B|254:255|220:184,1,134.400003204346,0|8
328,184,31256,2,0,B|256:137|278:61,3,134.400003204346,0|2|0|8
48,40,32201,6,0,B|120:48|104:152,1,134.400003204346,0|2
264,40,32673,2,0,B|192:48|208:152,1,134.400003204346,0|8
48,344,33146,2,0,B|120:336|104:232,1,134.400003204346,0|2
264,344,33618,2,0,B|192:336|208:232,1,134.400003204346,0|8
312,240,34091,5,4
392,168,34327,1,2
288,136,34563,1,0
256,32,34799,1,8
192,120,35036,2,0,B|248:184|176:248,1,134.400003204346,0|2
80,224,35508,2,0,B|136:288|64:352,1,134.400003204346,0|8
176,328,35980,5,0
280,304,36217,1,2
384,280,36453,2,0,B|384:144,1,134.400003204346,0|8
288,184,36925,1,0
184,184,37162,1,2
80,160,37398,2,0,B|176:56,1,134.400003204346,0|8
280,40,37870,6,0,B|368:80|416:56,1,134.400003204346,4|2
232,112,38343,2,0,B|144:152|96:128,1,134.400003204346,0|8
280,184,38815,2,0,B|368:224|416:200,1,134.400003204346,0|2
232,256,39288,2,0,B|144:296|96:272,1,134.400003204346,0|8
409,325,39760,6,0,B|368:304|280:344,1,134.400003204346,4|2
102,253,40233,2,0,B|144:232|232:272,1,134.400003204346,0|8
409,181,40705,2,0,B|368:160|280:200,1,134.400003204346,0|2
102,109,41177,2,0,B|144:88|232:128,1,134.400003204346,0|8
360,96,41650,6,0,B|424:64,2,67.2000016021729,2|0|2
288,280,42122,2,0,B|344:328,2,67.2000016021729,2|0|2
224,104,42595,2,0,B|168:56,2,67.2000016021729,2|0|2
152,288,43067,2,0,B|88:320,2,67.2000016021729,2|0|2
256,32,43540,5,0
256,32,43658,1,0
256,32,43776,1,8
256,32,43894,1,8
256,32,44012,2,0,B|256:176,1,134.400003204346,4|8
256,352,44485,1,0
256,248,44721,2,2,B|256:280,4,33.6000008010865,2|2|2|2|8
256,136,45193,1,0
256,32,45430,1,4
480,32,60548,6,0,B|296:48,1,167.99999499321,4|0
440,96,61493,2,0,B|256:112,1,167.99999499321,2|2
400,160,62438,2,0,B|216:176,1,167.99999499321,4|0
360,224,63383,2,0,B|176:240,1,167.99999499321,2|2
192,304,64092,1,0
128,344,64328,6,0,B|144:160,1,167.99999499321,4|0
192,304,65273,2,0,B|207:120,1,167.99999499321,2|2
256,264,66218,2,0,B|272:80,1,167.99999499321,4|0
320,224,67163,2,0,B|336:40,1,167.99999499321,2|2
56,48,68107,6,0,B|120:104|72:208,1,167.99999499321,4|0
160,96,69052,2,0,B|224:152|176:256,1,167.99999499321,2|2
264,144,69997,2,0,B|328:200|280:304,1,167.99999499321,4|0
368,192,70942,2,0,B|432:248|384:352,1,167.99999499321,2|2
386,346,71651,1,0
320,344,71887,2,0,B|152:344,1,167.99999499321,4|0
56,256,72832,2,2,B|232:256,1,167.99999499321
256,128,73777,5,0
256,128,74013,1,0
256,128,74249,1,0
256,128,74486,1,0
256,128,74722,1,0
256,128,74958,1,0
256,128,75194,1,0
256,128,75431,1,0
256,64,75667,5,4
208,232,76139,1,0
256,304,76375,1,0
304,232,76612,1,0
416,96,77084,1,0
336,56,77320,1,0
304,136,77557,1,0
256,64,77793,1,0
208,136,78029,1,0
176,56,78265,1,0
96,96,78501,1,0
440,336,79446,6,0,B|408:192|360:160|312:192|280:336,1,335.99998998642,4|0
56,192,80391,5,0
128,80,80628,1,8
184,40,80746,1,8
240,80,80864,1,8
480,200,81336,5,0
352,48,81572,1,2
168,128,81809,1,8
368,152,82045,1,0
272,328,82281,1,4
112,208,82517,1,2
288,112,82754,1,8
376,296,82990,1,2
448,104,83226,6,0,B|448:8,2,83.999997496605,2|0|2
176,192,83698,2,8,B|344:192,1,167.99999499321
64,280,84171,6,0,B|64:375,2,83.999997496605,2|0|2
336,192,84643,2,8,B|168:192,1,167.99999499321
312,48,85116,5,4
168,192,85352,1,2
312,336,85588,1,8
312,336,85706,1,8
200,48,85943,5,0
200,48,86061,1,2
344,192,86297,1,2
200,336,86533,1,2
200,336,86651,1,2
256,128,86888,1,0
256,192,87006,5,4
56,192,87242,1,0
224,88,87478,2,2,B|304:72|384:112|400:240|344:296|272:312,1,335.99998998642
472,40,88423,5,0
472,40,88659,1,0
472,40,88777,1,0
472,40,88896,5,2
272,56,89132,1,2
384,224,89368,1,2
128,160,89604,1,2
240,328,89840,1,2
39,344,90077,1,2
256,192,90313,5,8
256,192,90431,1,8
256,192,90549,1,8
256,192,90667,1,8
256,192,90785,6,0,B|248:232|248:240|272:280|272:288|248:320|248:328|256:360|256:360|264:328|264:320|240:288|240:280|264:240|264:232|256:192,1,335.99998998642
112,56,91730,5,0
200,240,91966,1,8
256,272,92085,1,8
312,240,92203,1,8
56,192,92675,5,4
256,192,92911,1,2
456,192,93148,1,8
256,192,93384,1,8
128,344,93620,1,4
256,192,93856,1,2
384,40,94093,1,8
256,192,94329,1,8
72,112,94565,6,2,B|72:288,1,167.99999499321
328,192,95037,2,8,B|380:217|380:217|376:272,2,111.99999666214
440,272,95510,2,2,B|440:96,1,167.99999499321
184,191,95982,2,8,B|131:166|131:166|136:112,2,111.99999666214
256,272,96455,5,4
186,152,96691,1,0
325,152,96927,1,8
325,152,97045,1,8
256,32,97282,5,8
256,32,97400,1,2
394,272,97636,1,2
117,272,97872,1,2
117,272,97990,1,2
256,192,98227,1,2
256,192,98345,6,0,B|256:360,1,167.99999499321,4|0
144,192,98817,2,2,B|160:128|192:80|256:56|320:80|352:128|368:192,1,335.99998998642
288,152,99762,5,0
288,152,99880,1,0
288,152,99998,1,0
288,152,100116,1,0
288,152,100234,2,0,B|205:0,1,167.99999499321,2|2
291,262,100707,2,0,B|463:267,1,167.99999499321,2|2
193,210,101179,2,0,B|102:357,1,167.99999499321,2|8
336,56,101652,1,0
336,56,101770,1,0
336,56,101888,1,0
336,56,102006,1,0
336,56,102124,6,0,B|440:144|440:192|440:240|336:328,2,335.99998998642
256,352,103542,1,0
176,56,104014,2,0,B|72:144|72:192|72:240|176:328,1,335.99998998642
256,24,104959,2,0,B|256:360,1,335.99998998642
64,192,105904,5,8
64,80,106140,1,8
64,136,106258,1,8
64,192,106376,1,2
256,32,106613,1,2
447,191,106849,5,8
448,304,107085,1,8
448,248,107203,1,8
447,191,107321,2,2,B|272:192,1,167.99999499321
256,40,107794,5,4
256,40,108030,1,2
256,344,108384,2,0,B|256:168,1,167.99999499321
408,192,108739,1,0
408,192,108975,1,0
104,192,109329,2,2,B|280:192,1,167.99999499321
248,96,109684,5,0
248,296,109920,1,0
72,192,110156,2,2,B|408:192,1,335.99998998642
256,192,111101,1,8
256,192,111219,1,8
256,192,111337,1,8
256,192,111455,1,8
256,192,111573,5,0
256,320,112046,1,0
256,256,112282,1,0
256,192,112518,1,0
256,32,112991,5,8
256,32,113109,1,8
256,32,113227,1,8
256,32,113345,1,8
256,32,113463,6,0,B|177:64|185:122|221:157|267:153|267:153|314:149|350:184|358:242|279:275,2,380.799984111787,4|0|0
256,32,114644,1,8
256,32,114762,1,8
256,32,114881,1,8
480,352,115353,5,0
480,104,115589,1,0
480,352,115825,1,8
360,136,116062,1,0
480,352,116298,1,0
272,216,116534,1,0
480,352,116770,1,8
232,352,117007,1,0
64,168,117243,6,2,B|80:48|216:56,1,190.399992055893
328,184,117715,2,8,B|344:280|294:308|254:268|282:217|378:234,1,224
448,168,118188,6,2,B|432:48|296:56,1,190.399992055893
184,184,118660,2,8,B|167:280|217:308|257:268|229:217|133:234,1,224
256,40,119133,5,4
256,344,119369,1,0
96,192,119605,1,8
96,192,119723,1,8
416,192,119959,1,0
416,192,120078,5,6
256,40,120314,1,2
96,192,120550,1,2
96,192,120668,1,2
256,344,120904,1,8
256,272,121022,5,4
256,120,121259,1,0
384,40,121495,2,2,B|496:112|504:192|496:272|384:344,1,380.799984111787
144,288,122322,5,0
144,288,122440,1,8
144,56,122794,1,0
144,56,122912,5,2
368,104,123149,1,0
144,168,123385,1,2
368,216,123621,1,0
144,272,123857,1,2
368,320,124093,1,2
256,192,124330,1,8
256,232,124448,1,8
256,272,124566,1,8
256,312,124684,1,8
256,352,124802,6,4,B|80:336|40:200|64:56,1,380.799984111787
256,192,125747,1,0
408,192,125983,2,8,B|304:192,2,95.1999960279467
152,32,126692,6,0,B|344:64,1,190.399992055893,4|0
192,104,127164,2,8,B|384:136,1,190.399992055893
349,323,127637,6,0,B|381:131,1,190.399992055893
421,283,128109,2,8,B|453:91,1,190.399992055893
360,192,128582,6,0,B|328:72|488:72,2,190.399992055893,2|2|8
272,240,129212,1,8
240,144,129369,1,8
152,192,129527,2,0,B|184:312|24:311,2,190.399992055893,2|2|8
240,240,130157,1,8
272,144,130314,1,8
176,112,130472,6,0,B|232:24|344:80,2,190.399992055893,4|0|0
160,192,131062,2,8,B|368:192,1,190.399992055893
336,272,131417,2,0,B|280:360|168:304,2,190.399992055893,2|0|2
352,192,132007,2,0,B|144:192,1,190.399992055893,2|2
101,252,132361,6,4,B|77:244|77:244|101:236|101:236|77:228|77:228|101:220|101:220|77:212|77:212|101:204|101:204|77:196|77:196|101:188|101:188|77:180|77:180|101:172|101:172|77:164|77:164|101:156|101:156|77:148|77:148|101:140|101:140|77:132|77:132,1,380.799984111787
416,192,133306,2,0,B|304:192,1,112,2|8
328,32,134251,6,2,B|240:80|216:192|240:304|328:352,1,380.799984111787
64,192,135196,1,4
72,192,135314,1,0
80,192,135432,1,8
88,192,135551,1,8
96,192,135669,1,0
104,192,135787,1,0
112,192,135905,1,8
120,192,136023,1,8
128,192,136141,6,0,B|168:64|280:64|336:152|336:152|392:48,2,380.799984111787,2|2|2
383,320,137558,2,0,B|336:232|336:232|280:320|168:320|128:192,1,380.799984111787,2|4
256,384,138503,2,2,B|256:0,1,380.799984111787
256,192,139448,1,4
64,48,139921,6,0,B|160:120|160:200|128:240|88:216|88:168|128:144|160:184|160:256|64:336,1,380.799984111787,4|8
256,192,140629,1,8
448,48,140866,2,0,B|352:120|352:200|384:240|424:216|424:168|384:144|352:184|352:256|448:336,1,380.799984111787,4|8
216,336,141811,6,2,B|102:376|76:284|101:227|144:231,1,190.399992055893
155,211,142165,1,0
194,175,142283,2,2,B|205:168|215:127|203:48|90:84,1,190.399992055893
296,336,142755,6,8,B|409:376|435:284|410:227|367:231,1,190.399992055893
357,211,143110,1,0
318,175,143228,2,8,B|306:168|296:127|308:48|421:84,1,190.399992055893
256,32,143700,6,0,B|256:224,2,190.399992055893
32,352,144645,1,2
480,352,145118,1,2
256,192,145590,5,0
272,240,145708,1,0
312,272,145826,1,0
360,280,145945,1,0
408,272,146063,1,0
448,240,146181,1,0
464,192,146299,1,0
256,192,146535,5,0
240,144,146653,1,0
200,112,146771,1,0
152,104,146889,1,0
104,112,147008,1,0
64,144,147126,1,0
56,192,147244,2,0,B|168:192,2,95.1999960279467
256,32,162599,6,0,B|256:232,1,167.99999499321
392,184,163544,1,0
296,360,164252,2,0,B|200:360,1,83.999997496605
32,160,165433,2,0,B|16:56|120:32,1,167.99999499321
224,112,166378,2,0,B|224:312,3,167.99999499321
360,280,168268,1,0
256,192,170158,12,0,172048
256,192,173938,12,0,175827
64,64,177717,5,0
96,192,178190,1,0
160,192,178426,1,0
224,192,178662,1,0
296,80,179135,6,0,B|376:0,1,83.999997496605
376,88,179607,2,0,B|464:88,1,83.999997496605
432,152,180079,2,0,B|504:224,2,83.999997496605
96,104,181497,6,0,B|256:8|416:104,2,335.99998998642,4|0|0
256,192,182678,1,8
256,192,182796,1,8
256,192,182914,1,8
32,40,183387,6,0,B|48:144|176:96,1,167.99999499321,4|8
96,248,183859,2,0,B|112:352|240:304,1,167.99999499321,0|2
480,40,184332,2,0,B|464:144|336:96,1,167.99999499321,0|8
416,248,184804,2,0,B|400:352|272:304,1,167.99999499321,0|0
128,80,185276,5,2
384,80,185513,1,2
256,336,185749,2,8,B|256:248,2,83.999997496605,8|0|8
128,304,186221,5,2
384,304,186458,1,2
256,48,186694,2,0,B|256:136,2,83.999997496605,8|0|8
96,120,187166,6,0,B|168:40|240:120,2,167.99999499321,4|0|0
144,192,187757,2,0,B|144:304|248:336,1,167.99999499321,8|0
432,272,188111,2,0,B|360:352|288:272,2,167.99999499321,2|0|2
384,200,188702,2,2,B|384:88|280:56,1,167.99999499321
56,48,189056,5,8
56,216,189292,1,0
200,120,189529,2,2,B|536:120,2,335.99998998642
200,120,190592,1,0
200,120,190710,1,0
200,120,190828,1,0
200,120,190946,5,2
64,336,191182,1,2
256,168,191418,1,2
448,336,191655,1,2
312,120,191891,1,2
256,368,192127,1,2
256,120,192363,6,8,B|256:24,3,83.999997496605
256,36,192836,6,4,B|96:40|96:216|256:224,1,335.99998998642
256,347,193781,2,0,B|416:344|416:168|256:160,1,335.99998998642
56,48,194726,6,0,B|160:48,1,100.799995193482,0|8
56,112,195198,2,0,B|200:112,1,134.400003204346,0|2
56,176,195671,2,0,B|232:176,1,167.99999499321,0|8
56,240,196143,2,0,B|256:240,1,201.599990386963
200,120,196615,6,2,B|336:8,1,167.99999499321
288,144,197088,2,8,B|376:72,1,111.99999666214
376,160,197403,1,8
311,263,197560,2,2,B|176:376,1,167.99999499321
224,240,198033,2,8,B|136:312,1,111.99999666214
136,224,198348,1,8
256,192,198505,6,0,B|152:192|144:88,2,167.99999499321,4|0|0
144,291,199096,2,0,B|152:192|256:192,1,167.99999499321,8|0
256,192,199450,2,0,B|360:192|368:296,2,167.99999499321,2|0|0
367,92,200041,2,2,B|360:192|256:192,1,167.99999499321
256,32,200395,5,8
256,352,200631,1,0
88,192,200868,2,2,B|424:192,1,335.99998998642
152,80,201812,5,0
152,80,201931,1,0
152,80,202049,1,0
152,80,202167,1,0
152,80,202285,2,0,B|208:240,1,167.99999499321,2|0
404,157,202757,2,2,B|238:126,1,167.99999499321,2|0
211,338,203230,2,2,B|321:209,1,167.99999499321,2|2
48,192,203702,5,8
56,192,203820,1,8
64,192,203938,1,8
72,192,204057,1,8
80,192,204175,2,0,B|192:88|168:64|128:32|88:64|64:88|176:192,2,335.99998998642,2|2|2
432,192,205592,2,0,B|320:296|344:320|384:352|424:320|448:296|336:192,2,335.99998998642,2|4|8
256,24,207009,2,0,B|256:368,1,335.99998998642,4|8
24,192,207954,6,0,B|192:192,1,167.99999499321,4|0
256,192,208309,1,0
320,192,208427,2,8,B|488:192,1,167.99999499321
216,128,208899,6,0,B|208:64|256:48|304:64|296:128,1,167.99999499321,4|8
256,192,209254,1,8
216,256,209372,2,0,B|208:320|256:336|304:319|296:256,1,167.99999499321,8|0
80,16,209844,6,0,B|198:134,1,167.99999499321
80,368,210435,2,0,B|198:249,1,167.99999499321
313,134,210789,2,0,B|432:16,1,167.99999499321
313,249,211380,2,0,B|432:368,1,167.99999499321
256,192,211734,12,4,213151
256,192,213624,5,2
192,312,214096,1,2
256,328,214333,1,2
320,312,214569,1,2
256,32,215041,6,8,B|256:160,3,112
256,144,215514,6,0,B|144:144|112:216|96:248|112:280|144:352|256:352,1,380.799984111787,4|8
160,64,216459,2,0,B|352:64,1,190.399992055893,0|8
350,64,216813,1,8
350,64,216931,1,8
232,344,217403,6,0,B|440:344,2,190.399992055893,4|8|8
256,192,218112,1,2
280,40,218348,2,0,B|72:40,2,190.399992055893,0|8|8
256,192,219057,1,0
160,72,219293,5,2
80,200,219530,2,0,B|80:256|80:256|72:264|72:264|88:264|88:264|72:280|72:280|88:280|88:280|80:288|80:288|80:344,2,190.399992055893,2|8|8
352,312,220238,1,2
432,183,220474,2,0,B|432:128|432:128|440:120|440:120|424:120|424:120|440:104|440:104|424:104|424:104|432:96|432:96|432:40,2,190.399992055893,2|8|8
216,272,221183,6,0,B|159:294|80:215|102:158,2,190.399992055893,4|0|4
296,272,221774,2,8,B|352:294|431:215|408:158,1,190.399992055893
336,80,222128,2,2,B|312:24|200:24|176:80,2,190.399992055893,2|2|0
336,160,222719,2,2,B|312:216|200:216|176:160,1,190.399992055893
256,120,223073,5,8
256,272,223309,1,0
128,192,223545,1,2
432,192,224018,2,0,B|448:320|352:376|256:312,1,285.59998808384,4|0
255,312,224490,2,0,B|160:376|64:320|80:192,1,285.59998808384,4|0
72,120,224963,6,2,B|256:72,1,190.399992055893
256,262,225435,2,2,B|256:70,1,190.399992055893
440,120,225908,2,2,B|256:72,1,190.399992055893,2|8
255,71,226380,5,0
255,71,226498,1,0
255,71,226616,1,0
255,71,226734,1,0
255,71,226853,6,0,B|104:72|80:168|104:264|256:264,2,380.799984111787,4|0|4
255,71,228034,1,8
255,71,228152,1,8
255,71,228270,1,8
80,344,228742,6,0,B|16:296|72:160,1,190.399992055893,4|0
320,168,229215,2,0,B|384:216|328:352,1,190.399992055893,8|2
208,344,229687,2,0,B|144:296|200:160,1,190.399992055893,4|0
440,168,230160,2,8,B|504:216|448:352,1,190.399992055893,8|0
256,344,230632,6,2,B|256:144,1,190.399992055893
112,192,231105,2,8,B|112:48,2,126.933328037262
256,40,231577,2,2,B|256:239,1,190.399992055893
400,192,232050,2,8,B|400:336,2,126.933328037262
400,88,232522,6,0,B|336:272,1,190.399992055893,4|0
256,136,232995,1,8
256,136,233113,1,8
112,88,233349,5,0
112,88,233467,2,0,B|176:272,2,190.399992055893,2|2|0
160,32,234058,2,2,B|360:32,1,190.399992055893
424,32,234412,6,0,B|448:40|448:40|424:48|424:48|448:56|448:56|424:64|424:64|448:72|448:72|424:80|424:80|448:88|448:88|424:96|424:96|448:104|448:104|424:112|424:112|448:120|448:120|424:128|424:128|448:136|448:136|424:144|424:144|448:152,1,380.799984111787
256,192,235357,1,0
32,352,236302,6,2,B|504:352,1,448
184,48,237247,2,0,B|112:136,1,112
256,80,237483,2,8,B|184:168,1,112
328,112,237719,2,0,B|256:200,1,112
400,144,237955,2,8,B|328:232,1,112
256,280,238192,6,0,B|72:280|0:192|80:96|256:96,3,448,2|2|2|0
480,32,240081,1,4
480,352,240554,1,2
32,352,241026,1,0
32,32,241499,1,0
32,192,241971,6,8,B|48:112|104:104|160:112|176:192,1,224,12|8
176,264,242326,1,8
104,264,242444,2,0,B|120:344|176:352|232:344|248:264,1,224,8|0
263,120,242916,6,0,B|280:40|336:32|392:40|408:120,1,224,12|8
335,120,243270,1,8
335,191,243389,2,0,B|352:272|408:280|464:272|480:192,1,224,8|0
368,48,243861,5,2
416,224,244097,1,2
256,312,244333,1,2
168,152,244570,1,2
344,152,244806,1,8
256,312,245042,1,8
96,224,245278,1,8
144,48,245515,1,8
32,192,245751,5,0
480,192,245987,1,0
32,256,246223,2,2,B|488:256,2,448
200,192,247404,1,0
392,120,247641,5,0
376,112,247759,1,0
360,104,247877,1,0
344,96,247995,1,0
328,88,248113,1,0
312,80,248231,1,0
296,72,248349,1,0
256,360,248586,5,0
256,344,248704,1,0
256,328,248822,1,0
256,312,248940,1,0
256,296,249058,1,0
256,280,249176,1,0
256,264,249294,1,0
256,248,249412,1,0
256,232,249530,1,0
