osu file format v9

[General]
AudioFilename: SKRILLEX - Kill EVERYBODY.mp3
AudioLeadIn: 0
PreviewTime: 75751
Countdown: 0
SampleSet: Normal
StackLeniency: 0.7
Mode: 0
LetterboxInBreaks: 1

[Editor]
DistanceSpacing: 0.8
BeatDivisor: 4
GridSize: 4

[Metadata]
Title:Kill EVERYBODY
Artist:Skrillex
Creator:Lucy-Kaede
Version:Normal
Source:
Tags:Dub Dubstep TicClick Charles445

[Difficulty]
HPDrainRate:4
CircleSize:4
OverallDifficulty:4
ApproachRate:5
SliderMultiplier:1.4
SliderTickRate:2

[Events]
//Background and Video events
0,0,"skrillex___kill_everybody_by_mericle-d3ng0cm.jpg"
//Break Periods
2,45714,59433
2,75951,78330
2,136423,138803
//Storyboard Layer 0 (Background)
//Storyboard Layer 1 (Fail)
//Storyboard Layer 2 (Pass)
//Storyboard Layer 3 (Foreground)
//Storyboard Sound Samples
//Background Colour Transformations
3,100,0,0,0

[TimingPoints]
160.82613155106,472.44094488189,4,1,1,60,1,0
60515,-100,4,2,1,75,0,0
79530,-100,4,1,1,75,0,1
79589,-100,4,1,1,75,0,0
90869,-100,4,1,1,75,0,1
90928,-100,4,1,1,75,0,0
112129,-100,4,1,1,30,0,0
113546,-100,4,1,1,75,0,1
113605,-100,4,1,1,75,0,0
124885,-100,4,1,1,75,0,1
124944,-100,4,1,1,75,0,0
147562,-100,4,1,1,75,0,1
162680,-100,4,1,1,75,0,0

[Colours]
Combo1 : 68,189,28
Combo2 : 245,136,3
Combo3 : 36,73,251
Combo4 : 239,40,24

[HitObjects]
252,68,7719,1,2
352,32,8192,1,8
336,144,8664,1,0
232,176,9137,1,8
180,72,9609,1,0
72,36,10082,1,8
32,140,10554,2,0,B|32:212,2,70,0|0|8
92,236,11499,5,2
104,124,11971,1,8
180,208,12444,1,0
260,128,12916,1,8
184,48,13389,1,0
104,124,13861,1,8
180,208,14334,2,2,B|180:296|268:296,1,140
252,184,15278,5,0
272,132,15515,1,0
300,84,15751,1,8
328,132,15987,1,0
348,184,16223,1,0
300,284,16696,1,8
396,344,17168,1,0
444,244,17641,1,8
348,184,18113,1,0
300,284,18586,1,8
256,168,19058,5,2
256,112,19294,1,0
256,56,19530,1,8
312,56,19767,1,0
368,56,20003,1,0
392,164,20475,1,8
380,276,20948,1,0
268,280,21420,1,8
256,168,21893,1,0
204,188,22129,1,0
148,172,22365,1,8
64,248,22837,5,2
104,288,23074,1,0
148,324,23310,1,8
200,348,23546,1,0
256,348,23782,1,0
352,300,24255,1,8
448,248,24727,1,0
352,200,25200,1,8
256,152,25672,1,0
256,208,25908,1,0
256,264,26145,1,8
152,220,26617,5,2
180,268,26853,1,0
220,308,27089,1,8
276,308,27326,1,0
324,280,27562,1,0
380,184,28034,1,8
384,72,28507,2,4,B|460:88|476:168,1,140
432,272,29452,2,2,B|287:272,1,140
192,224,30397,5,0
304,192,30869,1,8
192,144,31341,1,0
304,112,31814,1,8
192,144,32286,1,0
304,192,32759,1,8
192,224,33231,1,0
224,272,33467,1,0
256,320,33704,1,8
368,288,34176,5,2
432,192,34649,2,8,B|496:152|488:72,1,140,8|0
384,96,35593,2,8,B|320:136|328:216,1,140,8|0
432,192,36538,1,8
480,288,37011,1,0
444,332,37247,1,0
388,328,37483,1,8
284,288,37956,6,2,B|221:315|168:286|178:230|188:173|134:144|71:172,1,280
32,64,39373,1,8
140,100,39845,1,0
236,44,40318,1,8
328,108,40790,2,0,B|267:129|287:182|226:204,1,140,0|8
128,256,41735,5,0
64,160,42208,1,8
176,160,42680,1,0
128,256,43152,1,8
240,256,43625,1,0
288,160,44097,1,8
256,52,44570,2,0,B|216:80|216:80|172:80|172:80|132:56,2,140,0|0|4
52,328,60633,6,0,B|108:328|108:248|172:248,1,140,0|8
268,220,61578,1,0
164,176,62050,2,0,B|108:176|108:96|44:96,1,140
48,208,62995,1,8
52,332,63467,2,0,B|108:332|108:252|172:252,1,140
268,216,64412,5,8
268,104,64885,1,8
380,104,65357,1,2
384,216,65830,1,2
292,276,66302,1,0
400,272,66774,6,0,B|400:176|304:176,1,140
208,176,67719,2,2,B|112:176|112:80,2,140
320,176,69137,2,2,B|400:176|400:272,1,140
288,304,70082,1,8
240,200,70554,5,2
196,272,71026,2,0,B|140:224|144:160|184:112|236:100|288:116|308:160,2,280
312,288,73389,1,0
240,200,73861,5,4
224,88,74334,1,8
328,48,74806,1,8
416,116,75278,1,8
312,136,75751,1,4
464,64,79530,5,2
352,64,80003,1,8
240,64,80475,2,2,B|160:64,2,70,2|2|10
304,144,81420,1,0
384,224,81893,1,8
448,144,82365,1,0
384,224,82837,1,8
304,304,83310,6,2,B|304:144,2,140
416,304,84727,2,8,B|501:304,2,70
336,224,85672,1,0
240,176,86145,1,8
336,128,86617,1,0
240,176,87089,5,8
336,224,87562,1,0
240,272,88034,1,8
160,192,88507,1,4
60,140,88979,2,0,B|36:104|64:64,2,70
116,140,89688,2,0,B|140:104|112:64,2,70
256,32,90869,5,8
256,144,91341,1,8
368,176,91814,2,8,B|432:232,2,70
256,224,92759,1,0
256,336,93231,1,8
160,272,93704,1,0
160,160,94176,1,8
208,64,94649,5,2
256,160,95121,2,8,B|192:212,3,46.6666666666667
256,276,96066,2,8,B|320:328,3,46.6666666666667
308,196,97011,6,0,B|276:116|348:76,1,140,2|0
404,164,97956,2,0,B|436:244|364:284,1,140,2|0
308,196,98900,1,8
228,132,99373,1,0
148,196,99845,1,8
228,276,100318,5,0
308,196,100790,1,8
228,132,101263,1,8
148,196,101735,1,8
256,224,102208,5,2
160,272,102680,1,8
64,320,103152,1,0
160,368,103625,1,8
256,320,104097,5,0
352,368,104570,1,8
448,320,105042,1,0
352,256,105515,1,10
416,176,105987,6,8,B|488:176,2,70
352,80,106932,2,8,B|208:81,2,140
288,176,108349,5,2
288,288,108822,1,8
368,224,109294,1,0
368,336,109767,5,8
464,288,110239,1,0
464,176,110712,1,8
368,224,111184,1,8
256,224,111656,5,4
144,224,112129,2,0,B|83:212|47:176|35:128|47:80|95:43|144:32,1,280,0|0
208,112,113546,5,2
208,224,114019,1,8
256,320,114491,2,8,B|332:352|410:320,1,140
448,224,115436,1,0
448,112,115908,1,8
336,112,116381,1,0
336,224,116853,1,8
240,176,117326,5,0
176,80,117798,2,8,B|244:48,2,70
64,80,118743,2,8,B|-8:26,2,70
128,176,119688,5,2
224,224,120160,1,8
320,272,120633,1,0
416,224,121105,5,8
320,160,121578,1,0
224,224,122050,1,8
144,144,122523,1,2
64,224,122995,5,8
60,168,123231,1,0
64,112,123467,1,8
104,72,123704,1,0
156,52,123940,1,8
208,76,124176,1,0
156,236,124885,5,2
144,348,125357,1,8
256,352,125830,2,8,B|352:352|352:352|352:288,1,140
352,192,126774,1,0
256,128,127247,1,8
256,240,127719,1,0
160,192,128192,1,8
160,80,128664,6,8,B|293:18,1,140
320,128,129609,2,8,B|181:194,1,140
88,148,130554,1,2
152,240,131026,2,6,B|440:324,2,280
256,192,133389,12,4,136223
256,264,140003,6,0,B|256:316|300:316,2,70
256,152,140948,2,0,B|256:100|212:100,2,70
288,44,141893,5,0
236,28,142129,1,0
180,40,142365,1,2
68,68,142837,1,0
40,116,143074,1,0
48,172,143310,1,8
132,248,143782,1,0
236,292,144255,1,4
256,192,144727,12,4,147089
296,128,147562,6,8,B|296:64|216:64|216:128,1,140
216,240,148507,2,2,B|216:304|296:304|296:240,1,140,0|2
296,128,149452,2,8,B|296:64|216:64|216:128,1,140
216,240,150397,2,0,B|216:304|296:304|296:240,1,140,2|2
296,128,151341,5,0
256,32,151814,1,8
144,32,152286,1,8
144,32,152759,1,8
192,128,153231,1,0
144,32,153704,1,8
80,128,154176,1,0
16,224,154649,1,8
124,196,155121,6,0,B|124:260|188:260|188:316,1,140,2|0
292,272,156066,2,0,B|292:208|228:208|228:152,1,140
172,56,157011,1,8
172,56,157483,1,8
284,48,157956,2,0,B|334:15|385:15|428:39|453:81|445:141|412:192,1,280,0|0
316,136,159373,5,8
224,200,159845,1,0
124,252,160318,1,8
216,316,160790,1,0
324,288,161263,1,8
368,184,161735,1,0
256,192,162208,1,8
256,80,162680,1,4
