osu file format v9

[General]
AudioFilename: SKRILLEX - Kill EVERYBODY.mp3
AudioLeadIn: 0
PreviewTime: 75751
Countdown: 0
SampleSet: Normal
StackLeniency: 0.7
Mode: 0
LetterboxInBreaks: 1

[Editor]
DistanceSpacing: 0.8
BeatDivisor: 4
GridSize: 4

[Metadata]
Title:Kill EVERYBODY
Artist:Skrillex
Creator:Lucy-Kaede
Version:Hard
Source:
Tags:Dub Dubstep TicClick Charles445

[Difficulty]
HPDrainRate:6
CircleSize:4
OverallDifficulty:6
ApproachRate:6
SliderMultiplier:2
SliderTickRate:2

[Events]
//Background and Video events
0,0,"skrillex___kill_everybody_by_mericle-d3ng0cm.jpg"
//Break Periods
2,45714,59583
2,75950,78480
//Storyboard Layer 0 (Background)
//Storyboard Layer 1 (Fail)
//Storyboard Layer 2 (Pass)
//Storyboard Layer 3 (Foreground)
//Storyboard Sound Samples
//Background Colour Transformations
3,100,0,0,0

[TimingPoints]
160.826131551061,472.44094488189,4,1,0,60,1,0
60515,-100,4,2,0,75,0,0
79530,-100,4,1,0,75,0,1
79589,-100,4,1,0,75,0,0
90869,-100,4,1,0,75,0,1
90928,-100,4,1,0,75,0,0
113546,-100,4,1,0,75,0,1
113605,-100,4,1,0,75,0,0
124885,-100,4,1,0,75,0,1
124944,-100,4,1,0,75,0,0
147562,-100,4,1,0,75,0,1
162680,-100,4,1,0,75,0,0

[Colours]
Combo1 : 68,189,28
Combo2 : 245,136,3
Combo3 : 36,73,251
Combo4 : 239,40,24

[HitObjects]
56,32,7719,1,2
216,32,8192,2,8,B|216:136,1,100,8|0
296,136,8664,1,0
136,136,9137,1,8
216,272,9609,1,0
216,112,10082,1,0
360,184,10554,2,0,B|384:216|384:216|384:248|384:248|352:272,1,100,8|0
312,336,11026,1,4
256,184,11499,5,2
96,192,11971,2,0,B|71:136|119:104,1,100,8|0
192,72,12444,2,0,B|216:128|168:160,1,100
96,192,12916,5,8
96,32,13389,1,0
96,192,13861,1,0
223,300,14334,2,2,B|320:354|418:300,1,200,2|0
271,212,15278,6,8,B|271:108,2,100
204,168,15987,1,0
212,248,16223,1,0
136,220,16460,1,0
128,140,16696,1,8
24,272,17168,6,0,B|57:330|113:357|200:352,1,200,0|8
256,200,18113,1,0
200,144,18349,1,0
256,88,18586,1,8
200,144,18822,1,0
256,200,19058,1,2
416,192,19530,5,8
472,136,19767,1,0
416,80,20003,1,0
256,80,20475,1,8
256,240,20948,5,0
256,80,21420,1,8
96,96,21893,1,0
48,160,22129,1,0
96,224,22365,1,8
256,216,22837,6,0,B|256:292|313:292,1,100,2|0
384,296,23310,1,8
384,216,23546,1,0
384,296,23782,1,0
384,216,24019,1,0
464,216,24255,1,8
336,120,24727,5,0
176,120,25200,1,8
208,280,25672,1,0
256,216,25908,1,0
304,280,26145,1,8
200,344,26617,5,2
176,272,26853,1,0
112,312,27089,1,8
104,232,27326,1,0
40,280,27562,1,0
32,200,27798,1,0
96,152,28034,1,8
256,184,28507,5,4
256,320,28861,1,0
256,320,28979,1,8
376,212,29452,1,0
256,240,29806,1,0
256,240,29924,2,0,B|256:200|256:200|264:176|264:176|296:152,1,100,8|0
372,148,30397,1,2
240,56,30869,5,8
184,112,31105,1,0
128,168,31341,1,0
72,224,31578,1,0
16,280,31814,1,8
168,320,32286,5,0
256,192,32759,1,8
256,32,33231,1,0
336,32,33467,1,0
296,96,33704,1,8
168,192,34176,5,2
256,328,34649,1,8
256,328,34885,1,0
256,328,35121,1,0
104,272,35593,1,8
256,216,36066,5,0
408,272,36538,1,8
421,104,37011,2,0,B|491:35,2,100,0|0|8
400,336,37956,6,0,B|400:216|256:216|256:47,2,300,2|0|8
240,336,39845,2,0,B|240:216|384:216|384:47,2,300,0|0|8
240,336,41735,5,2
112,236,42208,1,8
156,172,42444,1,0
188,244,42680,1,0
144,308,42916,1,0
64,300,43152,1,8
36,224,43389,1,0
84,160,43625,5,0
220,80,44097,1,8
336,192,44570,1,0
336,192,44806,1,0
380,260,45042,2,4,B|456:168|340:96,1,200,12|4
256,192,60633,6,0,B|256:250|192:296|127:250|127:192,2,200,2|0|0
256,112,61814,1,0
320,72,62050,1,8
256,24,62286,1,0
192,72,62523,5,2
144,136,62759,1,0
80,184,62995,1,0
112,256,63231,1,0
192,256,63467,1,0
216,184,63704,2,0,B|316:184,2,100,0|8|0
216,104,64412,5,2
296,104,64649,1,0
296,24,64885,1,0
216,24,65121,1,0
216,104,65357,1,0
148,148,65593,1,0
84,100,65830,1,8
4,112,66066,1,0
8,192,66302,6,0,B|8:303|142:303,1,200,2|0
64,160,67247,2,0,B|168:160,1,100
204,232,67719,2,8,B|308:232,1,100,8|0
376,272,68192,6,0,B|495:272,2,100,2|0|0
304,232,68900,2,0,B|200:232,1,100
168,160,69373,2,0,B|64:160,2,100
168,80,70082,1,0
256,192,70554,5,0
256,192,70790,1,0
256,192,71026,2,0,B|256:292,2,100
256,32,71971,1,2
416,56,72444,1,0
484,200,72916,1,0
380,320,73389,1,8
230,262,73861,6,0,B|204:224|108:249|65:112|140:12|242:87|242:87|255:99|268:102|280:99|293:87|293:87|394:12|454:115|435:243|300:230|256:307,1,800,2|4
256,312,79530,5,2
256,152,80003,1,8
96,152,80475,2,0,B|32:152|32:80,2,100,0|0|8
256,152,81420,1,0
416,160,81893,2,0,B|416:264,2,100,8|0|0
336,160,82601,1,0
288,96,82837,1,8
240,160,83074,1,0
160,160,83310,6,0,B|160:264,2,100,2|0|10
224,304,84255,2,0,B|224:200,2,100,2|0|10
304,304,84963,2,0,B|336:288|336:288|344:264|344:264|320:232,1,100
312,152,85436,1,0
256,96,85672,1,8
128,192,86145,1,2
180,256,86381,1,0
256,288,86617,1,8
384,192,87089,5,2
256,96,87562,1,8
128,192,88034,1,2
256,288,88507,1,8
256,128,88979,5,2
200,184,89215,1,0
144,240,89452,1,8
200,296,89688,1,0
256,240,89924,2,0,B|360:240,2,100,2|0|8
96,240,90869,5,2
96,80,91341,1,8
184,216,91814,2,0,B|184:112,2,100,0|0|8
344,216,92759,6,0,B|240:216,1,100
244,136,93231,1,8
88,96,93704,1,0
128,248,94176,1,8
280,304,94649,6,0,B|312:304|312:304|344:288|344:288|376:288,2,100,2|0|10
280,144,95593,2,8,B|248:144|248:144|216:128|216:128|184:128,2,100,2|0|10
432,88,96538,6,0,B|328:88,1,100
392,144,97011,2,0,B|288:144,1,100,8|0
352,200,97483,6,0,B|248:200,1,100
312,256,97956,2,0,B|208:256,1,100,8|0
272,312,98428,2,0,B|168:312,1,100,2|0
232,368,98900,2,0,B|128:368,1,100,8|0
136,288,99373,5,2
136,128,99845,1,8
296,128,100318,1,2
240,184,100554,1,0
296,240,100790,1,8
240,296,101026,1,0
184,240,101263,1,2
128,296,101499,1,0
72,240,101735,1,4
256,192,102208,12,12,105515
256,192,105987,6,0,B|272:248|328:264,2,100,0|0|8
252,196,106932,2,0,B|236:252|180:268,2,100,0|0|8
256,32,107877,5,0
192,76,108113,1,0
256,32,108349,1,8
324,76,108586,1,0
256,32,108822,1,0
256,112,109058,1,0
256,192,109294,1,8
416,192,109767,5,0
360,248,110003,1,0
304,192,110239,1,10
448,128,110712,2,0,B|367:32|276:130,1,200,0|8
120,136,111656,5,6
72,288,112129,1,0
224,256,112601,1,0
264,104,113074,2,0,B|240:48,4,50,2|0|0|0|4
224,256,114019,5,8
384,192,114491,2,0,B|416:176|416:176|416:144|416:144|392:120,2,100,0|0|8
256,280,115436,1,0
256,120,115908,1,8
256,200,116145,1,0
184,160,116381,1,0
344,160,116853,1,8
416,120,117089,1,0
416,200,117326,1,2
264,160,117798,6,8,B|160:160,2,100,8|0|2
264,320,118743,2,8,B|376:320,2,100,8|0|2
168,192,119688,5,8
104,336,120160,1,0
40,192,120633,1,8
104,48,121105,1,0
272,40,121578,6,2,B|352:64|352:64|368:96|368:96|448:128,1,200,10|2
424,284,122523,2,0,B|388:268|388:268|376:240|376:240|344:220,1,100,8|2
340,144,122995,2,0,B|380:108|384:52,1,100,0|0
304,52,123467,2,0,B|196:52,1,100,0|8
124,56,123940,2,0,B|132:116|204:136,2,100,0|0|8
256,184,124885,5,2
336,320,125357,1,8
176,320,125830,2,0,B|112:240,1,100
114,242,126302,2,8,B|178:162,1,100,8|0
176,164,126774,6,0,B|112:84,1,100
192,80,127247,1,8
352,80,127719,1,0
320,152,127956,1,0
256,192,128192,1,8
256,192,128664,6,4,B|160:240|135:360,1,200,2|8
256,192,129609,2,4,B|208:95|87:71,1,200,2|8
256,192,130554,2,4,B|352:144|376:23,1,200,2|8
256,192,131499,2,0,B|304:288|424:312,1,200,2|8
400,152,132444,5,2
296,32,132916,1,8
256,192,133389,12,8,135751
256,352,136223,5,2
256,192,136696,1,8
256,32,137168,1,0
96,32,137641,2,2,B|48:56|48:56|32:80|32:80|32:200,1,200,8|2
36,356,138586,2,2,B|84:332|84:332|100:308|100:308|100:188,1,200,8|2
256,192,139530,1,8
416,192,140003,6,0,B|416:80,2,100,0|0|8
416,352,140948,2,0,B|416:240,2,100,0|0|8
256,192,141893,12,8,143310
256,192,143782,12,4,145672
384,64,147562,5,2
340,132,147798,1,0
296,64,148034,1,8
252,132,148271,1,0
208,64,148507,1,0
164,132,148743,1,0
120,64,148979,1,8
112,224,149452,5,0
112,224,149924,1,8
256,296,150397,2,0,B|256:192,2,100,0|0|8
136,192,151341,5,2
160,32,151814,1,8
208,96,152050,1,0
256,32,152286,1,0
304,96,152523,1,0
352,32,152759,1,8
268,168,153231,6,8,B|340:192|340:192|396:192|396:192|460:168,1,200,0|8
432,12,154176,2,0,B|400:28|400:28|400:60|400:60|432:76,2,100,0|0|8
384,168,155121,5,2
304,152,155357,1,0
224,136,155593,1,8
144,120,155830,1,0
64,104,156066,1,0
96,176,156302,1,0
176,192,156538,1,8
104,336,157011,5,0
176,192,157483,1,8
336,224,157956,1,0
256,208,158192,1,0
336,224,158428,1,8
216,328,158900,5,2
376,328,159373,2,0,B|480:328,2,100,8|0|0
296,328,160082,1,0
216,328,160318,1,8
136,328,160554,1,0
184,256,160790,6,0,B|184:168|104:168|104:72,1,200,0|8
264,80,161735,2,0,B|264:168|184:168|184:264,1,200,0|8
184,96,162680,1,4
