osu file format v12

[General]
AudioFilename: Skrillex-Imma Try It Out.mp3
AudioLeadIn: 2000
PreviewTime: 65190
Countdown: 0
SampleSet: Normal
StackLeniency: 0.7
Mode: 1
LetterboxInBreaks: 0

[Editor]
DistanceSpacing: 0.5
BeatDivisor: 4
GridSize: 32

[Metadata]
Title:Imma Try It Out (feat. Alvin Risk)
TitleUnicode:Imma Try It Out (feat. Alvin Risk)
Artist:Skrillex
ArtistUnicode:Skrillex
Creator:Foreverends
Version:Taiko Oni
Source:
Tags:Call Of Duty Black Ops 2 dubstep Sonny Moore KiyoshiX101 Cancel Nardoxyribonucleic
BeatmapID:220562
BeatmapSetID:76662

[Difficulty]
HPDrainRate:6
CircleSize:5
OverallDifficulty:5
ApproachRate:5
SliderMultiplier:1.4
SliderTickRate:1

[Events]
//Background and Video events
0,0,"bg.jpg",0,0
//Break Periods
//Storyboard Layer 0 (Background)
//Storyboard Layer 1 (Fail)
//Storyboard Layer 2 (Pass)
//Storyboard Layer 3 (Foreground)
//Storyboard Sound Samples
//Background Colour Transformations
3,100,163,162,255

[TimingPoints]
142,428.571428571429,4,1,0,80,1,0
14177,-100,4,1,0,100,0,0
68713,-90.9090909090909,4,1,0,100,0,1
121856,-100,4,1,0,100,0,0
164713,-83.3333333333333,4,1,0,100,0,1
222999,-83.3333333333333,4,1,0,100,0,0

[Colours]
Combo1 : 255,0,255
Combo2 : 0,163,240
Combo3 : 0,242,242
Combo4 : 251,34,34
Combo5 : 0,255,64

[HitObjects]
256,192,142,1,0,0:0:0:0:
256,192,570,1,0,0:0:0:0:
288,192,999,1,8,0:0:0:0:
256,192,1427,1,0,0:0:0:0:
256,192,1642,1,0,0:0:0:0:
256,192,1856,1,0,0:0:0:0:
256,192,2284,1,0,0:0:0:0:
288,192,2713,1,8,0:0:0:0:
256,192,2927,1,0,0:0:0:0:
256,192,3142,1,0,0:0:0:0:
288,192,3356,1,8,0:0:0:0:
256,192,3570,1,0,0:0:0:0:
256,192,3999,1,0,0:0:0:0:
288,192,4427,1,8,0:0:0:0:
256,192,4856,1,0,0:0:0:0:
256,192,5070,1,0,0:0:0:0:
256,192,5284,1,0,0:0:0:0:
256,192,5713,1,0,0:0:0:0:
288,192,6142,1,8,0:0:0:0:
256,192,6356,1,0,0:0:0:0:
288,192,6570,1,8,0:0:0:0:
256,192,6784,1,0,0:0:0:0:
256,192,6999,1,0,0:0:0:0:
256,192,7427,1,0,0:0:0:0:
288,192,7856,1,8,0:0:0:0:
256,192,8284,1,0,0:0:0:0:
288,192,8499,1,8,0:0:0:0:
256,192,8713,1,0,0:0:0:0:
256,192,9141,1,0,0:0:0:0:
288,192,9570,1,8,0:0:0:0:
256,192,9784,1,0,0:0:0:0:
256,192,9999,1,0,0:0:0:0:
256,192,10427,1,0,0:0:0:0:
256,192,10856,1,0,0:0:0:0:
288,192,11284,1,8,0:0:0:0:
256,192,11713,1,0,0:0:0:0:
256,192,11927,1,0,0:0:0:0:
256,192,12141,1,0,0:0:0:0:
256,192,12570,1,0,0:0:0:0:
288,192,12999,1,8,0:0:0:0:
256,192,13213,1,0,0:0:0:0:
256,192,13427,1,0,0:0:0:0:
288,192,13641,1,8,0:0:0:0:
256,192,13856,1,0,0:0:0:0:
288,192,14177,1,8,0:0:0:0:
256,192,14284,1,0,0:0:0:0:
256,192,14499,1,0,0:0:0:0:
288,192,14713,1,8,0:0:0:0:
288,192,14820,1,8,0:0:0:0:
256,192,14927,1,0,0:0:0:0:
256,192,15141,1,0,0:0:0:0:
256,192,15356,1,0,0:0:0:0:
288,192,15463,1,8,0:0:0:0:
256,192,15570,1,0,0:0:0:0:
256,192,15784,1,0,0:0:0:0:
288,192,15999,1,8,0:0:0:0:
288,192,16106,1,8,0:0:0:0:
256,192,16213,1,0,0:0:0:0:
288,192,16427,1,8,0:0:0:0:
256,192,16641,1,0,0:0:0:0:
256,192,16749,1,0,0:0:0:0:
256,192,16856,1,0,0:0:0:0:
288,192,17070,1,8,0:0:0:0:
256,192,17284,1,0,0:0:0:0:
288,192,17606,1,8,0:0:0:0:
256,192,17713,1,0,0:0:0:0:
256,192,17927,1,0,0:0:0:0:
288,192,18142,1,8,0:0:0:0:
288,192,18249,1,8,0:0:0:0:
256,192,18356,1,0,0:0:0:0:
256,192,18570,1,0,0:0:0:0:
256,192,18784,1,0,0:0:0:0:
288,192,18892,1,8,0:0:0:0:
256,192,18999,1,0,0:0:0:0:
256,192,19213,1,0,0:0:0:0:
288,192,19427,1,8,0:0:0:0:
288,192,19534,1,8,0:0:0:0:
256,192,19642,1,0,0:0:0:0:
288,192,19856,1,8,0:0:0:0:
256,192,20070,1,0,0:0:0:0:
256,192,20177,1,0,0:0:0:0:
288,192,20284,1,8,0:0:0:0:
288,192,20499,1,8,0:0:0:0:
288,192,20606,1,8,0:0:0:0:
256,192,20713,1,0,0:0:0:0:
288,192,21034,1,8,0:0:0:0:
256,192,21142,1,0,0:0:0:0:
256,192,21356,1,0,0:0:0:0:
256,192,21463,1,0,0:0:0:0:
288,192,21570,1,8,0:0:0:0:
288,192,21677,1,8,0:0:0:0:
256,192,21784,1,0,0:0:0:0:
256,192,21999,1,0,0:0:0:0:
256,192,22213,1,0,0:0:0:0:
288,192,22320,1,8,0:0:0:0:
256,192,22427,1,0,0:0:0:0:
256,192,22642,1,0,0:0:0:0:
256,192,22749,1,0,0:0:0:0:
288,192,22856,1,8,0:0:0:0:
288,192,22963,1,8,0:0:0:0:
256,192,23070,1,0,0:0:0:0:
288,192,23284,1,8,0:0:0:0:
256,192,23499,1,0,0:0:0:0:
256,192,23606,1,0,0:0:0:0:
256,192,23713,1,0,0:0:0:0:
288,192,23927,1,8,0:0:0:0:
288,192,24034,1,8,0:0:0:0:
256,192,24142,1,0,0:0:0:0:
288,192,24463,1,8,0:0:0:0:
256,192,24570,1,0,0:0:0:0:
256,192,24784,1,0,0:0:0:0:
256,192,24892,1,0,0:0:0:0:
288,192,24999,1,8,0:0:0:0:
288,192,25106,1,8,0:0:0:0:
256,192,25213,1,0,0:0:0:0:
256,192,25427,1,0,0:0:0:0:
256,192,25642,1,0,0:0:0:0:
288,192,25749,1,8,0:0:0:0:
256,192,25856,1,0,0:0:0:0:
256,192,26070,1,0,0:0:0:0:
288,192,26177,1,8,0:0:0:0:
256,192,26284,1,0,0:0:0:0:
288,192,26392,1,8,0:0:0:0:
256,192,26499,1,0,0:0:0:0:
288,192,26713,1,8,0:0:0:0:
288,192,26820,1,8,0:0:0:0:
256,192,26927,1,0,0:0:0:0:
256,192,27034,1,0,0:0:0:0:
288,192,27142,1,8,0:0:0:0:
288,192,27356,1,8,0:0:0:0:
288,192,27463,1,8,0:0:0:0:
256,192,27570,1,0,0:0:0:0:
288,192,27892,1,8,0:0:0:0:
256,192,27999,1,0,0:0:0:0:
256,192,28213,1,0,0:0:0:0:
256,192,28320,1,0,0:0:0:0:
288,192,28427,1,8,0:0:0:0:
288,192,28534,1,8,0:0:0:0:
256,192,28642,1,0,0:0:0:0:
256,192,28856,1,0,0:0:0:0:
256,192,29070,1,0,0:0:0:0:
288,192,29177,1,8,0:0:0:0:
256,192,29284,1,0,0:0:0:0:
256,192,29499,1,0,0:0:0:0:
256,192,29606,1,0,0:0:0:0:
288,192,29713,1,8,0:0:0:0:
288,192,29820,1,8,0:0:0:0:
256,192,29927,1,0,0:0:0:0:
288,192,30142,1,8,0:0:0:0:
288,192,30249,1,8,0:0:0:0:
256,192,30356,1,0,0:0:0:0:
256,192,30463,1,0,0:0:0:0:
288,192,30570,1,8,0:0:0:0:
288,192,30784,1,8,0:0:0:0:
288,192,30892,1,8,0:0:0:0:
256,192,30999,1,0,0:0:0:0:
288,192,31320,1,8,0:0:0:0:
256,192,31427,1,0,0:0:0:0:
256,192,31642,1,0,0:0:0:0:
288,192,31749,1,8,0:0:0:0:
256,192,31856,1,0,0:0:0:0:
288,192,31963,1,8,0:0:0:0:
256,192,32070,1,0,0:0:0:0:
256,192,32284,1,0,0:0:0:0:
256,192,32499,1,0,0:0:0:0:
288,192,32606,1,8,0:0:0:0:
256,192,32713,1,0,0:0:0:0:
256,192,32927,1,0,0:0:0:0:
288,192,33142,1,8,0:0:0:0:
288,192,33249,1,8,0:0:0:0:
256,192,33356,1,0,0:0:0:0:
288,192,33570,1,8,0:0:0:0:
256,192,33784,1,0,0:0:0:0:
256,192,33892,1,0,0:0:0:0:
288,192,33999,1,8,0:0:0:0:
288,192,34106,1,8,0:0:0:0:
256,192,34213,1,0,0:0:0:0:
256,192,34320,1,0,0:0:0:0:
256,192,34427,1,0,0:0:0:0:
256,192,34642,1,0,0:0:0:0:
256,192,34749,1,0,0:0:0:0:
288,192,34856,1,8,0:0:0:0:
256,192,35070,1,0,0:0:0:0:
256,192,35177,1,0,0:0:0:0:
288,192,35284,1,8,0:0:0:0:
288,192,35392,1,8,0:0:0:0:
256,192,35499,1,0,0:0:0:0:
256,192,35713,1,0,0:0:0:0:
288,192,35820,1,8,0:0:0:0:
288,192,36034,1,8,0:0:0:0:
256,192,36142,1,0,0:0:0:0:
256,192,36356,1,0,0:0:0:0:
256,192,36463,1,0,0:0:0:0:
288,192,36570,1,8,0:0:0:0:
288,192,36677,1,8,0:0:0:0:
256,192,36784,1,0,0:0:0:0:
288,192,36999,1,8,0:0:0:0:
256,192,37213,1,0,0:0:0:0:
256,192,37320,1,0,0:0:0:0:
288,192,37427,1,8,0:0:0:0:
288,192,37642,1,8,0:0:0:0:
288,192,37749,1,8,0:0:0:0:
256,192,37856,1,0,0:0:0:0:
288,192,38177,1,8,0:0:0:0:
256,192,38284,1,0,0:0:0:0:
256,192,38499,1,0,0:0:0:0:
256,192,38606,1,0,0:0:0:0:
288,192,38713,1,8,0:0:0:0:
288,192,38820,1,8,0:0:0:0:
288,192,38927,1,8,0:0:0:0:
288,192,39034,1,8,0:0:0:0:
288,192,39142,1,8,0:0:0:0:
288,192,39249,1,8,0:0:0:0:
288,192,39356,1,8,0:0:0:0:
288,192,39463,1,8,0:0:0:0:
256,192,39570,1,0,0:0:0:0:
288,192,39677,1,8,0:0:0:0:
288,192,39784,1,8,0:0:0:0:
288,192,39892,1,8,0:0:0:0:
256,192,39999,1,0,0:0:0:0:
288,192,40213,1,8,0:0:0:0:
256,192,40427,1,0,0:0:0:0:
256,192,40534,1,0,0:0:0:0:
256,192,40642,1,0,0:0:0:0:
256,192,40749,1,0,0:0:0:0:
288,192,40856,1,8,0:0:0:0:
288,192,41070,1,8,0:0:0:0:
288,192,41177,1,8,0:0:0:0:
256,192,41284,1,0,0:0:0:0:
256,192,41606,1,0,0:0:0:0:
256,192,41927,1,0,0:0:0:0:
256,192,42249,1,0,0:0:0:0:
256,192,42570,1,0,0:0:0:0:
288,192,44713,1,8,0:0:0:0:
256,192,45034,1,0,0:0:0:0:
256,192,45356,1,0,0:0:0:0:
288,192,45677,1,8,0:0:0:0:
256,192,45999,1,0,0:0:0:0:
256,192,48141,1,0,0:0:0:0:
256,192,48463,1,0,0:0:0:0:
256,192,48784,1,0,0:0:0:0:
288,192,49106,1,8,0:0:0:0:
256,192,49427,1,0,0:0:0:0:
256,192,51570,1,0,0:0:0:0:
256,192,51891,1,0,0:0:0:0:
256,192,52213,1,0,0:0:0:0:
288,192,52534,1,8,0:0:0:0:
256,192,52856,1,0,0:0:0:0:
256,192,54999,1,0,0:0:0:0:
256,192,55320,1,0,0:0:0:0:
256,192,55641,1,0,0:0:0:0:
288,192,55963,1,8,0:0:0:0:
256,192,56284,1,0,0:0:0:0:
288,192,58427,1,8,0:0:0:0:
256,192,58749,1,0,0:0:0:0:
256,192,59070,1,0,0:0:0:0:
288,192,59391,1,8,0:0:0:0:
256,192,59713,1,0,0:0:0:0:
256,192,61856,1,0,0:0:0:0:
288,192,62070,1,8,0:0:0:0:
256,192,62177,1,0,0:0:0:0:
288,192,62499,1,8,0:0:0:0:
288,192,62606,1,8,0:0:0:0:
256,192,62713,1,0,0:0:0:0:
288,192,62820,1,8,0:0:0:0:
288,192,63034,1,8,0:0:0:0:
256,192,63141,1,0,0:0:0:0:
256,192,63356,1,0,0:0:0:0:
256,192,63463,1,0,0:0:0:0:
288,192,63570,1,8,0:0:0:0:
256,192,63784,1,0,0:0:0:0:
288,192,63999,1,8,0:0:0:0:
256,192,64213,1,0,0:0:0:0:
288,192,64427,1,8,0:0:0:0:
256,192,64641,1,0,0:0:0:0:
256,192,64749,1,0,0:0:0:0:
288,192,64856,1,8,0:0:0:0:
256,192,65070,1,0,0:0:0:0:
256,192,65284,1,0,0:0:0:0:
288,192,65499,1,8,0:0:0:0:
256,192,65606,1,0,0:0:0:0:
256,192,65820,1,0,0:0:0:0:
288,192,65927,1,8,0:0:0:0:
256,192,66141,1,0,0:0:0:0:
288,192,66249,1,8,0:0:0:0:
288,192,66356,1,8,0:0:0:0:
288,192,66463,1,8,0:0:0:0:
256,192,66570,1,0,0:0:0:0:
256,192,66784,1,0,0:0:0:0:
256,192,66891,1,0,0:0:0:0:
288,192,66999,1,8,0:0:0:0:
288,192,67106,1,8,0:0:0:0:
256,192,67213,1,0,0:0:0:0:
288,192,67320,1,8,0:0:0:0:
256,192,67427,1,0,0:0:0:0:
288,192,67534,1,8,0:0:0:0:
256,192,67641,1,0,0:0:0:0:
256,192,67749,1,0,0:0:0:0:
288,192,67856,1,8,0:0:0:0:
256,192,68070,1,0,0:0:0:0:
256,192,68284,1,0,0:0:0:0:
288,160,68713,1,12,0:0:0:0:
256,192,69141,1,0,0:0:0:0:
256,192,69249,1,0,0:0:0:0:
288,192,69356,1,8,0:0:0:0:
288,192,69570,1,8,0:0:0:0:
288,192,69677,1,8,0:0:0:0:
288,192,69784,1,8,0:0:0:0:
256,192,69891,1,0,0:0:0:0:
288,192,70106,1,8,0:0:0:0:
288,192,70213,1,8,0:0:0:0:
288,192,70320,1,8,0:0:0:0:
256,192,70427,1,0,0:0:0:0:
288,192,70641,1,8,0:0:0:0:
256,192,70749,1,0,0:0:0:0:
288,192,70963,1,8,0:0:0:0:
256,192,71070,1,0,0:0:0:0:
256,192,71177,1,0,0:0:0:0:
288,192,71284,1,8,0:0:0:0:
288,192,71499,1,8,0:0:0:0:
288,192,71606,1,8,0:0:0:0:
256,192,71713,1,0,0:0:0:0:
256,192,71927,1,0,0:0:0:0:
256,192,72034,1,0,0:0:0:0:
288,192,72141,1,8,0:0:0:0:
288,192,72356,1,8,0:0:0:0:
288,192,72463,1,8,0:0:0:0:
256,192,72570,1,0,0:0:0:0:
256,192,72677,1,0,0:0:0:0:
288,192,72784,1,8,0:0:0:0:
256,192,72999,1,0,0:0:0:0:
288,192,73106,1,8,0:0:0:0:
288,192,73213,1,8,0:0:0:0:
256,192,73320,1,0,0:0:0:0:
256,192,73534,1,0,0:0:0:0:
288,192,73641,1,8,0:0:0:0:
288,192,73749,1,8,0:0:0:0:
256,192,73856,1,0,0:0:0:0:
288,192,74070,1,8,0:0:0:0:
256,192,74177,1,0,0:0:0:0:
256,192,74391,1,0,0:0:0:0:
256,192,74499,1,0,0:0:0:0:
256,192,74606,1,0,0:0:0:0:
288,192,74713,1,8,0:0:0:0:
256,192,74927,1,0,0:0:0:0:
288,192,75034,1,8,0:0:0:0:
256,192,75249,1,0,0:0:0:0:
288,192,75356,1,8,0:0:0:0:
288,160,75570,1,12,0:0:0:0:
256,192,75999,1,0,0:0:0:0:
256,192,76106,1,0,0:0:0:0:
288,192,76213,1,8,0:0:0:0:
288,192,76427,1,8,0:0:0:0:
288,192,76534,1,8,0:0:0:0:
288,192,76641,1,8,0:0:0:0:
256,192,76749,1,0,0:0:0:0:
288,192,76963,1,8,0:0:0:0:
288,192,77070,1,8,0:0:0:0:
288,192,77177,1,8,0:0:0:0:
288,192,77284,1,8,0:0:0:0:
288,192,77499,1,8,0:0:0:0:
256,192,77606,1,0,0:0:0:0:
288,192,77820,1,8,0:0:0:0:
288,192,77927,1,8,0:0:0:0:
288,192,78034,1,8,0:0:0:0:
256,192,78141,1,0,0:0:0:0:
256,192,78356,1,0,0:0:0:0:
288,192,78463,1,8,0:0:0:0:
256,192,78570,1,0,0:0:0:0:
288,192,78784,1,8,0:0:0:0:
288,192,78891,1,8,0:0:0:0:
256,192,78999,1,0,0:0:0:0:
288,192,79213,1,8,0:0:0:0:
288,192,79320,1,8,0:0:0:0:
256,192,79427,1,0,0:0:0:0:
256,192,79534,1,0,0:0:0:0:
288,192,79641,1,8,0:0:0:0:
288,192,79856,1,8,0:0:0:0:
288,192,79963,1,8,0:0:0:0:
288,192,80070,1,8,0:0:0:0:
256,192,80177,1,0,0:0:0:0:
288,192,80391,1,8,0:0:0:0:
288,192,80499,1,8,0:0:0:0:
288,192,80606,1,8,0:0:0:0:
288,192,80713,1,8,0:0:0:0:
256,192,80927,1,0,0:0:0:0:
256,192,81034,1,0,0:0:0:0:
288,192,81141,1,8,0:0:0:0:
256,192,81356,1,0,0:0:0:0:
288,192,81570,1,8,0:0:0:0:
256,160,81784,1,4,0:0:0:0:
288,160,81999,1,12,0:0:0:0:
256,160,82213,1,4,0:0:0:0:
288,192,82427,1,8,0:0:0:0:
288,192,82641,1,8,0:0:0:0:
256,192,82749,1,0,0:0:0:0:
256,192,82856,1,0,0:0:0:0:
256,192,82963,1,0,0:0:0:0:
288,192,83070,1,8,0:0:0:0:
256,192,83284,1,0,0:0:0:0:
288,192,83391,1,8,0:0:0:0:
288,192,83499,1,8,0:0:0:0:
256,192,83606,1,0,0:0:0:0:
288,192,83820,1,8,0:0:0:0:
288,192,83927,1,8,0:0:0:0:
288,192,84034,1,8,0:0:0:0:
256,192,84141,1,0,0:0:0:0:
288,192,84249,1,8,0:0:0:0:
288,192,84356,1,8,0:0:0:0:
256,192,84463,1,0,0:0:0:0:
256,192,84677,1,0,0:0:0:0:
256,192,84784,1,0,0:0:0:0:
256,192,84891,1,0,0:0:0:0:
288,192,84999,1,8,0:0:0:0:
288,192,85213,1,8,0:0:0:0:
288,192,85320,1,8,0:0:0:0:
256,192,85427,1,0,0:0:0:0:
256,192,85641,1,0,0:0:0:0:
288,160,85856,1,12,0:0:0:0:
256,192,86284,1,0,0:0:0:0:
256,192,86391,1,0,0:0:0:0:
288,192,86499,1,8,0:0:0:0:
288,192,86713,1,8,0:0:0:0:
288,192,86820,1,8,0:0:0:0:
288,192,86927,1,8,0:0:0:0:
256,192,87034,1,0,0:0:0:0:
288,192,87249,1,8,0:0:0:0:
288,192,87356,1,8,0:0:0:0:
288,192,87463,1,8,0:0:0:0:
256,192,87570,1,0,0:0:0:0:
288,192,87784,1,8,0:0:0:0:
256,192,87891,1,0,0:0:0:0:
288,192,88106,1,8,0:0:0:0:
256,192,88213,1,0,0:0:0:0:
256,192,88320,1,0,0:0:0:0:
288,192,88427,1,8,0:0:0:0:
256,192,88641,1,0,0:0:0:0:
288,192,88749,1,8,0:0:0:0:
288,192,88963,1,8,0:0:0:0:
256,192,89070,1,0,0:0:0:0:
288,160,89284,1,12,0:0:0:0:
288,192,89499,1,8,0:0:0:0:
288,192,89606,1,8,0:0:0:0:
256,192,89713,1,0,0:0:0:0:
256,192,89820,1,0,0:0:0:0:
288,192,89927,1,8,0:0:0:0:
256,192,90141,1,0,0:0:0:0:
288,192,90249,1,8,0:0:0:0:
288,192,90356,1,8,0:0:0:0:
256,192,90463,1,0,0:0:0:0:
256,192,90677,1,0,0:0:0:0:
288,192,90784,1,8,0:0:0:0:
288,192,90891,1,8,0:0:0:0:
256,192,90999,1,0,0:0:0:0:
288,192,91213,1,8,0:0:0:0:
256,192,91320,1,0,0:0:0:0:
256,192,91534,1,0,0:0:0:0:
256,192,91641,1,0,0:0:0:0:
256,192,91749,1,0,0:0:0:0:
288,192,91856,1,8,0:0:0:0:
288,192,92070,1,8,0:0:0:0:
288,192,92177,1,8,0:0:0:0:
256,192,92284,1,0,0:0:0:0:
256,192,92499,1,0,0:0:0:0:
256,192,92606,1,0,0:0:0:0:
288,192,92713,1,8,0:0:0:0:
288,192,92927,1,8,0:0:0:0:
256,192,93034,1,0,0:0:0:0:
288,192,93249,1,8,0:0:0:0:
256,192,93356,1,0,0:0:0:0:
256,192,93463,1,0,0:0:0:0:
288,192,93570,1,8,0:0:0:0:
288,192,93784,1,8,0:0:0:0:
256,192,93891,1,0,0:0:0:0:
256,192,94106,1,0,0:0:0:0:
288,192,94213,1,8,0:0:0:0:
256,192,94427,1,0,0:0:0:0:
256,192,95606,1,0,0:0:0:0:
288,192,95713,1,8,0:0:0:0:
288,192,96034,1,8,0:0:0:0:
256,192,96141,1,0,0:0:0:0:
256,192,96356,1,0,0:0:0:0:
256,192,96463,1,0,0:0:0:0:
288,192,96570,1,8,0:0:0:0:
256,192,96784,1,0,0:0:0:0:
256,192,97106,1,0,0:0:0:0:
288,192,97213,1,8,0:0:0:0:
256,192,97427,1,0,0:0:0:0:
256,192,97534,1,0,0:0:0:0:
288,192,97641,1,8,0:0:0:0:
256,192,97749,1,0,0:0:0:0:
256,192,97856,1,0,0:0:0:0:
256,192,98070,1,0,0:0:0:0:
256,192,98177,1,0,0:0:0:0:
288,192,98284,1,8,0:0:0:0:
256,192,98499,1,0,0:0:0:0:
288,192,98606,1,8,0:0:0:0:
256,192,98820,1,0,0:0:0:0:
288,192,98927,1,8,0:0:0:0:
256,192,99141,1,0,0:0:0:0:
256,192,99249,1,0,0:0:0:0:
288,192,99356,1,8,0:0:0:0:
256,192,99463,1,0,0:0:0:0:
288,192,99570,1,8,0:0:0:0:
256,192,99784,1,0,0:0:0:0:
256,192,99891,1,0,0:0:0:0:
288,192,99999,1,8,0:0:0:0:
256,192,100213,1,0,0:0:0:0:
256,192,100427,1,0,0:0:0:0:
256,192,100534,1,0,0:0:0:0:
288,192,100641,1,8,0:0:0:0:
256,192,100749,1,0,0:0:0:0:
256,192,100963,1,0,0:0:0:0:
288,192,101070,1,8,0:0:0:0:
288,192,101177,1,8,0:0:0:0:
256,192,101284,1,0,0:0:0:0:
288,192,101499,1,8,0:0:0:0:
256,192,101606,1,0,0:0:0:0:
256,192,101820,1,0,0:0:0:0:
288,192,101927,1,8,0:0:0:0:
256,192,102141,1,0,0:0:0:0:
256,192,102249,1,0,0:0:0:0:
288,192,102356,1,8,0:0:0:0:
288,192,102463,1,8,0:0:0:0:
256,192,102570,1,0,0:0:0:0:
288,192,102784,1,8,0:0:0:0:
288,192,102891,1,8,0:0:0:0:
288,192,102999,1,8,0:0:0:0:
256,192,103213,1,0,0:0:0:0:
256,192,103320,1,0,0:0:0:0:
288,192,103427,1,8,0:0:0:0:
256,192,103641,1,0,0:0:0:0:
256,192,103963,1,0,0:0:0:0:
288,192,104070,1,8,0:0:0:0:
256,192,104284,1,0,0:0:0:0:
256,192,104391,1,0,0:0:0:0:
288,192,104499,1,8,0:0:0:0:
256,192,104606,1,0,0:0:0:0:
256,192,104713,1,0,0:0:0:0:
256,192,104927,1,0,0:0:0:0:
256,192,105034,1,0,0:0:0:0:
288,192,105141,1,8,0:0:0:0:
256,192,105356,1,0,0:0:0:0:
256,192,105463,1,0,0:0:0:0:
288,192,105570,1,8,0:0:0:0:
256,192,105784,1,0,0:0:0:0:
256,192,105891,1,0,0:0:0:0:
256,192,105999,1,0,0:0:0:0:
288,192,106213,1,8,0:0:0:0:
256,192,106427,1,0,0:0:0:0:
256,192,106534,1,0,0:0:0:0:
256,192,106641,1,0,0:0:0:0:
256,192,106749,1,0,0:0:0:0:
288,192,106856,1,8,0:0:0:0:
256,192,106963,1,0,0:0:0:0:
256,192,107070,1,0,0:0:0:0:
288,192,107177,1,8,0:0:0:0:
256,192,107284,1,0,0:0:0:0:
288,192,107499,1,8,0:0:0:0:
256,192,107606,1,0,0:0:0:0:
256,192,107820,1,0,0:0:0:0:
288,192,107927,1,8,0:0:0:0:
288,192,108141,1,8,0:0:0:0:
256,192,108249,1,0,0:0:0:0:
288,192,108356,1,8,0:0:0:0:
256,192,108463,1,0,0:0:0:0:
288,192,108677,1,8,0:0:0:0:
288,192,108784,1,8,0:0:0:0:
288,192,108999,1,8,0:0:0:0:
256,192,109213,1,0,0:0:0:0:
256,192,109320,1,0,0:0:0:0:
288,192,109427,1,8,0:0:0:0:
288,192,109641,1,8,0:0:0:0:
288,192,109856,1,8,0:0:0:0:
256,192,110177,1,0,0:0:0:0:
288,192,110284,1,8,0:0:0:0:
256,192,110499,1,0,0:0:0:0:
256,192,110820,1,0,0:0:0:0:
288,192,110927,1,8,0:0:0:0:
256,192,111141,1,0,0:0:0:0:
256,192,111249,1,0,0:0:0:0:
288,192,111356,1,8,0:0:0:0:
256,192,111463,1,0,0:0:0:0:
256,192,111570,1,0,0:0:0:0:
256,192,111784,1,0,0:0:0:0:
256,192,111891,1,0,0:0:0:0:
288,192,111999,1,8,0:0:0:0:
256,192,112213,1,0,0:0:0:0:
288,192,112320,1,8,0:0:0:0:
256,192,112534,1,0,0:0:0:0:
288,192,112641,1,8,0:0:0:0:
288,192,112856,1,8,0:0:0:0:
288,192,112963,1,8,0:0:0:0:
288,192,113070,1,8,0:0:0:0:
288,192,113177,1,8,0:0:0:0:
288,192,113284,1,8,0:0:0:0:
256,192,113606,1,0,0:0:0:0:
288,192,113713,1,8,0:0:0:0:
288,192,114034,1,8,0:0:0:0:
288,192,114249,1,8,0:0:0:0:
288,192,114356,1,8,0:0:0:0:
288,192,114570,1,8,0:0:0:0:
288,192,114677,1,8,0:0:0:0:
256,192,114784,1,0,0:0:0:0:
256,192,114891,1,0,0:0:0:0:
288,192,114999,1,8,0:0:0:0:
256,192,115213,1,0,0:0:0:0:
288,192,115320,1,8,0:0:0:0:
256,192,115534,1,0,0:0:0:0:
256,192,115641,1,0,0:0:0:0:
288,192,115856,1,8,0:0:0:0:
288,192,115963,1,8,0:0:0:0:
256,192,116070,1,0,0:0:0:0:
256,192,116177,1,0,0:0:0:0:
288,192,116284,1,8,0:0:0:0:
288,192,116499,1,8,0:0:0:0:
288,192,116606,1,8,0:0:0:0:
288,192,116713,1,8,0:0:0:0:
256,192,116927,1,0,0:0:0:0:
256,192,117034,1,0,0:0:0:0:
288,192,117141,1,8,0:0:0:0:
256,192,117356,1,0,0:0:0:0:
256,192,117570,1,0,0:0:0:0:
288,192,117677,1,8,0:0:0:0:
288,192,117784,1,8,0:0:0:0:
256,192,117999,1,0,0:0:0:0:
288,192,118213,1,8,0:0:0:0:
256,192,118320,1,0,0:0:0:0:
256,192,118427,1,0,0:0:0:0:
256,192,118641,1,0,0:0:0:0:
256,192,118749,1,0,0:0:0:0:
288,192,118856,1,0,0:0:0:0:
256,192,119070,1,0,0:0:0:0:
256,192,119284,12,0,120034,0:0:0:0:
256,192,120141,5,0,0:0:0:0:
256,192,120249,1,0,0:0:0:0:
288,192,120356,1,8,0:0:0:0:
256,192,120463,1,0,0:0:0:0:
256,192,120570,1,0,0:0:0:0:
288,192,120677,1,8,0:0:0:0:
256,192,120784,1,0,0:0:0:0:
256,192,120891,1,0,0:0:0:0:
288,192,120999,1,8,0:0:0:0:
288,160,121320,1,8,0:0:0:0:
256,160,121641,1,0,0:0:0:0:
288,160,121856,1,8,0:0:0:0:
256,192,121963,12,0,123463,0:0:0:0:
256,160,123570,5,4,0:0:0:0:
288,192,123891,1,8,0:0:0:0:
256,192,123999,1,0,0:0:0:0:
256,192,124213,1,0,0:0:0:0:
288,192,124427,1,8,0:0:0:0:
288,192,124534,1,8,0:0:0:0:
256,192,124641,1,0,0:0:0:0:
256,192,124856,1,0,0:0:0:0:
288,192,125177,1,8,0:0:0:0:
256,192,125284,1,0,0:0:0:0:
256,192,125499,1,0,0:0:0:0:
288,192,125713,1,8,0:0:0:0:
288,192,125820,1,8,0:0:0:0:
256,192,125927,1,0,0:0:0:0:
288,192,126141,1,8,0:0:0:0:
256,192,126356,1,0,0:0:0:0:
256,192,126570,1,0,0:0:0:0:
256,160,126999,1,4,0:0:0:0:
288,192,127320,1,8,0:0:0:0:
256,192,127427,1,0,0:0:0:0:
256,192,127641,1,0,0:0:0:0:
288,192,127856,1,8,0:0:0:0:
288,192,127963,1,8,0:0:0:0:
256,192,128070,1,0,0:0:0:0:
256,192,128284,1,0,0:0:0:0:
288,192,128606,1,8,0:0:0:0:
256,192,128713,1,0,0:0:0:0:
256,192,128927,1,0,0:0:0:0:
288,192,129141,1,8,0:0:0:0:
288,192,129249,1,8,0:0:0:0:
256,192,129356,1,0,0:0:0:0:
288,192,129570,1,8,0:0:0:0:
256,192,129784,1,0,0:0:0:0:
256,192,129999,1,0,0:0:0:0:
256,192,130427,1,0,0:0:0:0:
288,192,130749,1,8,0:0:0:0:
256,192,130856,1,0,0:0:0:0:
256,192,131070,1,0,0:0:0:0:
288,192,131284,1,8,0:0:0:0:
288,192,131391,1,8,0:0:0:0:
256,192,131499,1,0,0:0:0:0:
256,192,131713,1,0,0:0:0:0:
256,192,131927,1,0,0:0:0:0:
288,192,132034,1,8,0:0:0:0:
256,192,132141,1,0,0:0:0:0:
256,192,132356,1,0,0:0:0:0:
288,192,132570,1,8,0:0:0:0:
288,192,132677,1,8,0:0:0:0:
256,192,132784,1,0,0:0:0:0:
288,192,132999,1,8,0:0:0:0:
256,192,133213,1,0,0:0:0:0:
256,192,133427,1,0,0:0:0:0:
256,192,133856,1,0,0:0:0:0:
288,192,134177,1,8,0:0:0:0:
256,192,134284,1,0,0:0:0:0:
256,192,134499,1,0,0:0:0:0:
288,192,134713,1,8,0:0:0:0:
288,192,134820,1,8,0:0:0:0:
256,192,134927,1,0,0:0:0:0:
256,192,135141,1,0,0:0:0:0:
256,192,135356,1,0,0:0:0:0:
288,192,135463,1,8,0:0:0:0:
256,192,135570,1,0,0:0:0:0:
256,192,135784,1,0,0:0:0:0:
288,192,135999,1,8,0:0:0:0:
288,192,136106,1,8,0:0:0:0:
256,192,136213,1,0,0:0:0:0:
288,192,136427,1,8,0:0:0:0:
256,192,136641,1,0,0:0:0:0:
256,192,136749,1,0,0:0:0:0:
288,192,136856,1,8,0:0:0:0:
288,192,137070,1,8,0:0:0:0:
256,192,137284,1,0,0:0:0:0:
256,192,137499,1,0,0:0:0:0:
256,192,137606,1,0,0:0:0:0:
288,192,137713,1,8,0:0:0:0:
288,192,137927,1,8,0:0:0:0:
256,192,138141,1,0,0:0:0:0:
288,192,138249,1,8,0:0:0:0:
288,192,138356,1,8,0:0:0:0:
256,192,138570,1,0,0:0:0:0:
288,192,138784,1,8,0:0:0:0:
288,192,138999,1,8,0:0:0:0:
288,192,139106,1,8,0:0:0:0:
256,192,139213,1,0,0:0:0:0:
288,192,139427,1,8,0:0:0:0:
256,192,139641,1,0,0:0:0:0:
256,192,139749,1,0,0:0:0:0:
256,192,139856,1,0,0:0:0:0:
288,192,139963,1,8,0:0:0:0:
256,192,140070,1,0,0:0:0:0:
288,192,140284,1,8,0:0:0:0:
288,192,140499,1,8,0:0:0:0:
288,192,140606,1,8,0:0:0:0:
256,192,140713,1,0,0:0:0:0:
288,192,141034,1,8,0:0:0:0:
256,192,141141,1,0,0:0:0:0:
256,192,141356,1,0,0:0:0:0:
256,192,141570,1,0,0:0:0:0:
288,192,141677,1,8,0:0:0:0:
288,192,141784,1,8,0:0:0:0:
256,192,141999,1,0,0:0:0:0:
256,192,142213,1,0,0:0:0:0:
256,192,142320,1,0,0:0:0:0:
288,192,142427,1,8,0:0:0:0:
256,192,142641,1,0,0:0:0:0:
288,192,142856,1,8,0:0:0:0:
256,192,143070,1,0,0:0:0:0:
288,192,143284,1,8,0:0:0:0:
288,192,143391,1,8,0:0:0:0:
256,192,143499,1,0,0:0:0:0:
288,192,143713,1,8,0:0:0:0:
256,192,143927,1,0,0:0:0:0:
288,192,144034,1,8,0:0:0:0:
256,192,144141,1,0,0:0:0:0:
288,192,144463,1,8,0:0:0:0:
256,192,144570,1,0,0:0:0:0:
288,192,144784,1,8,0:0:0:0:
288,192,144891,1,8,0:0:0:0:
256,192,144999,1,0,0:0:0:0:
288,192,145106,1,8,0:0:0:0:
288,192,145320,1,8,0:0:0:0:
256,192,145427,1,0,0:0:0:0:
256,192,145642,1,0,0:0:0:0:
256,192,145749,1,0,0:0:0:0:
288,192,145856,1,8,0:0:0:0:
256,192,146070,1,0,0:0:0:0:
288,192,146284,1,8,0:0:0:0:
256,192,146499,1,0,0:0:0:0:
256,192,146713,1,0,0:0:0:0:
288,192,146820,1,8,0:0:0:0:
256,192,146927,1,0,0:0:0:0:
288,192,147142,1,8,0:0:0:0:
256,192,147570,1,0,0:0:0:0:
288,192,147677,1,8,0:0:0:0:
288,192,147892,1,8,0:0:0:0:
256,192,147999,1,0,0:0:0:0:
256,192,148213,1,0,0:0:0:0:
256,192,148320,1,0,0:0:0:0:
256,192,148427,1,0,0:0:0:0:
288,192,148534,1,8,0:0:0:0:
288,192,148749,1,8,0:0:0:0:
256,192,148856,1,0,0:0:0:0:
256,192,149070,1,0,0:0:0:0:
256,192,149177,1,0,0:0:0:0:
288,192,149284,1,8,0:0:0:0:
256,192,149499,1,0,0:0:0:0:
288,192,149713,1,8,0:0:0:0:
256,192,149927,1,0,0:0:0:0:
288,192,150142,1,8,0:0:0:0:
288,192,150356,1,8,0:0:0:0:
288,192,150463,1,8,0:0:0:0:
256,192,150570,1,0,0:0:0:0:
288,192,150677,1,8,0:0:0:0:
256,192,150784,1,0,0:0:0:0:
288,192,150892,1,8,0:0:0:0:
256,192,150999,1,0,0:0:0:0:
256,192,151213,1,0,0:0:0:0:
256,192,151320,1,0,0:0:0:0:
288,192,151427,1,8,0:0:0:0:
288,192,151642,1,8,0:0:0:0:
256,192,151856,1,0,0:0:0:0:
288,192,151963,1,8,0:0:0:0:
288,192,152070,1,8,0:0:0:0:
256,192,152284,1,0,0:0:0:0:
288,192,152499,1,8,0:0:0:0:
288,192,152713,1,8,0:0:0:0:
288,192,152820,1,8,0:0:0:0:
256,192,152927,1,0,0:0:0:0:
288,192,153142,1,8,0:0:0:0:
256,192,153356,1,0,0:0:0:0:
256,192,153463,1,0,0:0:0:0:
256,192,153570,1,0,0:0:0:0:
288,192,153677,1,8,0:0:0:0:
256,192,153784,1,0,0:0:0:0:
288,192,153999,1,8,0:0:0:0:
288,192,154213,1,8,0:0:0:0:
288,192,154320,1,8,0:0:0:0:
256,192,154427,1,0,0:0:0:0:
288,192,154749,1,8,0:0:0:0:
256,192,154856,1,0,0:0:0:0:
256,192,155070,1,0,0:0:0:0:
256,192,155284,1,0,0:0:0:0:
288,192,155392,1,8,0:0:0:0:
288,192,155499,1,8,0:0:0:0:
256,192,155713,1,0,0:0:0:0:
256,192,155927,1,0,0:0:0:0:
256,192,156034,1,0,0:0:0:0:
288,192,156142,1,8,0:0:0:0:
256,192,156356,1,0,0:0:0:0:
288,192,156570,1,8,0:0:0:0:
256,192,156784,1,0,0:0:0:0:
288,192,156999,1,8,0:0:0:0:
288,192,157106,1,8,0:0:0:0:
256,192,157213,1,0,0:0:0:0:
288,192,157427,1,8,0:0:0:0:
256,192,157642,1,0,0:0:0:0:
288,192,157749,1,8,0:0:0:0:
256,192,157856,1,0,0:0:0:0:
288,192,158177,1,8,0:0:0:0:
256,192,158284,1,0,0:0:0:0:
288,192,158499,1,8,0:0:0:0:
288,192,158606,1,8,0:0:0:0:
256,192,158713,1,0,0:0:0:0:
288,192,158820,1,8,0:0:0:0:
288,192,159034,1,8,0:0:0:0:
256,192,159142,1,0,0:0:0:0:
256,192,159356,1,0,0:0:0:0:
256,192,159463,1,0,0:0:0:0:
288,192,159570,1,8,0:0:0:0:
256,192,159784,1,0,0:0:0:0:
288,192,159999,1,8,0:0:0:0:
256,192,160213,1,0,0:0:0:0:
256,192,160427,1,0,0:0:0:0:
288,192,160534,1,8,0:0:0:0:
256,192,160642,1,0,0:0:0:0:
288,192,160856,1,8,0:0:0:0:
256,192,161284,1,0,0:0:0:0:
288,192,161392,1,8,0:0:0:0:
288,192,161606,1,8,0:0:0:0:
256,192,161713,1,0,0:0:0:0:
256,192,161927,1,0,0:0:0:0:
256,192,162034,1,0,0:0:0:0:
256,192,162142,1,0,0:0:0:0:
288,192,162249,1,8,0:0:0:0:
288,192,162463,1,8,0:0:0:0:
256,192,162570,1,0,0:0:0:0:
256,192,162784,1,0,0:0:0:0:
256,192,162892,1,0,0:0:0:0:
288,192,162999,1,8,0:0:0:0:
288,192,163106,1,8,0:0:0:0:
256,192,163213,1,0,0:0:0:0:
288,192,163320,1,8,0:0:0:0:
256,192,163427,1,0,0:0:0:0:
256,192,163534,1,0,0:0:0:0:
288,192,163642,1,8,0:0:0:0:
256,192,163749,1,0,0:0:0:0:
256,192,163856,1,0,0:0:0:0:
288,192,163963,1,8,0:0:0:0:
256,192,164070,1,0,0:0:0:0:
288,192,164284,1,8,0:0:0:0:
288,160,164713,1,12,0:0:0:0:
288,192,165034,1,0,0:0:0:0:
256,192,165142,1,0,0:0:0:0:
256,192,165249,1,0,0:0:0:0:
288,192,165356,1,8,0:0:0:0:
288,192,165570,1,8,0:0:0:0:
288,192,165677,1,8,0:0:0:0:
288,192,165784,1,8,0:0:0:0:
256,192,165892,1,0,0:0:0:0:
288,192,166106,1,8,0:0:0:0:
288,192,166213,1,8,0:0:0:0:
288,192,166320,1,8,0:0:0:0:
256,192,166427,1,0,0:0:0:0:
288,192,166642,1,8,0:0:0:0:
256,192,166749,1,0,0:0:0:0:
288,192,166963,1,8,0:0:0:0:
256,192,167070,1,0,0:0:0:0:
256,192,167177,1,0,0:0:0:0:
288,192,167284,1,8,0:0:0:0:
288,192,167499,1,8,0:0:0:0:
288,192,167606,1,8,0:0:0:0:
256,192,167713,1,0,0:0:0:0:
256,192,167927,1,0,0:0:0:0:
256,192,168034,1,0,0:0:0:0:
288,192,168142,1,8,0:0:0:0:
288,192,168356,1,8,0:0:0:0:
288,192,168463,1,8,0:0:0:0:
256,192,168570,1,0,0:0:0:0:
256,192,168677,1,0,0:0:0:0:
288,192,168784,1,8,0:0:0:0:
256,192,168999,1,0,0:0:0:0:
288,192,169106,1,8,0:0:0:0:
288,192,169213,1,8,0:0:0:0:
256,192,169320,1,0,0:0:0:0:
256,192,169534,1,0,0:0:0:0:
288,192,169642,1,8,0:0:0:0:
288,192,169749,1,8,0:0:0:0:
256,192,169856,1,0,0:0:0:0:
288,192,170070,1,8,0:0:0:0:
256,192,170177,1,0,0:0:0:0:
256,192,170392,1,0,0:0:0:0:
256,192,170499,1,0,0:0:0:0:
256,192,170606,1,0,0:0:0:0:
288,192,170713,1,8,0:0:0:0:
256,192,170927,1,0,0:0:0:0:
288,192,171034,1,8,0:0:0:0:
256,192,171249,1,0,0:0:0:0:
288,192,171356,1,8,0:0:0:0:
288,160,171570,1,12,0:0:0:0:
288,192,171784,1,8,0:0:0:0:
288,192,171892,1,8,0:0:0:0:
256,192,171999,1,0,0:0:0:0:
256,192,172106,1,0,0:0:0:0:
288,192,172213,1,8,0:0:0:0:
288,192,172427,1,8,0:0:0:0:
288,192,172534,1,8,0:0:0:0:
288,192,172642,1,8,0:0:0:0:
256,192,172749,1,0,0:0:0:0:
288,192,172963,1,8,0:0:0:0:
288,192,173070,1,8,0:0:0:0:
288,192,173177,1,8,0:0:0:0:
256,192,173284,1,0,0:0:0:0:
288,192,173499,1,8,0:0:0:0:
256,192,173606,1,0,0:0:0:0:
288,192,173820,1,8,0:0:0:0:
288,192,173927,1,8,0:0:0:0:
288,192,174034,1,8,0:0:0:0:
256,192,174142,1,0,0:0:0:0:
256,192,174356,1,0,0:0:0:0:
288,192,174463,1,8,0:0:0:0:
256,192,174570,1,0,0:0:0:0:
288,192,174784,1,8,0:0:0:0:
288,192,174892,1,8,0:0:0:0:
256,192,174999,1,0,0:0:0:0:
288,192,175213,1,8,0:0:0:0:
288,192,175320,1,8,0:0:0:0:
256,192,175427,1,0,0:0:0:0:
256,192,175534,1,0,0:0:0:0:
288,192,175642,1,8,0:0:0:0:
288,192,175856,1,8,0:0:0:0:
288,192,175963,1,8,0:0:0:0:
288,192,176070,1,8,0:0:0:0:
256,192,176177,1,0,0:0:0:0:
288,192,176392,1,8,0:0:0:0:
288,192,176499,1,8,0:0:0:0:
288,192,176606,1,8,0:0:0:0:
288,192,176713,1,8,0:0:0:0:
256,192,176927,1,0,0:0:0:0:
256,192,177034,1,0,0:0:0:0:
288,192,177142,1,8,0:0:0:0:
256,192,177356,1,0,0:0:0:0:
288,192,177570,1,8,0:0:0:0:
256,160,177784,1,4,0:0:0:0:
288,160,177999,1,12,0:0:0:0:
256,160,178213,1,4,0:0:0:0:
288,192,178427,1,8,0:0:0:0:
288,192,178642,1,8,0:0:0:0:
256,192,178749,1,0,0:0:0:0:
256,192,178856,1,0,0:0:0:0:
256,192,178963,1,0,0:0:0:0:
288,192,179070,1,8,0:0:0:0:
256,192,179284,1,0,0:0:0:0:
288,192,179392,1,8,0:0:0:0:
288,192,179499,1,8,0:0:0:0:
256,192,179606,1,0,0:0:0:0:
288,192,179820,1,8,0:0:0:0:
288,192,179927,1,8,0:0:0:0:
288,192,180034,1,8,0:0:0:0:
256,192,180142,1,0,0:0:0:0:
288,192,180249,1,8,0:0:0:0:
288,192,180356,1,8,0:0:0:0:
256,192,180463,1,0,0:0:0:0:
256,192,180677,1,0,0:0:0:0:
256,192,180784,1,0,0:0:0:0:
256,192,180892,1,0,0:0:0:0:
288,192,180999,1,8,0:0:0:0:
288,192,181213,1,8,0:0:0:0:
288,192,181320,1,8,0:0:0:0:
256,192,181427,1,0,0:0:0:0:
256,192,181642,1,0,0:0:0:0:
288,160,181856,1,12,0:0:0:0:
256,192,182284,1,0,0:0:0:0:
256,192,182392,1,0,0:0:0:0:
288,192,182499,1,8,0:0:0:0:
288,192,182713,1,8,0:0:0:0:
288,192,182820,1,8,0:0:0:0:
288,192,182927,1,8,0:0:0:0:
256,192,183034,1,0,0:0:0:0:
288,192,183249,1,8,0:0:0:0:
288,192,183356,1,8,0:0:0:0:
288,192,183463,1,8,0:0:0:0:
256,192,183570,1,0,0:0:0:0:
288,192,183784,1,8,0:0:0:0:
256,192,183892,1,0,0:0:0:0:
288,192,184106,1,8,0:0:0:0:
256,192,184213,1,0,0:0:0:0:
256,192,184320,1,0,0:0:0:0:
288,192,184427,1,8,0:0:0:0:
256,192,184642,1,0,0:0:0:0:
288,192,184749,1,8,0:0:0:0:
288,192,184963,1,8,0:0:0:0:
256,192,185070,1,0,0:0:0:0:
288,160,185284,1,12,0:0:0:0:
288,192,185499,1,8,0:0:0:0:
288,192,185606,1,8,0:0:0:0:
256,192,185713,1,0,0:0:0:0:
256,192,185820,1,0,0:0:0:0:
288,192,185927,1,8,0:0:0:0:
256,192,186142,1,0,0:0:0:0:
288,192,186249,1,8,0:0:0:0:
288,192,186356,1,8,0:0:0:0:
256,192,186463,1,0,0:0:0:0:
256,192,186677,1,0,0:0:0:0:
288,192,186784,1,8,0:0:0:0:
288,192,186892,1,8,0:0:0:0:
256,192,186999,1,0,0:0:0:0:
288,192,187213,1,8,0:0:0:0:
256,192,187320,1,0,0:0:0:0:
256,192,187534,1,0,0:0:0:0:
256,192,187642,1,0,0:0:0:0:
256,192,187749,1,0,0:0:0:0:
288,192,187856,1,8,0:0:0:0:
288,192,188070,1,8,0:0:0:0:
288,192,188177,1,8,0:0:0:0:
256,192,188284,1,0,0:0:0:0:
256,192,188499,1,0,0:0:0:0:
256,192,188606,1,0,0:0:0:0:
288,192,188713,1,8,0:0:0:0:
288,192,188927,1,8,0:0:0:0:
256,192,189034,1,0,0:0:0:0:
288,192,189249,1,8,0:0:0:0:
256,192,189356,1,0,0:0:0:0:
256,192,189463,1,0,0:0:0:0:
288,192,189570,1,8,0:0:0:0:
288,192,189784,1,8,0:0:0:0:
256,192,189892,1,0,0:0:0:0:
256,192,190106,1,0,0:0:0:0:
288,192,190213,1,8,0:0:0:0:
256,192,190427,1,0,0:0:0:0:
256,192,191606,1,0,0:0:0:0:
288,192,191713,1,8,0:0:0:0:
288,192,192034,1,8,0:0:0:0:
256,192,192142,1,0,0:0:0:0:
256,192,192356,1,0,0:0:0:0:
256,192,192463,1,0,0:0:0:0:
288,192,192570,1,8,0:0:0:0:
256,192,192784,1,0,0:0:0:0:
256,192,193106,1,0,0:0:0:0:
288,192,193213,1,8,0:0:0:0:
256,192,193427,1,0,0:0:0:0:
256,192,193534,1,0,0:0:0:0:
288,192,193642,1,8,0:0:0:0:
256,192,193749,1,0,0:0:0:0:
256,192,193856,1,0,0:0:0:0:
256,192,194070,1,0,0:0:0:0:
256,192,194177,1,0,0:0:0:0:
288,192,194284,1,8,0:0:0:0:
256,192,194499,1,0,0:0:0:0:
288,192,194606,1,8,0:0:0:0:
256,192,194820,1,0,0:0:0:0:
288,192,194927,1,8,0:0:0:0:
256,192,195142,1,0,0:0:0:0:
256,192,195249,1,0,0:0:0:0:
288,192,195356,1,8,0:0:0:0:
256,192,195463,1,0,0:0:0:0:
288,192,195570,1,8,0:0:0:0:
256,192,195784,1,0,0:0:0:0:
256,192,195892,1,0,0:0:0:0:
288,192,195999,1,8,0:0:0:0:
256,192,196213,1,0,0:0:0:0:
256,192,196427,1,0,0:0:0:0:
256,192,196534,1,0,0:0:0:0:
288,192,196642,1,8,0:0:0:0:
256,192,196749,1,0,0:0:0:0:
256,192,196963,1,0,0:0:0:0:
288,192,197070,1,8,0:0:0:0:
288,192,197177,1,8,0:0:0:0:
256,192,197284,1,0,0:0:0:0:
288,192,197499,1,8,0:0:0:0:
256,192,197606,1,0,0:0:0:0:
256,192,197820,1,0,0:0:0:0:
288,192,197927,1,8,0:0:0:0:
256,192,198142,1,0,0:0:0:0:
256,192,198249,1,0,0:0:0:0:
288,192,198356,1,8,0:0:0:0:
288,192,198463,1,8,0:0:0:0:
256,192,198570,1,0,0:0:0:0:
288,192,198784,1,8,0:0:0:0:
288,192,198892,1,8,0:0:0:0:
288,192,198999,1,8,0:0:0:0:
256,192,199213,1,0,0:0:0:0:
256,192,199320,1,0,0:0:0:0:
288,192,199427,1,8,0:0:0:0:
256,192,199642,1,0,0:0:0:0:
256,192,199963,1,0,0:0:0:0:
288,192,200070,1,8,0:0:0:0:
256,192,200284,1,0,0:0:0:0:
256,192,200392,1,0,0:0:0:0:
288,192,200499,1,8,0:0:0:0:
256,192,200606,1,0,0:0:0:0:
256,192,200713,1,0,0:0:0:0:
256,192,200927,1,0,0:0:0:0:
256,192,201034,1,0,0:0:0:0:
288,192,201142,1,8,0:0:0:0:
256,192,201356,1,0,0:0:0:0:
256,192,201463,1,0,0:0:0:0:
288,192,201570,1,8,0:0:0:0:
256,192,201784,1,0,0:0:0:0:
256,192,201892,1,0,0:0:0:0:
256,192,201999,1,0,0:0:0:0:
288,192,202213,1,8,0:0:0:0:
256,192,202427,1,0,0:0:0:0:
256,192,202534,1,0,0:0:0:0:
256,192,202642,1,0,0:0:0:0:
256,192,202749,1,0,0:0:0:0:
288,192,202856,1,8,0:0:0:0:
256,192,202963,1,0,0:0:0:0:
256,192,203070,1,0,0:0:0:0:
288,192,203177,1,8,0:0:0:0:
256,192,203284,1,0,0:0:0:0:
288,192,203499,1,8,0:0:0:0:
256,192,203606,1,0,0:0:0:0:
256,192,203820,1,0,0:0:0:0:
288,192,203927,1,8,0:0:0:0:
288,192,204142,1,8,0:0:0:0:
256,192,204249,1,0,0:0:0:0:
288,192,204356,1,8,0:0:0:0:
256,192,204463,1,0,0:0:0:0:
288,192,204677,1,8,0:0:0:0:
288,192,204784,1,8,0:0:0:0:
288,192,204999,1,8,0:0:0:0:
256,192,205213,1,0,0:0:0:0:
256,192,205320,1,0,0:0:0:0:
288,192,205427,1,8,0:0:0:0:
288,192,205642,1,8,0:0:0:0:
288,192,205856,1,8,0:0:0:0:
256,192,206177,1,0,0:0:0:0:
288,192,206284,1,8,0:0:0:0:
256,192,206499,1,0,0:0:0:0:
256,192,206820,1,0,0:0:0:0:
288,192,206927,1,8,0:0:0:0:
256,192,207142,1,0,0:0:0:0:
256,192,207249,1,0,0:0:0:0:
288,192,207356,1,8,0:0:0:0:
256,192,207463,1,0,0:0:0:0:
256,192,207570,1,0,0:0:0:0:
256,192,207784,1,0,0:0:0:0:
256,192,207892,1,0,0:0:0:0:
288,192,207999,1,8,0:0:0:0:
256,192,208213,1,0,0:0:0:0:
288,192,208320,1,8,0:0:0:0:
256,192,208534,1,0,0:0:0:0:
288,192,208642,1,8,0:0:0:0:
288,192,208856,1,8,0:0:0:0:
288,192,208963,1,8,0:0:0:0:
288,192,209070,1,8,0:0:0:0:
288,192,209177,1,8,0:0:0:0:
288,192,209284,1,8,0:0:0:0:
256,192,209606,1,0,0:0:0:0:
288,192,209713,1,8,0:0:0:0:
288,192,210034,1,8,0:0:0:0:
288,192,210249,1,8,0:0:0:0:
288,192,210356,1,8,0:0:0:0:
288,192,210570,1,8,0:0:0:0:
288,192,210677,1,8,0:0:0:0:
256,192,210784,1,0,0:0:0:0:
256,192,210892,1,0,0:0:0:0:
288,192,210999,1,8,0:0:0:0:
256,192,211213,1,0,0:0:0:0:
288,192,211320,1,8,0:0:0:0:
256,192,211534,1,0,0:0:0:0:
256,192,211642,1,0,0:0:0:0:
288,192,211856,1,8,0:0:0:0:
288,192,211963,1,8,0:0:0:0:
256,192,212070,1,0,0:0:0:0:
256,192,212177,1,0,0:0:0:0:
288,192,212284,1,8,0:0:0:0:
288,192,212499,1,8,0:0:0:0:
288,192,212606,1,8,0:0:0:0:
288,192,212713,1,8,0:0:0:0:
256,192,212927,1,0,0:0:0:0:
256,192,213034,1,0,0:0:0:0:
288,192,213142,1,8,0:0:0:0:
256,192,213356,1,0,0:0:0:0:
256,192,213570,1,0,0:0:0:0:
288,192,213677,1,8,0:0:0:0:
288,192,213784,1,8,0:0:0:0:
256,192,213999,1,0,0:0:0:0:
288,192,214213,1,8,0:0:0:0:
256,192,214320,1,0,0:0:0:0:
256,192,214427,1,0,0:0:0:0:
256,192,214642,1,0,0:0:0:0:
256,192,214749,1,0,0:0:0:0:
288,192,214856,1,0,0:0:0:0:
256,192,215070,1,0,0:0:0:0:
256,192,215284,12,0,216034,0:0:0:0:
256,192,216142,5,0,0:0:0:0:
256,192,216249,1,0,0:0:0:0:
288,192,216356,1,8,0:0:0:0:
256,192,216463,1,0,0:0:0:0:
256,192,216570,1,0,0:0:0:0:
288,192,216677,1,8,0:0:0:0:
256,192,216784,1,0,0:0:0:0:
256,192,216892,1,0,0:0:0:0:
288,192,216999,1,8,0:0:0:0:
288,160,217320,1,8,0:0:0:0:
256,160,217642,1,0,0:0:0:0:
288,160,217856,1,8,0:0:0:0:
256,160,219570,1,4,0:0:0:0:
256,192,219677,12,0,222999,0:0:0:0:
