osu file format v12

[General]
AudioFilename: Skrillex-Imma Try It Out.mp3
AudioLeadIn: 0
PreviewTime: 65190
Countdown: 0
SampleSet: Normal
StackLeniency: 0.7
Mode: 0
LetterboxInBreaks: 1

[Editor]
Bookmarks: 6957,13815,41243,164724
DistanceSpacing: 1.2
BeatDivisor: 4
GridSize: 4

[Metadata]
Title:Imma Try It Out (feat. Alvin Risk)
TitleUnicode:Imma Try It Out (feat. Alvin Risk)
Artist:Skrillex
ArtistUnicode:Skrillex
Creator:Foreverends
Version:Normal
Source:
Tags:Call Of Duty Black Ops 2 dubstep Sonny Moore KiyoshiX101 Cancel Nardoxyribonucleic
BeatmapID:225241
BeatmapSetID:76662

[Difficulty]
HPDrainRate:4
CircleSize:3
OverallDifficulty:4
ApproachRate:5
SliderMultiplier:1.2
SliderTickRate:2

[Events]
//Background and Video events
0,0,"bg.jpg",0,0
//Break Periods
2,41485,53799
2,123771,136085
//Storyboard Layer 0 (Background)
//Storyboard Layer 1 (Fail)
//Storyboard Layer 2 (Pass)
//Storyboard Layer 3 (Foreground)
//Storyboard Sound Samples
//Background Colour Transformations
3,100,163,162,255

[TimingPoints]
142,428.571428571429,4,1,1,60,1,0
25000,-100,4,1,2,60,0,0
25214,-100,4,1,1,60,0,0
25642,-100,4,1,2,60,0,0
25857,-100,4,1,1,60,0,0
26714,-100,4,1,2,60,0,0
26928,-100,4,1,1,60,0,0
28428,-100,4,1,0,60,0,0
29285,-100,4,1,1,60,0,0
30142,-100,4,1,0,60,0,0
32714,-100,4,1,1,60,0,0
33142,-100,4,1,2,60,0,0
34428,-100,4,1,1,60,0,0
54999,-100,4,3,1,60,0,0
68713,-100,4,1,1,60,0,1
80713,-100,4,1,1,60,0,0
82427,-100,4,1,1,60,0,1
94320,-100,4,1,1,60,0,0
94427,-100,4,1,1,60,0,1
94534,-100,4,1,1,60,0,0
96141,-100,4,1,1,60,0,1
106427,-100,4,1,1,60,0,0
109856,-100,4,1,1,60,0,1
123463,-100,4,1,1,60,0,0
123570,-100,4,1,1,60,0,1
123677,-100,4,1,1,60,0,0
137284,-100,4,1,3,60,0,0
164713,-100,4,1,1,60,0,1
176713,-100,4,1,1,60,0,0
178427,-100,4,1,1,60,0,1
190320,-100,4,1,1,60,0,0
190427,-100,4,1,1,60,0,1
190534,-100,4,1,1,60,0,0
192141,-100,4,1,1,60,0,1
202427,-100,4,1,1,60,0,0
205856,-100,4,1,1,60,0,1
217856,-100,4,1,1,60,0,0
219463,-100,4,1,1,60,0,0
219570,-100,4,1,1,60,0,1
219678,-100,4,1,1,60,0,0
219999,-100,4,1,1,55,0,0
220427,-100,4,1,1,50,0,0
220856,-100,4,1,1,45,0,0
221284,-100,4,1,1,40,0,0
221713,-100,4,1,1,35,0,0
222142,-100,4,1,1,30,0,0
222570,-100,4,1,1,25,0,0
222999,-100,4,1,1,20,0,0
223427,-100,4,1,1,15,0,0
223856,-100,4,1,1,10,0,0
224284,-100,4,2,1,5,0,0

[Colours]
Combo1 : 255,0,255
Combo2 : 0,163,240
Combo3 : 0,242,242
Combo4 : 251,34,34
Combo5 : 0,255,64
SliderBorder : 255,255,255

[HitObjects]
272,160,6999,2,0,P|372:108|468:188,2,240
368,216,9142,1,0,0:0:0:0:
392,332,9570,1,0,0:0:0:0:
288,288,9999,2,0,P|224:312|176:288,1,120
88,344,10857,5,0,0:0:0:0:
80,240,11285,2,0,P|152:192|240:232,2,180
16,152,12999,2,0,L|16:88,2,60,0|0|0,0:0|0:0|0:0,0:0:0:0:
120,184,13857,5,0,0:0:0:0:
216,224,14285,1,0,0:0:0:0:
272,136,14714,2,0,P|312:96|376:96,1,120
456,24,15571,2,0,P|388:104|460:200,1,240
480,112,16857,1,0,0:0:0:0:
480,112,17285,6,0,L|240:112,1,240
160,48,18571,1,0,0:0:0:0:
160,48,19000,2,0,P|128:104|160:176,1,120
184,192,19642,2,0,P|208:248|184:304,1,120
187,300,20285,1,0,0:0:0:0:
288,344,20714,6,0,B|408:368|408:368|496:280,1,240
456,184,22000,1,0,0:0:0:0:
376,256,22428,2,0,L|248:232,1,120
336,160,23285,2,0,L|224:208,1,120
248,104,24142,6,0,L|168:208,2,120
352,72,25428,1,0,0:0:0:0:
424,152,25857,2,0,P|448:192|440:248,2,90
360,216,26714,2,0,P|352:272|296:312,2,120
296,128,28000,5,0,0:0:0:0:
264,244,28428,2,0,P|168:328|96:256,1,240
96,148,29714,2,0,P|136:100|192:100,1,120
300,144,30571,1,0,0:0:0:0:
364,44,31000,6,0,B|436:44|444:164|404:220|364:244|300:204|308:292|308:292|264:296,1,360
160,312,32714,2,0,P|128:336|112:384,2,90
128,272,33571,2,8,P|80:240|72:200,2,90
176,240,34428,6,0,P|176:192|240:160,1,120
176,240,35285,2,0,P|176:296|256:320,1,120
336,320,36142,2,0,B|400:312|400:312|408:272|432:248|480:248|480:248|496:176,2,240
272,232,38285,5,0,0:0:0:0:
336,144,38714,2,0,L|296:96,1,60
352,80,39142,2,0,L|288:56,1,60
328,16,39571,6,0,L|264:32,1,60
212,44,39999,2,0,L|132:64,1,60
96,68,40427,1,0,0:0:0:0:
160,172,40857,1,0,0:0:0:0:
160,172,41285,5,4,0:0:0:0:
112,64,54999,6,0,P|88:96|88:152,1,90,8|0,0:0|0:0,0:0:0:0:
168,128,55642,2,0,P|176:168|224:192,2,90,8|0|8,0:0|0:0|0:0,0:0:0:0:
256,64,56714,2,0,P|320:56|376:112,1,120
344,144,57357,1,0,0:0:0:0:
344,204,57571,2,0,P|340:260|380:308,1,120
284,348,58428,6,0,L|188:364,1,90,0|0,0:0|0:0,0:0:0:0:
176,284,59071,2,0,P|128:308|120:356,2,90
284,268,60142,2,0,B|316:244|340:268|340:268|364:292|404:268,1,120
432,228,60785,1,0,0:0:0:0:
436,168,60999,2,0,B|376:144|376:144|316:144,1,120
208,136,61857,6,0,P|163:151|128:176,1,90
180,240,62499,2,0,P|155:275|140:320,2,90
248,320,63571,2,0,P|309:315|360:280,1,120
388,240,64214,1,0,0:0:0:0:
396,188,64428,2,0,L|260:188,1,120
120,120,65285,6,0,L|184:120,1,60
164,176,65714,2,0,P|124:232|156:280,1,120
192,308,66357,1,0,0:0:0:0:
252,304,66571,2,0,P|316:288|380:320,1,120
412,272,67214,6,0,L|396:200,2,60
444,324,67856,1,0,0:0:0:0:
448,168,68714,6,0,B|400:160|388:180|388:180|408:224|396:272|368:304|336:304|336:304|304:288,1,240,2|0,0:0|0:0,0:0:0:0:
328,188,69999,1,0,0:0:0:0:
236,120,70428,2,0,P|180:112|148:216,1,180
184,248,71285,2,0,B|176:272|176:272|188:280|188:280|172:320|196:360,1,120
304,348,72142,6,0,B|284:320|284:320|308:296|308:296|392:360|488:296,1,240,2|0,0:0|0:0,0:0:0:0:
436,204,73427,1,0,0:0:0:0:
360,136,73857,2,0,B|292:164|292:164|160:136,1,180
168,228,74714,2,2,B|216:232|216:232|272:264,2,90
132,268,75571,6,0,B|92:264|92:264|80:240|92:216|92:216|112:200|112:200|36:160|68:72,1,240,2|0,0:0|0:0,0:0:0:0:
140,120,76749,2,0,P|188:140|240:128,1,90
276,116,77285,2,0,B|320:108|320:108|356:116|356:116|392:108|392:108|432:116|432:116|480:104,1,180
452,164,78142,2,0,B|432:196|432:196|460:248|460:248|432:284,1,120,2|0,0:0|0:0,0:0:0:0:
356,324,78999,6,0,B|372:292|328:272|300:304|328:344|328:344|248:336|188:356,2,240,2|0|2,0:0|0:0|0:0,0:0:0:0:
452,276,81142,5,2,0:0:0:0:
436,168,81571,1,8,0:0:0:0:
328,152,81999,1,2,0:0:0:0:
272,244,82428,6,0,B|248:264|248:264|232:240|232:240|216:256|216:256|188:252|188:252|156:264|156:264|104:288|56:248,1,240,2|0,0:0|0:0,0:0:0:0:
124,164,83713,1,0,0:0:0:0:
88,52,84142,2,0,B|180:72|180:72|212:24|272:24,1,180
308,40,84999,2,0,P|332:104|308:156,1,120,2|0,0:0|0:0,0:0:0:0:
204,196,85857,6,0,B|240:168|240:168|276:184|276:184|312:128|376:120|432:160,1,240,2|2,0:0|0:0,0:0:0:0:
360,232,87142,1,0,0:0:0:0:
440,304,87571,2,0,L|240:344,1,180,2|0,0:0|0:0,0:0:0:0:
216,348,88428,2,2,P|172:320|164:264,2,90
272,348,89285,6,0,B|264:320|264:320|288:304|288:304|268:280|268:280|280:268|280:268|268:240|268:240|280:208|280:208|272:128,1,240,2|0,0:0|0:0,0:0:0:0:
368,84,90570,1,0,0:0:0:0:
356,196,90999,2,0,B|352:236|328:264|328:264|376:364,1,180,2|0,0:0|0:0,0:0:0:0:
428,356,91857,2,0,L|468:268,2,90,2|0|0,0:0|0:0|0:0,0:0:0:0:
368,352,92714,6,0,L|120:324,2,240,2|8|2,0:0|0:0|0:0,0:0:0:0:
368,352,96142,6,0,B|352:316|352:316|384:284|384:284|420:276|420:276|448:224|432:140|340:136,1,300,6|2,0:0|0:0,0:0:0:0:
240,160,97642,1,0,0:0:0:0:
284,204,97857,2,0,B|228:264|228:264|172:236,1,120
124,192,98607,2,0,P|112:152|132:104,2,90
88,272,99571,6,0,B|56:260|56:260|68:248|68:248|64:220|64:220|44:216|44:216|32:192|-8:120|84:12,1,300,6|0,0:0|0:0,0:0:0:0:
152,104,100964,1,0,0:0:0:0:
248,56,101285,2,0,L|348:40,2,90
248,120,102142,2,2,B|232:160|232:160|260:160|260:160|248:196|248:196|264:232|248:248|248:248|256:288,1,180,0|0,0:0|0:0,0:0:0:0:
252,328,102999,6,0,B|236:332|224:324|224:324|224:344|224:344|204:336|204:336|188:352|188:352|128:348|128:348|64:336|64:272,1,240,6|0,0:0|0:0,0:0:0:0:
48,232,104071,1,0,0:0:0:0:
164,264,104499,1,0,0:0:0:0:
164,264,104714,6,0,P|208:240|288:272,1,120,2|0,0:0|0:0,0:0:0:0:
276,136,105570,2,0,B|244:152|244:152|216:104|168:100|168:100|144:64|144:64|100:60|100:60|72:28,2,240,0|2|2,0:0|0:0|0:0,0:0:0:0:
424,280,108142,6,2,P|440:204|420:152,1,120
340,120,108999,2,0,L|216:148,1,120
192,236,109857,6,0,B|120:212|120:212|144:196|144:196|108:160|124:52|232:52,1,300,6|0,0:0|0:0,0:0:0:0:
320,80,111357,1,0,0:0:0:0:
320,80,111571,2,0,B|328:128|328:128|320:136|320:136|332:160|320:216,1,120
316,284,112321,2,0,B|280:276|256:252|256:252|212:268,2,90
396,280,113285,6,0,B|412:252|412:252|384:200|336:184|336:184|360:156|348:92,1,210,6|0,0:0|0:0,0:0:0:0:
292,60,114357,2,0,B|248:52|248:52|192:76,1,90
180,148,114999,2,0,L|180:264,2,90
128,160,115857,2,0,P|73:142|164:48,1,240
228,96,117142,5,0,0:0:0:0:
312,28,117571,2,0,B|344:52|380:48|380:48|436:96,1,120
340,156,118428,2,0,B|320:176|320:176|320:196|320:196|328:208|328:208|320:252|352:284,1,120
432,316,119285,2,0,B|400:308|400:308|380:324|380:324|364:312|364:312|344:312|344:312|328:324|328:324|312:308|312:308|268:352|184:336,2,240
468,244,121320,6,0,L|468:136,1,90
468,92,121856,1,0,0:0:0:0:
208,160,122927,6,0,L|260:232,1,60
312,292,123571,1,0,0:0:0:0:
56,108,137285,6,0,P|48:160|72:212,1,90,8|0,0:0|0:0,0:0:0:0:
136,148,137928,2,0,P|172:128|224:132,2,90,8|0|0,0:0|0:0|0:0,0:0:0:0:
116,268,138999,2,0,P|152:336|196:328,1,120,8|0,0:0|0:0,0:0:0:0:
228,292,139642,1,0,0:0:0:0:
272,252,139857,2,0,B|304:228|328:252|328:252|352:276|392:252,1,120,8|0,0:0|0:0,0:0:0:0:
424,144,140714,6,0,L|440:32,1,90,8|0,0:0|0:0,0:0:0:0:
348,60,141357,2,0,L|332:160,2,90,8|0|0,0:0|0:0|0:0,0:0:0:0:
228,80,142428,2,0,P|180:116|104:96,1,120,8|0,0:0|0:0,0:0:0:0:
68,80,143071,1,0,0:0:0:0:
24,40,143285,2,0,P|4:116|32:160,1,120,8|0,0:0|0:0,0:0:0:0:
92,248,144142,6,0,P|131:224|192:216,1,90,8|0,0:0|0:0,0:0:0:0:
160,304,144785,2,0,P|204:300|256:320,2,90,8|0|0,0:0|0:0|0:0,0:0:0:0:
68,224,145857,2,0,B|128:224|128:224|200:196,1,120,8|0,0:0|0:0,0:0:0:0:
220,156,146500,1,0,0:0:0:0:
216,96,146714,2,0,P|176:48|116:52,1,120,8|0,0:0|0:0,0:0:0:0:
56,148,147571,6,0,P|88:192|140:200,1,90,8|0,0:0|0:0,0:0:0:0:
208,192,148214,2,0,P|204:240|176:276,2,90,8|0|0,0:0|0:0|0:0,0:0:0:0:
152,84,149284,2,0,L|288:68,1,120,8|0,0:0|0:0,0:0:0:0:
332,64,149928,1,0,0:0:0:0:
392,56,150142,2,0,P|412:116|348:224,1,180,8|0,0:0|0:0,0:0:0:0:
304,228,151000,6,0,P|288:272|316:328,1,90,8|0,0:0|0:0,0:0:0:0:
376,360,151642,2,0,P|392:316|364:260,2,90,8|0|0,0:0|0:0|0:0,0:0:0:0:
256,340,152714,2,0,L|128:352,1,120,8|0,0:0|0:0,0:0:0:0:
80,332,153357,1,0,0:0:0:0:
88,272,153571,2,0,P|72:208|116:152,1,120,8|0,0:0|0:0,0:0:0:0:
212,196,154428,6,0,P|256:192|300:144,1,90,8|0,0:0|0:0,0:0:0:0:
220,108,155071,2,0,P|248:67|240:16,2,90,8|0|0,0:0|0:0|0:0,0:0:0:0:
112,56,156142,2,0,P|71:93|92:172,1,120,8|0,0:0|0:0,0:0:0:0:
128,188,156785,1,0,0:0:0:0:
184,212,157000,2,0,P|188:272|148:310,1,120,8|0,0:0|0:0,0:0:0:0:
268,328,157856,6,0,L|376:308,1,90,8|0,0:0|0:0,0:0:0:0:
420,248,158500,2,0,P|379:228|352:176,1,90,8|0,0:0|0:0,0:0:0:0:
392,112,159142,2,0,B|336:132|336:132|256:120,1,120,8|0,0:0|0:0,0:0:0:0:
220,104,159785,2,0,L|204:184,2,60,0|8|0,0:0|0:0|0:0,0:0:0:0:
164,84,160428,2,0,P|104:84|68:140,1,120,8|0,0:0|0:0,0:0:0:0:
108,244,161285,5,8,0:0:0:0:
112,252,161500,1,8,0:0:0:0:
116,260,161714,1,0,0:0:0:0:
232,292,162142,5,8,0:0:0:0:
240,284,162357,1,8,0:0:0:0:
248,276,162571,1,0,0:0:0:0:
216,160,163000,5,8,0:0:0:0:
216,160,163214,1,8,0:0:0:0:
216,160,163428,1,0,0:0:0:0:
216,160,163642,1,0,0:0:0:0:
216,160,163857,1,8,0:0:0:0:
64,216,164713,6,0,B|112:224|124:204|124:204|104:160|116:112|144:80|176:80|176:80|208:96,1,240,2|0,0:0|0:0,0:0:0:0:
184,196,165998,1,0,0:0:0:0:
276,264,166427,2,0,P|332:272|364:168,1,180
328,136,167284,2,0,B|336:112|336:112|324:104|324:104|340:64|316:24,1,120
208,36,168141,6,0,B|228:64|228:64|204:88|204:88|120:24|24:88,1,240,2|0,0:0|0:0,0:0:0:0:
76,180,169426,1,0,0:0:0:0:
152,248,169856,2,0,B|220:220|220:220|352:248,1,180
344,156,170713,2,2,B|296:152|296:152|240:120,2,90
380,116,171570,6,0,B|420:120|420:120|432:144|420:168|420:168|400:184|400:184|476:224|444:312,1,240,2|0,0:0|0:0,0:0:0:0:
372,264,172748,2,0,P|324:244|272:256,1,90
236,268,173284,2,0,B|192:276|192:276|156:268|156:268|120:276|120:276|80:268|80:268|32:280,1,180
60,220,174141,2,0,B|80:188|80:188|52:136|52:136|80:100,1,120,2|0,0:0|0:0,0:0:0:0:
156,60,174998,6,0,B|140:92|184:112|212:80|184:40|184:40|264:48|324:28,2,240,2|0|2,0:0|0:0|0:0,0:0:0:0:
60,108,177141,5,2,0:0:0:0:
76,216,177570,1,8,0:0:0:0:
184,232,177998,1,2,0:0:0:0:
240,140,178427,6,0,B|264:120|264:120|280:144|280:144|296:128|296:128|324:132|324:132|356:120|356:120|408:96|456:136,1,240,2|0,0:0|0:0,0:0:0:0:
388,220,179712,1,0,0:0:0:0:
424,332,180141,2,0,B|332:312|332:312|300:360|240:360,1,180
204,344,180998,2,0,P|180:280|204:228,1,120,2|0,0:0|0:0,0:0:0:0:
308,188,181856,6,0,B|272:216|272:216|236:200|236:200|200:256|136:264|80:224,1,240,2|2,0:0|0:0,0:0:0:0:
152,152,183141,1,0,0:0:0:0:
72,80,183570,2,0,L|272:40,1,180,2|0,0:0|0:0,0:0:0:0:
296,36,184427,2,2,P|340:64|348:120,2,90
240,36,185284,6,0,B|248:64|248:64|224:80|224:80|244:104|244:104|232:116|232:116|244:144|244:144|232:176|232:176|240:256,1,240,2|0,0:0|0:0,0:0:0:0:
144,300,186569,1,0,0:0:0:0:
156,188,186999,2,0,B|160:148|184:120|184:120|132:24,1,180,2|0,0:0|0:0,0:0:0:0:
84,28,187856,2,0,L|44:116,2,90,2|0|0,0:0|0:0|0:0,0:0:0:0:
144,32,188713,6,0,L|392:60,2,240,2|8|2,0:0|0:0|0:0,0:0:0:0:
144,32,192141,6,0,B|160:68|160:68|128:100|128:100|92:108|92:108|64:160|80:244|172:248,1,300,6|2,0:0|0:0,0:0:0:0:
272,224,193641,1,0,0:0:0:0:
228,180,193856,2,0,B|284:120|284:120|340:148,1,120
388,192,194606,2,0,P|400:232|380:280,2,90
424,112,195570,6,0,B|456:124|456:124|444:136|444:136|448:164|448:164|468:168|468:168|480:192|520:264|428:372,1,300,6|0,0:0|0:0,0:0:0:0:
360,280,196963,1,0,0:0:0:0:
264,328,197284,2,0,L|164:344,2,90
264,264,198141,2,2,B|280:224|280:224|252:224|252:224|264:188|264:188|248:152|264:136|264:136|256:96,1,180,0|0,0:0|0:0,0:0:0:0:
260,56,198998,6,0,B|276:52|288:60|288:60|288:40|288:40|308:48|308:48|324:32|324:32|384:36|384:36|448:48|448:112,1,240,6|0,0:0|0:0,0:0:0:0:
464,152,200070,1,0,0:0:0:0:
348,120,200498,1,0,0:0:0:0:
348,120,200713,6,0,P|304:144|224:112,1,120,2|0,0:0|0:0,0:0:0:0:
236,248,201569,2,0,B|268:232|268:232|296:280|344:284|344:284|368:320|368:320|412:324|412:324|440:356,2,240,0|2|2,0:0|0:0|0:0,0:0:0:0:
88,104,204141,6,2,P|72:180|92:232,1,120
172,264,204998,2,0,L|296:236,1,120
320,148,205856,6,0,B|392:172|392:172|368:188|368:188|404:224|388:332|280:332,1,300,6|0,0:0|0:0,0:0:0:0:
192,304,207356,1,0,0:0:0:0:
192,304,207570,2,0,B|184:256|184:256|192:248|192:248|180:224|192:168,1,120
196,100,208320,2,0,B|232:108|256:132|256:132|300:116,2,90
116,104,209284,6,0,B|100:132|100:132|128:184|176:200|176:200|152:228|164:292,1,210,6|0,0:0|0:0,0:0:0:0:
220,324,210356,2,0,B|264:332|264:332|320:308,1,90
332,236,210999,2,0,L|332:132,2,90
384,224,211856,2,0,P|439:242|348:336,1,240
284,288,213141,5,0,0:0:0:0:
200,356,213570,2,0,B|168:332|132:336|132:336|76:288,1,120
172,228,214427,2,0,B|192:208|192:208|192:188|192:188|184:176|184:176|192:132|160:100,1,120
80,68,215284,2,0,B|112:76|112:76|132:60|132:60|148:72|148:72|168:72|168:72|184:60|184:60|200:76|200:76|244:32|328:48,2,240
44,140,217320,6,0,L|44:236,1,90
44,292,217855,1,0,0:0:0:0:
304,224,218927,6,0,L|248:156,1,60
200,92,219570,1,0,0:0:0:0:
256,192,219678,12,0,224713,0:0:0:0:
