osu file format v12

[General]
AudioFilename: Skrillex-Imma Try It Out.mp3
AudioLeadIn: 0
PreviewTime: 65190
Countdown: 0
SampleSet: Normal
StackLeniency: 0.7
Mode: 0
LetterboxInBreaks: 1

[Editor]
DistanceSpacing: 0.8
BeatDivisor: 4
GridSize: 4

[Metadata]
Title:Imma Try It Out (feat. Alvin Risk)
TitleUnicode:Imma Try It Out (feat. Alvin Risk)
Artist:Skrillex
ArtistUnicode:Skrillex
Creator:Foreverends
Version:Endstep
Source:
Tags:Call Of Duty Black Ops 2 dubstep Sonny Moore KiyoshiX101 Cancel Nardoxyribonucleic
BeatmapID:215801
BeatmapSetID:76662

[Difficulty]
HPDrainRate:7
CircleSize:4
OverallDifficulty:7
ApproachRate:9
SliderMultiplier:2.2
SliderTickRate:2

[Events]
//Background and Video events
0,0,"bg.jpg",0,0
//Break Periods
2,41485,53284
2,123771,136685
//Storyboard Layer 0 (Background)
//Storyboard Layer 1 (Fail)
//Storyboard Layer 2 (Pass)
//Storyboard Layer 3 (Foreground)
//Storyboard Sound Samples
//Background Colour Transformations
3,100,163,162,255

[TimingPoints]
142,428.571428571429,4,1,0,60,1,0
7000,-133.333333333333,4,1,1,60,0,0
7321,-133.333333333333,4,1,0,60,0,0
7428,-133.333333333333,4,3,0,60,0,0
7857,-133.333333333333,4,1,0,60,0,0
8285,-133.333333333333,4,1,1,60,0,0
8607,-133.333333333333,4,1,0,60,0,0
8714,-133.333333333333,4,3,0,60,0,0
9142,-133.333333333333,4,1,0,60,0,0
10428,-133.333333333333,4,1,1,60,0,0
10750,-133.333333333333,4,1,0,60,0,0
10857,-133.333333333333,4,3,0,60,0,0
11285,-133.333333333333,4,1,0,60,0,0
11714,-133.333333333333,4,1,1,60,0,0
12035,-133.333333333333,4,1,0,60,0,0
12142,-133.333333333333,4,3,0,60,0,0
12571,-133.333333333333,4,1,0,60,0,0
13857,-100,4,1,1,60,0,0
14178,-100,4,1,0,60,0,0
15357,-100,4,1,1,60,0,0
16428,-100,4,1,0,60,0,0
17285,-100,4,1,1,60,0,0
17607,-100,4,1,0,60,0,0
18785,-100,4,1,2,60,0,0
19000,-100,4,1,1,60,0,0
19857,-100,4,1,0,60,0,0
20071,-100,4,1,1,50,0,0
20285,-100,4,1,0,60,0,0
20392,-100,4,1,1,50,0,0
20714,-100,4,1,1,60,0,0
21571,-100,4,1,2,60,0,0
21678,-100,4,1,1,60,0,0
23285,-100,4,1,2,60,0,0
23500,-100,4,1,0,60,0,0
24142,-100,4,1,1,60,0,0
25000,-100,4,1,2,60,0,0
26285,-100,4,1,1,60,0,0
26714,-100,4,1,2,60,0,0
28535,-100,4,1,1,60,0,0
29714,-100,4,1,1,40,0,0
29928,-100,4,1,1,60,0,0
30142,-100,4,1,2,60,0,0
30357,-100,4,1,1,60,0,0
31857,-100,4,1,2,60,0,0
31964,-100,4,1,1,60,0,0
33571,-100,4,1,2,60,0,0
33892,-100,4,3,0,60,0,0
34428,-100,4,1,1,60,0,0
34750,-100,4,1,0,60,0,0
34857,-100,4,3,0,60,0,0
35285,-100,4,1,2,60,0,0
35500,-100,4,1,0,60,0,0
35714,-100,4,1,1,60,0,0
36035,-100,4,1,0,60,0,0
36142,-100,4,1,2,60,0,0
37428,-100,4,1,1,60,0,0
38714,-100,4,3,0,40,0,0
39571,-100,4,1,1,60,0,0
39892,-100,4,1,2,60,0,0
40000,-100,4,1,1,60,0,0
40428,-100,4,1,2,60,0,0
41071,-66.6666666666667,4,1,1,60,0,0
41285,-100,4,1,1,60,0,0
55000,-100,4,1,3,60,0,0
61857,-100,4,1,1,60,0,0
62071,-100,4,1,3,60,0,0
62178,-100,4,1,1,30,0,0
62500,-100,4,1,3,60,0,0
62714,-100,4,1,1,40,0,0
62821,-100,4,1,3,60,0,0
63142,-100,4,1,1,40,0,0
63464,-100,4,1,3,60,0,0
64750,-100,4,1,1,40,0,0
64857,-100,4,1,3,60,0,0
65071,-100,4,1,1,50,0,0
65285,-100,4,1,1,40,0,0
67000,-100,4,1,3,60,0,0
68714,-66.6666666666667,4,1,1,80,0,1
69035,-66.6666666666667,4,1,1,80,0,1
69142,-66.6666666666667,4,1,1,80,0,1
69357,-66.6666666666667,4,1,0,40,0,1
69571,-55.5555555555556,4,1,1,80,0,1
69785,-55.5555555555556,4,1,0,30,0,1
69892,-55.5555555555556,4,1,2,80,0,1
70428,-55.5555555555556,4,1,1,60,0,1
70642,-55.5555555555556,4,1,2,80,0,1
70750,-55.5555555555556,4,1,0,30,0,1
70964,-55.5555555555556,4,1,2,80,0,1
71285,-55.5555555555556,4,1,0,50,0,1
71500,-55.5555555555556,4,1,2,80,0,1
71714,-55.5555555555556,4,1,0,60,0,1
71821,-55.5555555555556,4,1,2,80,0,1
72142,-66.6666666666667,4,1,1,80,0,1
72464,-66.6666666666667,4,1,2,80,0,1
72785,-66.6666666666667,4,1,0,40,0,1
73000,-55.5555555555556,4,1,2,80,0,1
73214,-55.5555555555556,4,1,0,40,0,1
73321,-55.5555555555556,4,1,2,80,0,1
75571,-66.6666666666667,4,1,1,80,0,1
75892,-66.6666666666667,4,1,2,80,0,1
76000,-66.6666666666667,4,1,2,80,0,1
76214,-66.6666666666667,4,1,0,40,0,1
76428,-55.5555555555556,4,1,1,80,0,1
76642,-55.5555555555556,4,1,0,40,0,1
76750,-55.5555555555556,4,1,1,80,0,1
77071,-55.5555555555556,4,1,2,80,0,1
79000,-66.6666666666667,4,1,1,80,0,1
79642,-66.6666666666667,4,1,0,40,0,1
79857,-55.5555555555556,4,1,1,80,0,1
80071,-55.5555555555556,4,1,0,50,0,1
80178,-55.5555555555556,4,1,1,80,0,1
80499,-55.5555555555556,4,1,1,50,0,1
80714,-55.5555555555556,4,1,1,80,0,0
81571,-55.5555555555556,4,1,1,60,0,0
82427,-66.6666666666667,4,1,1,80,0,1
82748,-66.6666666666667,4,1,1,80,0,1
82855,-66.6666666666667,4,1,1,80,0,1
83070,-66.6666666666667,4,1,0,40,0,1
83284,-55.5555555555556,4,1,1,80,0,1
83391,-55.5555555555556,4,1,0,40,0,1
83605,-55.5555555555556,4,1,2,80,0,1
83819,-55.5555555555556,4,1,0,40,0,1
84141,-55.5555555555556,4,1,1,60,0,1
84355,-55.5555555555556,4,1,2,80,0,1
84463,-55.5555555555556,4,1,0,30,0,1
84677,-55.5555555555556,4,1,2,80,0,1
84891,-55.5555555555556,4,1,0,50,0,1
84998,-55.5555555555556,4,1,0,50,0,1
85213,-55.5555555555556,4,1,2,80,0,1
85427,-55.5555555555556,4,1,0,60,0,1
85534,-55.5555555555556,4,1,2,80,0,1
85855,-66.6666666666667,4,1,1,80,0,1
86177,-66.6666666666667,4,1,2,80,0,1
86498,-66.6666666666667,4,1,0,40,0,1
86712,-55.5555555555556,4,1,0,40,0,1
87034,-55.5555555555556,4,1,2,80,0,1
89284,-66.6666666666667,4,1,1,80,0,1
89605,-66.6666666666667,4,1,2,80,0,1
89713,-66.6666666666667,4,1,2,80,0,1
89927,-66.6666666666667,4,1,0,40,0,1
90141,-55.5555555555556,4,1,1,80,0,1
90355,-55.5555555555556,4,1,0,40,0,1
90463,-55.5555555555556,4,1,1,80,0,1
90784,-55.5555555555556,4,1,2,80,0,1
92713,-55.5555555555556,4,1,1,80,0,1
93355,-66.6666666666667,4,1,0,40,0,1
93570,-55.5555555555556,4,1,1,80,0,1
94321,-55.5555555555556,4,1,1,80,0,0
94427,-55.5555555555556,4,1,1,80,0,0
94428,-55.5555555555556,4,1,1,80,0,1
94535,-55.5555555555556,4,1,1,80,0,0
96142,-55.5555555555556,4,1,1,60,0,1
96785,-55.5555555555556,4,1,1,80,0,1
100427,-55.5555555555556,4,3,1,80,0,1
100642,-55.5555555555556,4,1,1,80,0,1
101285,-55.5555555555556,4,1,0,80,0,1
101607,-55.5555555555556,4,1,1,80,0,1
102142,-55.5555555555556,4,1,0,50,0,1
102357,-62.5,4,1,1,80,0,1
102785,-50,4,1,0,50,0,1
103000,-55.5555555555556,4,1,1,80,0,1
103642,-55.5555555555556,4,3,1,80,0,1
104713,-55.5555555555556,4,3,0,80,0,1
105570,-55.5555555555556,4,1,1,80,0,1
106213,-55.5555555555556,4,3,1,80,0,1
106428,-55.5555555555556,4,1,1,80,0,0
108999,-55.5555555555556,4,1,0,80,0,0
109106,-55.5555555555556,4,1,1,80,0,0
109856,-55.5555555555556,4,1,1,80,0,1
111142,-55.5555555555556,4,3,0,80,0,1
111784,-55.5555555555556,4,1,1,80,0,1
116606,-55.5555555555556,4,1,0,80,0,1
116713,-55.5555555555556,4,1,1,80,0,1
123463,-55.5555555555556,4,1,1,80,0,0
123571,-100,4,1,1,80,0,1
123677,-100,4,1,1,80,0,0
137285,-100,4,1,1,80,0,0
138142,-100,4,1,3,60,0,0
138678,-100,4,1,1,60,0,0
139000,-100,4,1,1,60,0,0
139428,-100,4,1,3,60,0,0
139964,-100,4,1,3,10,0,0
140178,-100,4,1,3,60,0,0
140714,-100,4,1,1,60,0,0
140928,-100,4,1,3,60,0,0
142107,-100,4,1,1,60,0,0
142428,-100,4,1,1,60,0,0
142857,-100,4,1,3,60,0,0
143071,-100,4,1,1,60,0,0
143714,-100,4,1,3,60,0,0
144142,-100,4,1,1,60,0,0
144357,-100,4,1,3,60,0,0
144571,-100,4,1,1,60,0,0
144785,-100,4,1,3,60,0,0
145428,-100,4,1,1,60,0,0
146285,-100,4,1,3,60,0,0
146928,-100,4,1,1,60,0,0
148000,-100,4,1,1,60,0,0
148428,-100,4,1,3,60,0,0
148964,-100,4,1,1,60,0,0
149285,-100,4,1,1,60,0,0
149714,-100,4,1,3,60,0,0
150571,-100,4,1,1,60,0,0
150678,-100,4,1,3,60,0,0
150785,-100,4,1,1,60,0,0
151428,-100,4,1,3,60,0,0
152392,-100,4,1,1,60,0,0
152714,-100,4,1,1,60,0,0
153142,-100,4,1,3,60,0,0
153678,-100,4,1,3,30,0,0
153892,-100,4,1,1,60,0,0
154427,-100,4,1,3,60,0,0
162999,-100,4,1,3,60,0,0
164714,-66.6666666666667,4,1,1,80,0,1
165035,-66.6666666666667,4,1,1,80,0,1
165142,-66.6666666666667,4,1,1,80,0,1
165357,-66.6666666666667,4,1,0,40,0,1
165571,-55.5555555555556,4,1,1,80,0,1
165785,-55.5555555555556,4,1,0,50,0,1
165892,-55.5555555555556,4,1,2,80,0,1
166428,-55.5555555555556,4,1,1,60,0,1
166642,-55.5555555555556,4,1,2,80,0,1
166750,-55.5555555555556,4,1,0,30,0,1
166964,-55.5555555555556,4,1,2,80,0,1
167285,-55.5555555555556,4,1,0,50,0,1
167500,-55.5555555555556,4,1,2,80,0,1
167714,-55.5555555555556,4,1,0,60,0,1
167821,-55.5555555555556,4,1,2,80,0,1
168142,-66.6666666666667,4,1,1,80,0,1
168464,-66.6666666666667,4,1,2,80,0,1
168785,-66.6666666666667,4,1,0,40,0,1
169000,-55.5555555555556,4,1,2,80,0,1
169214,-55.5555555555556,4,1,0,40,0,1
169321,-55.5555555555556,4,1,2,80,0,1
171571,-66.6666666666667,4,1,1,80,0,1
171892,-66.6666666666667,4,1,2,80,0,1
172000,-66.6666666666667,4,1,2,80,0,1
172214,-66.6666666666667,4,1,0,40,0,1
172428,-55.5555555555556,4,1,1,80,0,1
172642,-55.5555555555556,4,1,0,50,0,1
172750,-55.5555555555556,4,1,1,80,0,1
173071,-55.5555555555556,4,1,2,80,0,1
174570,-55.5555555555556,4,1,0,50,0,1
174677,-55.5555555555556,4,1,2,80,0,1
175000,-66.6666666666667,4,1,1,80,0,1
175642,-66.6666666666667,4,1,0,50,0,1
175857,-55.5555555555556,4,1,1,80,0,1
176071,-55.5555555555556,4,1,0,50,0,1
176178,-55.5555555555556,4,1,1,80,0,1
176499,-55.5555555555556,4,1,1,50,0,1
176714,-55.5555555555556,4,1,1,80,0,0
177571,-55.5555555555556,4,1,1,60,0,0
178427,-66.6666666666667,4,1,1,80,0,1
178748,-66.6666666666667,4,1,1,80,0,1
178855,-66.6666666666667,4,1,1,80,0,1
179070,-66.6666666666667,4,1,0,50,0,1
179284,-55.5555555555556,4,1,1,80,0,1
179391,-55.5555555555556,4,1,0,50,0,1
179605,-55.5555555555556,4,1,2,80,0,1
179819,-55.5555555555556,4,1,0,50,0,1
180141,-55.5555555555556,4,1,1,60,0,1
180355,-55.5555555555556,4,1,2,80,0,1
180463,-55.5555555555556,4,1,0,50,0,1
180677,-55.5555555555556,4,1,2,80,0,1
180891,-55.5555555555556,4,1,0,50,0,1
180998,-55.5555555555556,4,1,0,50,0,1
181213,-55.5555555555556,4,1,2,80,0,1
181427,-55.5555555555556,4,1,0,50,0,1
181534,-55.5555555555556,4,1,2,80,0,1
181855,-66.6666666666667,4,1,1,80,0,1
182177,-66.6666666666667,4,1,2,80,0,1
182498,-66.6666666666667,4,1,0,50,0,1
182712,-55.5555555555556,4,1,0,50,0,1
183034,-55.5555555555556,4,1,2,80,0,1
185284,-66.6666666666667,4,1,1,80,0,1
185605,-66.6666666666667,4,1,2,80,0,1
185713,-66.6666666666667,4,1,2,80,0,1
185927,-66.6666666666667,4,1,0,40,0,1
186141,-55.5555555555556,4,1,1,80,0,1
186249,-55.5555555555556,4,1,0,40,0,1
186463,-55.5555555555556,4,1,1,80,0,1
186784,-55.5555555555556,4,1,2,80,0,1
188713,-55.5555555555556,4,1,1,80,0,1
189355,-66.6666666666667,4,1,0,40,0,1
189570,-55.5555555555556,4,1,1,80,0,1
190321,-55.5555555555556,4,1,1,80,0,0
190427,-55.5555555555556,4,1,1,80,0,0
190428,-55.5555555555556,4,1,1,80,0,1
190535,-55.5555555555556,4,1,1,80,0,0
192142,-55.5555555555556,4,1,1,80,0,1
196427,-55.5555555555556,4,3,1,80,0,1
196642,-55.5555555555556,4,1,1,80,0,1
198356,-62.5,4,1,1,80,0,1
198784,-50,4,1,1,80,0,1
198999,-55.5555555555556,4,1,1,80,0,1
202428,-55.5555555555556,4,1,1,80,0,0
205857,-55.5555555555556,4,1,1,80,0,1
217857,-55.5555555555556,4,1,1,80,0,0
219571,-55.5555555555556,4,1,1,80,0,1
219678,-55.5555555555556,4,1,1,80,0,0
219999,-55.5555555555556,4,1,1,55,0,0
220427,-55.5555555555556,4,1,1,50,0,0
220856,-55.5555555555556,4,1,1,45,0,0
221284,-55.5555555555556,4,1,1,40,0,0
221713,-55.5555555555556,4,1,1,35,0,0
222142,-55.5555555555556,4,1,1,30,0,0
222570,-55.5555555555556,4,1,1,25,0,0
222999,-55.5555555555556,4,1,1,20,0,0
223427,-55.5555555555556,4,1,1,15,0,0
223856,-55.5555555555556,4,1,1,10,0,0
224284,-55.5555555555556,4,2,1,5,0,0

[Colours]
Combo1 : 255,0,255
Combo2 : 0,163,240
Combo3 : 0,242,242
Combo4 : 251,34,34
Combo5 : 0,255,64
SliderBorder : 255,255,255

[HitObjects]
108,312,6999,2,0,P|180:280|140:184,1,165,2|0,0:0|0:0,0:0:0:0:
172,204,7427,1,2,0:0:0:0:
40,164,7642,1,2,0:0:0:0:
144,92,7857,2,0,L|152:16,2,41.2500015735627,8|0|0,0:0|0:0|0:0,0:0:0:0:
216,160,8284,6,0,L|380:160,1,123.750004720688,2|0,0:0|0:0,0:0:0:0:
339,160,8713,1,2,0:0:0:0:
280,276,8927,1,2,0:0:0:0:
400,340,9142,1,8,0:0:0:0:
404,312,9249,1,0,0:0:0:0:
404,284,9357,1,0,0:0:0:0:
380,136,9571,1,8,0:0:0:0:
272,188,9785,2,0,B|264:232|264:232|272:272,1,82.5000031471254
348,332,10214,1,0,0:0:0:0:
200,312,10428,6,0,L|68:240,1,123.750004720688,2|0,0:0|0:0,0:0:0:0:
108,228,10857,2,0,P|128:204|104:128,1,82.5000031471254,2|2,0:0|0:0,0:0:0:0:
80,60,11285,2,0,L|32:24,2,41.2500015735627,8|0|0,0:0|0:0|0:0,0:0:0:0:
160,124,11714,6,0,P|224:136|288:120,1,123.750004720688,2|0,0:0|0:0,0:0:0:0:
304,116,12142,2,0,B|316:160|316:160|320:224,1,82.5000031471254,2|2,0:0|0:0,0:0:0:0:
200,276,12571,1,8,0:0:0:0:
204,260,12678,1,0,0:0:0:0:
208,244,12785,1,0,0:0:0:0:
392,178,12999,5,8,0:0:0:0:
285,345,13214,1,0,0:0:0:0:
279,142,13428,1,8,0:0:0:0:
392,297,13642,1,0,0:0:0:0:
304,240,13857,6,0,B|276:172|276:172|280:72,1,165,8|0,0:0|0:0,0:0:0:0:
284,48,14284,1,0,0:0:0:0:
192,164,14499,1,0,0:0:0:0:
376,168,14714,1,8,0:0:0:0:
396,160,14821,1,0,0:0:0:0:
416,152,14928,1,0,0:0:0:0:
304,240,15142,5,0,0:0:0:0:
104,148,15356,1,8,0:0:0:0:
188,100,15571,2,0,B|200:156|200:156|184:220,1,110
72,296,15999,1,8,0:0:0:0:
68,280,16107,1,0,0:0:0:0:
64,264,16214,1,0,0:0:0:0:
240,232,16428,1,8,0:0:0:0:
144,368,16642,1,0,0:0:0:0:
140,176,16857,2,0,P|204:100|300:124,1,165,0|0,0:0|0:0,0:0:0:0:
264,100,17284,5,8,0:0:0:0:
264,100,17607,2,0,L|292:176,1,55,0|0,0:0|0:0,0:0:0:0:
392,312,17928,1,0,0:0:0:0:
480,204,18142,1,8,0:0:0:0:
468,196,18249,1,0,0:0:0:0:
456,188,18357,1,0,0:0:0:0:
340,280,18571,6,0,P|424:252|456:168,1,165,0|0,0:0|0:0,0:0:0:0:
384,32,19000,2,0,B|372:92|372:92|396:148,1,110,8|0,0:0|0:0,0:0:0:0:
256,172,19428,1,0,0:0:0:0:
256,156,19535,1,0,0:0:0:0:
256,140,19642,1,8,0:0:0:0:
124,40,19857,5,8,0:0:0:0:
124,208,20071,1,2,0:0:0:0:
124,224,20178,1,2,0:0:0:0:
128,240,20285,1,8,0:0:0:0:
132,256,20392,1,2,0:0:0:0:
140,268,20500,1,2,0:0:0:0:
152,280,20607,1,2,0:0:0:0:
168,288,20714,6,0,P|252:284|328:320,1,165,8|0,0:0|0:0,0:0:0:0:
324,316,21142,2,0,B|376:296|376:296|420:232,1,110
352,64,21571,1,10,0:0:0:0:
348,84,21678,1,0,0:0:0:0:
348,104,21785,2,0,P|360:176|428:208,1,110
300,332,22214,5,8,0:0:0:0:
288,316,22321,1,0,0:0:0:0:
276,300,22428,2,0,B|248:256|248:256|232:180,1,110
232,56,22857,1,8,0:0:0:0:
232,76,22964,1,0,0:0:0:0:
232,96,23071,1,0,0:0:0:0:
336,180,23285,5,10,0:0:0:0:
276,300,23500,1,0,0:0:0:0:
112,156,23714,1,0,0:0:0:0:
232,96,23928,1,0,0:0:0:0:
316,200,24142,6,0,P|300:272|196:320,1,165,8|0,0:0|0:0,0:0:0:0:
228,320,24571,2,0,B|288:332|288:332|372:364,1,110
404,176,25000,1,10,0:0:0:0:
400,196,25107,1,0,0:0:0:0:
396,216,25214,2,0,P|392:280|464:316,1,110
256,284,25642,5,2,0:0:0:0:
120,220,25857,1,2,0:0:0:0:
284,196,26071,1,0,0:0:0:0:
188,68,26285,1,0,0:0:0:0:
192,88,26392,1,0,0:0:0:0:
196,108,26500,1,2,0:0:0:0:
256,284,26714,5,10,0:0:0:0:
404,152,26928,1,0,0:0:0:0:
404,152,27035,1,0,0:0:0:0:
404,152,27142,1,8,0:0:0:0:
248,320,27357,2,0,P|216:316|168:316,1,55
156,320,27571,6,0,B|152:252|152:252|112:196,1,110
124,24,28000,2,0,B|128:92|128:92|168:148,1,110
380,156,28428,2,0,P|292:160|188:216,1,165,10|0,0:0|0:0,0:0:0:0:
180,220,28857,1,0,0:0:0:0:
320,328,29071,1,8,0:0:0:0:
340,336,29178,1,0,0:0:0:0:
360,344,29285,6,0,B|392:296|392:296|384:224,1,110
248,96,29714,2,0,P|256:156|336:208,1,110,8|0,0:0|0:0,0:0:0:0:
180,220,30142,2,0,B|128:204|128:204|48:228,1,110,10|0,0:0|0:0,0:0:0:0:
56,340,30571,2,0,L|256:344,1,165
248,344,31000,6,0,B|280:300|280:300|264:208,1,110,8|0,0:0|0:0,0:0:0:0:
292,72,31428,2,0,P|300:132|364:192,1,110
436,284,31857,2,0,P|400:200|464:148,1,165,10|0,0:0|0:0,0:0:0:0:
444,152,32285,1,0,0:0:0:0:
320,268,32500,1,8,0:0:0:0:
184,184,32714,6,0,P|236:168|308:180,1,110
172,204,33142,1,0,0:0:0:0:
360,352,33357,1,0,0:0:0:0:
264,344,33571,2,0,L|112:336,1,110,10|0,0:0|0:0,0:0:0:0:
128,332,33892,1,0,0:0:0:0:
104,320,34000,1,2,0:0:0:0:
48,192,34214,1,0,0:0:0:0:
184,212,34428,6,0,P|248:188|276:88,1,165,8|0,0:0|0:0,0:0:0:0:
280,104,34857,2,0,B|296:160|296:160|340:220,1,110,2|2,0:0|0:0,0:0:0:0:
432,192,35285,1,10,0:0:0:0:
436,164,35392,1,0,0:0:0:0:
440,136,35500,1,0,0:0:0:0:
398,327,35714,6,0,P|350:359|246:335,1,165,8|0,0:0|0:0,0:0:0:0:
246,311,36142,1,2,0:0:0:0:
120,152,36357,1,0,0:0:0:0:
102,299,36571,1,0,0:0:0:0:
314,70,36785,1,0,0:0:0:0:
272,192,37000,1,8,0:0:0:0:
146,26,37214,1,0,0:0:0:0:
120,152,37428,2,0,P|156:216|272:220,1,165,8|0,0:0|0:0,0:0:0:0:
368,164,37857,6,0,B|316:156|288:128|288:128|184:152,1,165,8|0,0:0|0:0,0:0:0:0:
172,168,38285,1,0,0:0:0:0:
364,76,38500,1,0,0:0:0:0:
372,256,38714,5,8,0:0:0:0:
164,72,38928,1,8,0:0:0:0:
176,264,39142,5,8,0:0:0:0:
368,164,39357,1,8,0:0:0:0:
376,344,39571,5,8,0:0:0:0:
348,340,39678,1,0,0:0:0:0:
324,332,39785,1,0,0:0:0:0:
300,316,39892,1,2,0:0:0:0:
280,296,40000,2,0,B|280:240|280:240|252:168,1,110,8|0,0:0|0:0,0:0:0:0:
144,40,40428,2,0,P|208:96|232:80,1,110,10|0,0:0|0:0,0:0:0:0:
240,80,40750,1,0,0:0:0:0:
256,60,40857,1,10,0:0:0:0:
256,208,41071,6,0,B|248:256|248:256|264:320|264:320|256:392,1,165.000006294251,2|2,0:0|0:0,0:0:0:0:
136,296,54999,6,0,P|224:316|276:228,2,165
56,192,55964,1,8,0:0:0:0:
120,64,56285,2,0,P|192:56|196:156,1,165,8|0,0:0|0:0,0:0:0:0:
196,148,56713,1,8,0:0:0:0:
180,256,56928,1,0,0:0:0:0:
332,256,57142,1,8,0:0:0:0:
316,148,57357,1,0,0:0:0:0:
172,264,57571,2,0,P|208:340|312:328,1,165,8|0,0:0|0:0,0:0:0:0:
328,320,57999,1,8,0:0:0:0:
264,220,58213,1,0,0:0:0:0:
408,232,58428,6,0,L|372:24,2,165,8|0|0,0:0|0:0|0:0,0:0:0:0:
292,352,59392,1,8,0:0:0:0:
136,304,59714,2,0,P|184:264|300:252,1,165
312,260,60142,2,0,P|321:205|272:148,1,110,8|0,0:0|0:0,0:0:0:0:
136,132,60571,1,8,0:0:0:0:
312,92,60785,1,0,0:0:0:0:
136,216,60999,2,0,P|68:188|72:88,1,165,8|0,0:0|0:0,0:0:0:0:
84,80,61428,2,0,P|144:88|208:56,1,110,8|0,0:0|0:0,0:0:0:0:
428,80,61857,6,0,P|368:88|304:56,1,110,8|8,0:0|0:0,0:0:0:0:
320,128,62178,2,0,B|332:208|332:208|316:292,1,165,8|8,0:0|0:0,0:0:0:0:
300,308,62607,1,8,0:0:0:0:
280,316,62714,1,0,0:0:0:0:
260,320,62821,2,8,P|200:288|136:332,1,110
108,224,63142,2,0,P|182:182|168:80,1,165,8|0,0:0|0:0,0:0:0:0:
256,52,63571,6,0,L|284:132,1,55,8|0,0:0|0:0,0:0:0:0:
412,112,63785,2,0,L|384:192,1,55
400,352,63999,2,0,L|372:272,1,55,8|0,0:0|0:0,0:0:0:0:
244,292,64214,2,0,L|272:212,1,55
280,172,64428,2,0,P|180:216|132:176,1,165,8|0,0:0|0:0,0:0:0:0:
128,172,64857,2,0,P|130:125|56:96,1,110,8|8,0:0|0:0,0:0:0:0:
216,112,65285,5,0,0:0:0:0:
244,112,65392,1,0,0:0:0:0:
272,108,65499,1,8,0:0:0:0:
296,96,65607,1,0,0:0:0:0:
316,80,65714,5,8,0:0:0:0:
304,116,65821,1,0,0:0:0:0:
308,156,65928,1,8,0:0:0:0:
324,192,66035,1,0,0:0:0:0:
360,160,66142,5,8,0:0:0:0:
404,140,66249,1,0,0:0:0:0:
452,144,66357,1,8,0:0:0:0:
492,172,66464,1,0,0:0:0:0:
448,196,66571,5,8,0:0:0:0:
416,240,66678,1,0,0:0:0:0:
412,296,66785,1,8,0:0:0:0:
440,344,66892,1,0,0:0:0:0:
384,340,66999,6,0,P|357:319|324:268,1,55,8|0,0:0|0:0,0:0:0:0:
108,320,67213,2,0,P|129:293|180:260,1,55,8|0,0:0|0:0,0:0:0:0:
128,44,67427,2,0,P|155:65|188:116,1,55,8|0,0:0|0:0,0:0:0:0:
404,64,67641,2,0,P|383:91|332:124,1,55,8|0,0:0|0:0,0:0:0:0:
256,192,67856,1,0,0:0:0:0:
40,232,68714,6,2,B|64:220|72:200|72:200|88:244|104:224|104:224|124:240|172:248|208:208|212:168|212:168|184:140,1,247.500009441376,14|2,0:0|0:0,0:0:0:0:
212,60,69142,2,0,P|126:130|142:166,1,165.000006294251,2|2,0:0|0:0,0:0:0:0:
416,160,69571,6,0,P|368:160|264:136,1,98.9999969787599,2|2,0:0|0:0,0:0:0:0:
252,204,69785,1,2,0:0:0:0:
256,292,69892,2,0,P|336:244|316:152,1,197.99999395752,2|2,0:0|0:0,0:0:0:0:
436,244,70214,2,2,B|444:296|444:296|432:348,1,98.9999969787599,0|0,0:0|0:0,0:0:0:0:
160,320,70428,6,2,B|256:292|256:292|384:328,1,197.99999395752,10|2,0:0|0:0,0:0:0:0:
220,208,70749,2,2,B|124:236|124:236|-4:200,1,197.99999395752,2|2,0:0|0:0,0:0:0:0:
68,120,71071,2,0,P|83:76|72:8,1,98.9999969787599,2|2,0:0|0:0,0:0:0:0:
176,96,71285,6,2,B|180:160|220:204|220:204|192:324,1,197.99999395752,2|2,0:0|0:0,0:0:0:0:
96,304,71607,2,0,B|120:240|120:240|108:192,1,98.9999969787599,0|2,0:0|0:0,0:0:0:0:
32,40,71821,2,0,P|28:92|48:156,1,98.9999969787599,2|0,0:0|0:0,0:0:0:0:
128,180,72035,1,2,0:0:0:0:
220,208,72142,6,2,B|272:192|316:208|316:208|472:160,1,247.500009441376,10|2,0:0|0:0,0:0:0:0:
352,16,72571,2,0,B|364:64|348:112|348:112|432:84,1,165.000006294251,2|2,0:0|0:0,0:0:0:0:
256,56,72999,6,0,P|208:72|120:44,1,82.5000031471254,2|2,0:0|0:0,0:0:0:0:
92,24,73214,1,2,0:0:0:0:
92,196,73321,2,0,P|184:156|128:40,1,197.99999395752,2|2,0:0|0:0,0:0:0:0:
192,212,73642,2,2,P|188:268|224:344,1,98.9999969787599,2|2,0:0|0:0,0:0:0:0:
452,200,73857,6,2,B|348:196|348:196|248:272,1,197.99999395752,2|0,0:0|0:0,0:0:0:0:
152,120,74178,2,2,B|256:124|256:124|356:48,1,197.99999395752,0|2,0:0|0:0,0:0:0:0:
192,212,74499,2,0,B|128:208|128:208|72:240,1,98.9999969787599,2|2,0:0|0:0,0:0:0:0:
160,328,74714,6,2,B|200:340|200:340|216:320|216:320|248:324|292:308|312:260|296:208,1,197.99999395752,2|0,0:0|0:0,0:0:0:0:
425,190,75035,2,2,B|384:212|384:212|368:164|328:152|292:152|292:152|264:168,1,197.99999395752,2|0,0:0|0:0,0:0:0:0:
152,124,75357,2,2,P|184:176|180:280,1,98.9999969787599
40,116,75571,6,10,P|128:132|248:24,1,247.500009441376,10|2,0:0|0:0,0:0:0:0:
244,40,75999,2,0,B|252:88|228:120|228:120|236:160|296:196,1,165.000006294251,2|2,0:0|0:0,0:0:0:0:
424,112,76428,6,0,B|372:120|372:120|292:156,1,98.9999969787599,2|2,0:0|0:0,0:0:0:0:
300,248,76642,1,2,0:0:0:0:
404,304,76749,2,0,B|424:260|424:260|412:156|412:156|440:64,1,197.99999395752,2|2,0:0|0:0,0:0:0:0:
332,36,77071,2,2,P|328:92|252:116,1,98.9999969787599,2|2,0:0|0:0,0:0:0:0:
148,144,77285,6,2,B|180:160|180:160|188:132|188:132|192:140|192:140|208:108|240:92|296:84|352:180,1,197.99999395752,2|2,0:0|0:0,0:0:0:0:
296,304,77607,2,2,B|292:252|268:216|268:216|272:176|304:104,1,197.99999395752
196,288,77928,2,0,P|152:280|124:232,1,98.9999969787599,2|2,0:0|0:0,0:0:0:0:
56,172,78142,6,2,B|96:132|144:144|144:144|168:124|180:84|168:24,1,197.99999395752
252,104,78464,2,0,P|240:156|196:208,1,98.9999969787599,2|2,0:0|0:0,0:0:0:0:
444,172,78678,2,2,P|392:168|304:196,1,98.9999969787599
304,284,78892,1,2,0:0:0:0:
392,352,78999,6,2,B|404:328|404:328|436:336|436:336|508:324|536:252|512:168|416:168,1,296.99999093628,10|2,0:0|0:0,0:0:0:0:
416,248,79428,2,0,L|296:260,2,82.5000031471254,2|2|2,0:0|0:0|0:0,0:0:0:0:
356,24,79857,6,0,P|344:84|404:128,1,98.9999969787599,2|2,0:0|0:0,0:0:0:0:
304,200,80071,1,2,0:0:0:0:
200,160,80178,2,0,P|268:96|404:168,1,197.99999395752,2|2,0:0|0:0,0:0:0:0:
228,324,80499,2,2,B|184:292|184:292|144:220,1,98.9999969787599,2|2,0:0|0:0,0:0:0:0:
160,216,80714,5,2,0:0:0:0:
336,192,80928,1,0,0:0:0:0:
144,136,81142,1,2,0:0:0:0:
340,100,81357,1,0,0:0:0:0:
128,56,81571,6,0,P|244:88|304:228,1,197.99999395752,8|0,0:0|0:0,0:0:0:0:
340,368,81999,1,0,0:0:0:0:
128,294,82213,1,0,0:0:0:0:
320,284,82428,6,2,B|300:312|300:312|276:304|260:280|260:280|240:288|240:288|212:256|212:256|200:252|160:256|132:288|132:288|127:298,1,247.500009441376,2|2,0:0|0:0,0:0:0:0:
68,220,82857,2,0,P|128:176|216:166,1,165.000006294251,2|2,0:0|0:0,0:0:0:0:
416,124,83285,6,0,P|380:161|335:170,1,98.9999969787599,2|2,0:0|0:0,0:0:0:0:
264,84,83499,1,2,0:0:0:0:
264,84,83607,2,0,P|320:176|212:248,1,197.99999395752,2|2,0:0|0:0,0:0:0:0:
324,332,83928,2,2,B|368:300|368:300|480:336,1,98.9999969787599,0|2,0:0|0:0,0:0:0:0:
228,308,84142,6,2,B|180:348|180:348|168:296|96:264|20:352,1,197.99999395752,2|2,0:0|0:0,0:0:0:0:
80,212,84464,2,2,B|99:212|99:212|51:264|60:332|120:372,1,197.99999395752
164,136,84785,2,0,L|64:132,1,98.9999969787599,2|0,0:0|0:0,0:0:0:0:
176,232,84999,6,0,B|220:228|220:228|232:248|232:248|300:212|304:160|264:108,1,197.99999395752,2|2,0:0|0:0,0:0:0:0:
348,60,85321,2,0,P|360:116|400:140,1,98.9999969787599,0|2,0:0|0:0,0:0:0:0:
356,332,85535,2,0,B|364:276|364:276|396:212,1,98.9999969787599,0|2,0:0|0:0,0:0:0:0:
464,196,85749,1,2,0:0:0:0:
400,348,85857,6,2,B|364:352|364:352|356:332|356:332|316:336|316:336|320:300|320:300|248:332|168:312,1,247.500009441376,8|0,0:0|0:0,0:0:0:0:
96,332,86285,2,0,P|188:340|212:244,1,165.000006294251,2|2,0:0|0:0,0:0:0:0:
176,72,86714,6,0,P|176:127|204:180,1,98.9999969787599,0|2,0:0|0:0,0:0:0:0:
312,172,86928,1,2,0:0:0:0:
332,64,87035,2,0,B|316:28|316:28|300:48|300:48|212:16|132:116,1,197.99999395752,2|2,0:0|0:0,0:0:0:0:
108,136,87357,2,2,B|88:92|88:92|80:8,1,98.9999969787599,2|0,0:0|0:0,0:0:0:0:
32,152,87571,6,2,B|64:212|64:212|36:352,1,197.99999395752
184,308,87892,2,2,B|152:248|152:248|180:108,1,197.99999395752
312,172,88214,2,0,P|264:144|264:76,1,98.9999969787599
284,284,88428,6,2,B|300:260|300:260|312:280|312:280|320:268|320:268|348:268|368:252|368:252|408:272|512:260,1,197.99999395752
444,124,88749,2,2,B|420:104|396:104|396:104|376:96|360:68|360:68|312:88|228:44,1,197.99999395752
212,172,89071,2,2,B|268:176|268:176|332:172,1,98.9999969787599
92,304,89285,6,2,B|108:284|108:284|88:264|88:264|108:252|108:252|100:240|100:240|124:216|140:192|128:148|124:132|124:132|52:88,1,247.500009441376,8|0,0:0|0:0,0:0:0:0:
40,172,89714,2,0,B|104:172|144:188|144:188|228:148,1,165.000006294251,2|2,0:0|0:0,0:0:0:0:
288,224,90142,6,0,P|236:244|208:312,1,98.9999969787599,2|2,0:0|0:0,0:0:0:0:
276,360,90357,1,2,0:0:0:0:
380,320,90464,2,0,B|368:276|368:276|372:164|372:164|352:100,1,197.99999395752,2|0,0:0|0:0,0:0:0:0:
204,28,90785,2,2,P|248:76|324:64,1,98.9999969787599
212,152,90999,6,2,B|128:208|128:208|0:232,1,197.99999395752
212,280,91321,2,2,B|296:224|296:224|424:200,1,197.99999395752
372,324,91642,2,0,L|272:344,1,98.9999969787599,2|2,0:0|0:0,0:0:0:0:
108,284,91857,6,2,P|232:292|276:436,1,197.99999395752
152,192,92178,2,2,P|140:148|156:80,1,98.9999969787599,2|2,0:0|0:0,0:0:0:0:
228,40,92392,1,2,0:0:0:0:
316,84,92499,2,2,B|360:104|360:104|508:104,1,98.9999969787599
440,196,92714,6,2,P|440:236|308:276,1,197.99999395752
152,248,93035,2,2,P|192:224|320:216,1,98.9999969787599
180,128,93249,2,0,P|112:128|68:72,1,98.9999969787599,0|2,0:0|0:0,0:0:0:0:
148,28,93464,1,0,0:0:0:0:
260,36,93571,6,2,B|292:72|292:72|284:88|272:104|272:104|284:108|292:120|292:120|296:164|240:212,1,197.99999395752,10|2,0:0|0:0,0:0:0:0:
124,276,93892,2,10,B|155:299|155:299|176:268|176:268|208:256|240:224|240:224|240:197|240:197|305:194,1,197.99999395752
392,280,94214,2,2,B|371:255|371:255|348:259|348:259|335:246|329:265|329:265|298:267|298:267|292:228|200:132,1,197.99999395752,10|10,0:0|0:0,0:0:0:0:
256,192,96142,6,2,B|264:168|264:168|280:196|280:196|288:176|288:176|288:140|288:140|288:116|288:116|276:104|276:104|284:44|188:-16|100:72|136:144|188:152,1,395.999987915039,12|0,0:0|0:0,0:0:0:0:
104,276,96785,2,0,B|124:224|124:224|136:236|136:236|160:244|160:244|164:224|180:212|180:212|204:220|220:228|220:228|256:192|256:192|312:244|380:220|400:144,2,395.999987915039,2|2|2,0:0|0:0|0:0,0:0:0:0:
256,348,97857,6,0,B|240:320|240:320|264:324|264:324|244:300|244:300|264:300|264:300|252:260|252:260|296:216|292:160|248:120|208:128|208:128|220:96|216:60|216:60|196:32,1,395.999987915039,8|0,0:0|0:0,0:0:0:0:
204,200,98499,1,0,0:0:0:0:
204,200,98607,2,0,P|264:264|424:176,2,296.99999093628,2|2|2,0:0|0:0|0:0,0:0:0:0:
108,340,99571,6,2,B|144:328|144:328|164:372|164:372|172:332|172:332|196:312|196:312|292:376|364:344|400:324|400:324|440:372,1,395.999987915039,8|0,0:0|0:0,0:0:0:0:
440,112,100214,1,2,0:0:0:0:
296,44,100427,1,2,0:0:0:0:
452,104,100642,1,2,0:0:0:0:
372,184,100857,2,0,P|320:200|232:152,1,98.9999969787599,2|2,0:0|0:0,0:0:0:0:
180,144,101071,2,0,B|200:192|200:192|188:264,1,98.9999969787599,2|2,0:0|0:0,0:0:0:0:
80,336,101285,6,0,B|48:308|48:308|80:312|104:300|104:300|68:264|68:264|88:228|76:192|76:192|88:164|88:164|68:156|68:156|112:96,2,296.99999093628,0|2|8,0:0|0:0|0:0,0:0:0:0:
252,248,102142,6,2,P|204:264|196:332,1,98.9999969787599,2|0,0:0|0:0,0:0:0:0:
292,172,102357,6,2,P|246:149|200:188,1,88,2|0,0:0|0:0,0:0:0:0:
376,160,102571,6,2,P|360:112|308:108,1,88,2|0,0:0|0:0,0:0:0:0:
444,216,102785,6,2,P|472:172|420:112,1,110,2|0,0:0|0:0,0:0:0:0:
460,304,102999,6,2,B|420:320|420:320|412:288|412:288|396:276|396:276|336:360|312:272|256:336|256:336|232:336|200:328|144:296|168:208,1,440,14|2,0:0|0:0,0:0:0:0:
344,104,103642,2,0,B|388:120|420:112|420:112|472:152|452:208|452:208|376:252,1,197.99999395752,0|0,0:0|0:0,0:0:0:0:
256,60,104071,2,0,B|200:64|176:80|168:104|168:104|148:72|128:44|64:40,1,197.99999395752,2|0,0:0|0:0,0:0:0:0:
76,116,104392,1,0,0:0:0:0:
76,116,104499,2,0,P|105:151|73:215,1,98.9999969787599,2|0,0:0|0:0,0:0:0:0:
64,296,104714,6,0,B|84:288|84:288|92:316|92:316|112:296|136:320|136:320|160:308|184:340|184:340|196:316|264:312|328:324,1,296.99999093628,8|0,0:0|0:0,0:0:0:0:
388,188,105142,2,0,B|332:228|332:228|272:220|172:232,1,197.99999395752,2|0,0:0|0:0,0:0:0:0:
148,164,105464,1,0,0:0:0:0:
160,80,105571,6,2,B|196:60|196:60|208:76|208:76|228:76|228:76|236:104|236:104|264:84|320:104|380:160,1,197.99999395752,2|0,0:0|0:0,0:0:0:0:
356,268,105999,2,0,B|328:240|328:240|300:232|300:232|324:208|324:208|340:160|296:32,1,197.99999395752,0|0,0:0|0:0,0:0:0:0:
236,136,106428,6,0,P|234:196|188:232,1,98.9999969787599,2|0,0:0|0:0,0:0:0:0:
120,344,106642,2,0,B|108:296|108:296|120:248,1,98.9999969787599,0|2,0:0|0:0,0:0:0:0:
148,68,106857,2,0,P|140:124|160:192,1,98.9999969787599,2|0,0:0|0:0,0:0:0:0:
364,312,107071,2,0,P|372:256|352:188,1,98.9999969787599,0|2,0:0|0:0,0:0:0:0:
256,76,107285,2,0,B|272:112|272:112|240:124|240:124|256:140|256:140|248:160|248:160|268:168|268:168|212:204|304:244|244:336,2,296.99999093628,2|0|2,0:0|0:0|0:0,0:0:0:0:
364,68,108142,6,2,P|417:70|472:8,1,98.9999969787599,2|0,0:0|0:0,0:0:0:0:
440,148,108357,1,2,0:0:0:0:
276,212,108464,2,2,B|316:204|316:204|324:172|324:172|372:200|464:132,1,197.99999395752
236,144,108785,2,2,B|196:136|196:136|188:104|188:104|140:132|48:64,1,197.99999395752
72,272,109107,6,0,P|116:240|152:160,1,98.9999969787599,2|0,0:0|0:0,0:0:0:0:
224,48,109321,2,0,P|220:100|252:160,1,98.9999969787599,2|0,0:0|0:0,0:0:0:0:
376,272,109535,2,0,L|264:300,1,98.9999969787599
184,244,109749,1,0,0:0:0:0:
236,144,109857,6,2,B|260:156|260:156|288:136|288:136|304:180|304:180|376:144|460:172|480:264,1,296.99999093628,8|0,0:0|0:0,0:0:0:0:
456,100,110285,2,2,P|410:89|380:8,1,98.9999969787599,2|0,0:0|0:0,0:0:0:0:
236,144,110499,2,0,B|260:104|260:104|264:112|264:112|360:128|392:20,1,197.99999395752,0|2,0:0|0:0,0:0:0:0:
276,240,110928,2,0,B|252:280|252:280|248:272|248:272|152:256|120:364,1,197.99999395752
136,132,111249,2,0,P|140:188|80:216,1,98.9999969787599,0|2,0:0|0:0,0:0:0:0:
44,284,111464,1,0,0:0:0:0:
136,132,111571,6,0,B|196:120|232:156|232:156|252:140|252:140|272:148|272:148|288:136|288:136|304:140|304:140|344:112,1,197.99999395752,8|0,0:0|0:0,0:0:0:0:
412,168,111999,2,0,B|368:148|368:148|388:128|388:128|340:160|296:140|280:104|280:84|280:84|264:56|292:64|292:64|272:48|272:48|320:-16,2,296.99999093628,0|2|0,0:0|0:0|0:0,0:0:0:0:
384,256,112857,2,0,P|372:304|400:368,1,98.9999969787599,2|0,0:0|0:0,0:0:0:0:
268,332,113071,2,0,P|280:284|252:220,1,98.9999969787599,2|0,0:0|0:0,0:0:0:0:
140,184,113285,6,2,B|174:188|188:264|188:264|216:220|272:240|272:240|320:300|424:280|408:172,1,395.999987915039,2|2,0:0|0:0,0:0:0:0:
460,64,113927,1,0,0:0:0:0:
460,64,114035,2,0,B|428:68|428:68|428:116|428:116|408:108|332:120|336:200|336:200|292:136,2,296.99999093628,2|2|2,0:0|0:0|0:0,0:0:0:0:
324,51,114999,6,0,B|228:48|184:96|184:96|128:56|44:56,2,296.99999093628,2|2|2,0:0|0:0|0:0,0:0:0:0:
332,128,115857,2,2,P|280:132|220:192,1,98.9999969787599,0|0,0:0|0:0,0:0:0:0:
44,192,116071,2,2,B|96:192|96:192|168:212,1,98.9999969787599,0|0,0:0|0:0,0:0:0:0:
340,240,116285,2,2,B|288:244|288:244|244:260,1,98.9999969787599,0|0,0:0|0:0,0:0:0:0:
52,276,116499,2,2,P|104:280|164:340,1,98.9999969787599,0|0,0:0|0:0,0:0:0:0:
252,344,116714,6,2,B|296:356|296:356|316:344|312:324|312:324|340:344|340:344|400:340|416:276|380:244,1,197.99999395752,0|0,0:0|0:0,0:0:0:0:
316,148,117142,2,0,B|316:180|316:180|364:216|364:216|356:244|360:280|360:280|432:312,1,197.99999395752
480,196,117464,1,0,0:0:0:0:
396,96,117571,2,0,B|312:144|312:144|140:96,1,197.99999395752
136,200,117892,2,0,L|264:236,1,98.9999969787599
312,308,118107,2,0,L|184:344,1,98.9999969787599
120,304,118321,1,0,0:0:0:0:
212,60,118428,6,0,B|224:84|232:104|232:104|212:128|212:128|264:172|216:252,1,197.99999395752
312,308,118857,2,0,B|300:264|300:264|336:284|336:284|420:184|312:16,1,296.99999093628
168,92,119285,2,0,B|200:92|200:92|228:124|244:176|244:176|264:180|264:180|272:168|272:168|280:180|280:180|288:192|288:192|300:192|300:192|348:208,1,197.99999395752
168,292,119714,2,0,B|200:292|200:292|228:260|244:208|244:208|264:204|264:204|272:216|272:216|280:204|280:204|288:192|288:192|300:192|300:192|348:176,1,197.99999395752
392,184,120142,6,0,P|348:196|256:180,1,98.9999969787599
332,96,120357,2,0,B|380:84|380:84|460:40,1,98.9999969787599
392,184,120571,2,0,P|380:236|416:328,1,98.9999969787599
412,360,120785,1,0,0:0:0:0:
476,296,120892,1,0,0:0:0:0:
296,256,120999,6,0,B|268:276|268:276|232:204|168:204|168:204|220:116,1,197.99999395752
52,88,121321,2,0,B|84:84|84:84|76:108|76:108|104:104|104:128|104:128|152:116|208:208,1,197.99999395752
372,108,121642,2,0,L|128:196,1,197.99999395752
188,172,123571,5,4,0:0:0:0:
72,292,137285,6,0,P|105:254|104:184,1,110,2|0,0:0|0:0,0:0:0:0:
96,156,137607,2,0,P|176:164|232:72,1,165,0|0,0:0|0:0,0:0:0:0:
136,64,138142,1,0,0:0:0:0:
136,64,138249,1,8,0:0:0:0:
196,264,138464,1,8,0:0:0:0:
196,264,138571,2,0,L|408:296,1,165,0|0,0:0|0:0,0:0:0:0:
392,292,138999,6,0,B|416:240|416:240|400:156,1,110,2|0,0:0|0:0,0:0:0:0:
296,52,139428,2,0,P|292:112|340:124,1,110,8|0,0:0|0:0,0:0:0:0:
256,192,139857,2,0,B|160:176|160:176|84:116,1,165,0|0,0:0|0:0,0:0:0:0:
108,136,140285,2,0,P|108:196|56:228,1,110,8|0,0:0|0:0,0:0:0:0:
112,336,140714,5,2,0:0:0:0:
312,220,140928,1,8,0:0:0:0:
312,220,141035,1,0,0:0:0:0:
200,220,141249,1,0,0:0:0:0:
200,220,141357,1,8,0:0:0:0:
400,336,141571,1,0,0:0:0:0:
400,336,141678,1,8,0:0:0:0:
460,200,141892,1,8,0:0:0:0:
460,200,141999,2,0,P|420:152|456:56,1,165
328,48,142428,6,0,P|344:108|316:172,1,110,2|0,0:0|0:0,0:0:0:0:
292,352,142857,1,8,0:0:0:0:
384,276,143071,1,2,0:0:0:0:
236,232,143285,2,0,B|128:216|128:216|40:252,1,165,2|2,0:0|0:0,0:0:0:0:
44,248,143714,2,0,P|60:192|40:104,1,110,8|0,0:0|0:0,0:0:0:0:
264,36,144142,6,0,P|206:55|104:56,1,110,2|8,0:0|0:0,0:0:0:0:
156,60,144464,2,0,B|164:108|164:108|144:176|144:176|156:264,1,165,0|8,0:0|0:0,0:0:0:0:
184,236,144892,1,8,0:0:0:0:
216,248,144999,1,0,0:0:0:0:
248,260,145107,2,0,P|304:276|376:272,1,110,8|8,0:0|0:0,0:0:0:0:
388,268,145428,2,0,B|372:216|372:216|392:136,1,110,2|0,0:0|0:0,0:0:0:0:
444,72,145857,5,2,0:0:0:0:
316,296,146071,1,0,0:0:0:0:
456,236,146285,1,8,0:0:0:0:
304,132,146500,2,0,P|328:200|392:212,1,110,0|8,0:0|0:0,0:0:0:0:
388,136,146928,1,2,0:0:0:0:
232,216,147142,1,2,0:0:0:0:
232,216,147571,6,0,P|180:232|120:148,1,165
128,120,148000,1,2,0:0:0:0:
108,336,148214,1,0,0:0:0:0:
316,252,148428,1,0,0:0:0:0:
316,252,148535,1,8,0:0:0:0:
188,232,148750,1,8,0:0:0:0:
188,232,148857,2,0,P|216:328|308:352,1,165
452,332,149285,6,0,P|392:320|300:352,1,110,2|0,0:0|0:0,0:0:0:0:
268,352,149714,1,8,0:0:0:0:
400,148,149928,1,0,0:0:0:0:
224,164,150142,2,0,P|260:208|328:196,1,110,8|8,0:0|0:0,0:0:0:0:
316,236,150464,5,8,0:0:0:0:
320,264,150571,1,2,0:0:0:0:
320,292,150678,1,8,0:0:0:0:
316,320,150785,1,2,0:0:0:0:
308,344,150892,1,2,0:0:0:0:
288,360,151000,6,0,B|208:352|208:352|132:300,1,165
124,280,151428,1,8,0:0:0:0:
272,152,151642,2,0,P|288:200|236:280,1,110
244,272,151963,1,0,0:0:0:0:
192,40,152177,1,0,0:0:0:0:
192,40,152285,2,0,P|168:140|212:220,1,165
216,228,152714,6,0,B|272:216|272:216|352:228,1,110,2|0,0:0|0:0,0:0:0:0:
428,344,153142,1,8,0:0:0:0:
256,364,153357,1,0,0:0:0:0:
312,136,153571,2,0,P|340:220|320:344,1,165
296,328,154000,2,0,B|240:316|240:316|160:328,1,110
48,264,154428,6,0,L|144:240,2,55,8|0|0,0:0|0:0|0:0,0:0:0:0:
52,172,154749,2,0,P|124:120|116:92,1,110,8|0,0:0|0:0,0:0:0:0:
120,88,155071,1,0,0:0:0:0:
140,104,155178,1,0,0:0:0:0:
164,120,155285,1,0,0:0:0:0:
188,132,155392,1,8,0:0:0:0:
328,76,155607,2,8,P|296:100|280:148,1,55
188,308,155928,6,8,P|220:284|236:236,1,55
220,232,156142,2,0,B|272:248|272:248|352:244,1,110,8|0,0:0|0:0,0:0:0:0:
380,152,156571,1,8,0:0:0:0:
292,332,156785,1,0,0:0:0:0:
256,152,157000,5,8,0:0:0:0:
272,176,157107,1,8,0:0:0:0:
292,196,157214,1,8,0:0:0:0:
320,212,157321,2,0,B|380:228|380:228|452:208,1,110,8|0,0:0|0:0,0:0:0:0:
452,204,157642,1,8,0:0:0:0:
448,232,157750,1,8,0:0:0:0:
444,260,157857,5,8,0:0:0:0:
440,288,157964,1,8,0:0:0:0:
320,212,158178,5,8,0:0:0:0:
324,240,158285,1,8,0:0:0:0:
196,160,158500,5,8,0:0:0:0:
192,188,158607,1,8,0:0:0:0:
72,116,158821,5,8,0:0:0:0:
76,144,158928,1,8,0:0:0:0:
96,316,159142,5,8,0:0:0:0:
176,172,159357,1,8,0:0:0:0:
20,236,159571,5,8,0:0:0:0:
192,268,159785,1,0,0:0:0:0:
296,144,160000,1,0,0:0:0:0:
124,176,160214,1,0,0:0:0:0:
364,236,160428,2,0,P|421:234|456:132,1,165,8|0,0:0|0:0,0:0:0:0:
372,44,160857,2,0,B|360:104|360:104|380:164,1,110,8|0,0:0|0:0,0:0:0:0:
264,256,161285,6,8,L|288:180,1,55
240,40,161500,2,8,L|264:116,1,55
160,288,161714,2,0,L|184:212,1,55,8|0,0:0|0:0,0:0:0:0:
136,72,161928,2,0,L|160:148,1,55
176,148,162142,5,8,0:0:0:0:
204,164,162250,1,0,0:0:0:0:
236,172,162357,1,8,0:0:0:0:
268,176,162464,1,8,0:0:0:0:
300,176,162571,1,0,0:0:0:0:
332,172,162678,1,8,0:0:0:0:
364,168,162785,1,8,0:0:0:0:
396,160,162892,1,8,0:0:0:0:
420,148,163000,6,0,L|424:88,1,55
420,236,163214,2,0,L|424:296,1,55
292,124,163428,2,0,L|298:33,1,55
292,256,163642,2,0,L|298:346,1,55
300,344,163856,1,8,0:0:0:0:
300,344,164714,6,2,B|332:348|332:348|332:328|332:328|368:320|368:320|416:292|436:232|396:176|348:168,1,247.500009441376,2|0,0:0|0:0,0:0:0:0:
220,132,165142,2,0,B|244:152|244:152|256:188|244:212|244:212|288:232|348:252,1,165.000006294251,0|2,0:0|0:0,0:0:0:0:
316,28,165571,6,0,P|308:68|348:144,1,98.9999969787599,2|2,0:0|0:0,0:0:0:0:
440,64,165785,1,2,0:0:0:0:
316,28,165892,2,0,B|260:24|240:40|240:40|220:68|220:68|208:44|208:44|188:80|64:80,1,197.99999395752,2|2,0:0|0:0,0:0:0:0:
240,220,166214,2,2,P|256:272|208:304,1,98.9999969787599
160,152,166428,6,2,B|192:136|192:136|288:100|288:100|312:96|412:104,1,197.99999395752,2|0,0:0|0:0,0:0:0:0:
416,272,166750,2,2,B|384:256|384:256|288:220|288:220|264:216|164:224,1,197.99999395752,2|2,0:0|0:0,0:0:0:0:
360,176,167071,2,0,P|408:156|448:96,1,98.9999969787599,2|2,0:0|0:0,0:0:0:0:
364,344,167285,6,2,B|348:332|348:332|332:328|332:328|312:344|312:344|264:332|244:304|244:304|228:304|160:304,1,197.99999395752,2|2,0:0|0:0,0:0:0:0:
100,228,167607,2,0,P|140:192|168:120,1,98.9999969787599,2|2,0:0|0:0,0:0:0:0:
212,52,167821,2,0,P|232:91|272:127,1,98.9999969787599,2|2,0:0|0:0,0:0:0:0:
360,176,168035,1,2,0:0:0:0:
372,52,168142,6,2,B|348:84|348:84|332:80|332:80|320:72|320:72|332:104|328:164|292:172|292:172|316:196|220:272,1,247.500009441376
364,344,168571,2,0,B|344:296|344:296|364:272|364:272|372:224|348:140,1,165.000006294251,2|2,0:0|0:0,0:0:0:0:
160,140,169000,6,0,P|192:184|280:128,1,98.9999969787599,2|2,0:0|0:0,0:0:0:0:
360,124,169214,1,2,0:0:0:0:
264,52,169321,2,0,P|176:48|168:152,1,197.99999395752,2|0,0:0|0:0,0:0:0:0:
172,316,169642,2,2,P|194:269|180:208,1,98.9999969787599
84,28,169857,6,2,B|64:72|60:108|72:144|72:144|80:168|80:168|24:156,1,197.99999395752
52,376,170178,2,2,B|72:332|76:296|64:260|64:260|56:236|56:236|112:248,1,197.99999395752
268,304,170500,2,0,B|220:320|220:320|124:312,1,98.9999969787599,2|2,0:0|0:0,0:0:0:0:
256,136,170714,6,2,B|280:160|280:160|264:168|264:168|276:176|276:176|268:192|268:192|272:204|272:204|288:248|256:356,1,197.99999395752
368,168,171035,2,2,B|368:201|368:201|331:199|300:224|300:224|302:283|215:320,1,197.99999395752
416,280,171357,2,2,P|368:280|304:300,1,98.9999969787599
84,312,171571,6,2,B|136:296|160:272|160:272|344:296,1,247.500009441376
280,204,172000,2,0,B|188:192|188:192|192:160|164:108,1,165.000006294251,2|2,0:0|0:0,0:0:0:0:
336,28,172428,6,0,L|364:144,1,98.9999969787599,2|2,0:0|0:0,0:0:0:0:
376,236,172642,1,2,0:0:0:0:
248,236,172750,2,0,P|248:176|412:180,1,197.99999395752,2|2,0:0|0:0,0:0:0:0:
200,308,173071,2,2,P|164:260|204:164,1,98.9999969787599
412,160,173285,6,2,B|380:252|380:252|412:400,1,197.99999395752
304,204,173607,2,2,B|336:112|336:112|314:13,1,197.99999395752
220,152,173928,2,0,P|204:208|280:276,1,98.9999969787599,2|2,0:0|0:0,0:0:0:0:
336,108,174142,6,2,B|312:96|296:104|296:104|272:80|272:80|264:88|264:88|208:56|152:104,1,197.99999395752
36,184,174464,2,0,P|88:184|168:144,1,98.9999969787599,2|2,0:0|0:0,0:0:0:0:
160,252,174678,2,0,B|144:304|144:304|160:360,1,98.9999969787599,0|0,0:0|0:0,0:0:0:0:
256,368,174892,1,2,0:0:0:0:
336,272,175000,6,2,B|300:280|296:300|296:300|288:272|288:272|240:264|168:272|136:404,1,247.500009441376
60,280,175428,2,0,P|105:210|32:116,1,165.000006294251,2|2,0:0|0:0,0:0:0:0:
224,64,175857,6,0,P|200:116|224:192,1,98.9999969787599,2|2,0:0|0:0,0:0:0:0:
320,172,176071,1,2,0:0:0:0:
224,64,176178,2,0,B|156:80|156:80|92:68|92:68|24:88,1,197.99999395752,2|2,0:0|0:0,0:0:0:0:
108,244,176500,2,2,B|132:200|132:200|132:124,1,98.9999969787599
216,316,176714,5,2,0:0:0:0:
380,232,176928,1,0,0:0:0:0:
296,68,177142,1,2,0:0:0:0:
132,148,177357,1,0,0:0:0:0:
216,316,177571,6,0,P|290:256|226:160,1,197.99999395752,2|0,0:0|0:0,0:0:0:0:
204,240,177892,1,0,0:0:0:0:
204,240,178000,2,2,B|292:216|324:292|472:208,1,197.99999395752
308,24,178428,6,2,B|320:68|320:68|296:72|296:72|256:164|368:216|436:132,1,247.500009441376,10|2,0:0|0:0,0:0:0:0:
192,116,178857,2,0,L|72:96,2,82.5000031471254,0|0|2,0:0|0:0|0:0,0:0:0:0:
128,304,179285,6,8,P|112:264|148:200,1,98.9999969787599,2|2,0:0|0:0,0:0:0:0:
256,188,179499,1,2,0:0:0:0:
400,224,179607,2,2,P|299:254|264:152,1,197.99999395752,2|2,0:0|0:0,0:0:0:0:
248,320,179928,2,2,P|304:316|336:356,1,98.9999969787599
432,316,180142,6,2,B|400:276|400:224|400:224|452:188|448:60,1,197.99999395752
364,48,180464,2,2,B|380:116|344:168|344:168|256:188,1,197.99999395752
192,144,180785,2,0,P|180:104|132:28,1,98.9999969787599
108,216,181000,6,2,B|128:204|128:204|156:236|224:260|276:216|300:120,1,197.99999395752
352,248,181321,2,0,P|320:288|252:320,1,98.9999969787599,0|2,0:0|0:0,0:0:0:0:
168,312,181535,1,2,0:0:0:0:
108,216,181642,2,0,P|124:164|88:96,1,98.9999969787599
296,44,181857,6,2,B|268:40|268:40|276:68|260:100|236:132|188:140|188:140|152:116|68:128,1,247.500009441376
108,216,182285,2,0,B|144:192|172:232|172:232|232:232|292:192,1,165.000006294251,0|2,0:0|0:0,0:0:0:0:
456,152,182714,6,0,P|408:176|344:184,1,98.9999969787599,0|2,0:0|0:0,0:0:0:0:
260,212,182928,1,2,0:0:0:0:
220,112,183035,2,0,P|352:140|328:252,1,197.99999395752,2|2,0:0|0:0,0:0:0:0:
312,352,183357,2,2,B|332:292|332:292|324:244,1,98.9999969787599
144,228,183571,6,2,B|188:244|204:272|204:272|272:280|368:240,1,197.99999395752
244,148,183892,2,2,B|200:132|184:104|184:104|116:96|20:136,1,197.99999395752
328,176,184214,2,0,P|372:152|356:88,1,98.9999969787599,2|2,0:0|0:0,0:0:0:0:
404,240,184428,6,2,B|376:220|376:220|408:212|408:212|400:196|380:180|380:180|392:140|348:28,1,197.99999395752
492,196,184750,2,2,B|476:208|476:208|472:112|328:64,1,197.99999395752
264,48,185071,2,2,P|308:60|388:64,1,98.9999969787599
244,148,185285,6,2,B|224:136|224:136|224:120|224:120|208:132|200:116|200:116|184:132|184:132|132:92|60:132|48:200|92:232,1,247.500009441376
140,348,185714,2,0,P|169:307|136:192,1,165.000006294251,2|2,0:0|0:0,0:0:0:0:
256,276,186142,6,0,B|300:300|300:300|364:312,1,98.9999969787599,2|2,0:0|0:0,0:0:0:0:
448,240,186357,1,2,0:0:0:0:
352,136,186464,2,0,P|328:244|200:264,1,197.99999395752,2|2,0:0|0:0,0:0:0:0:
88,200,186785,2,0,B|140:208|140:208|236:192,1,98.9999969787599,2|2,0:0|0:0,0:0:0:0:
256,108,187000,6,2,B|172:120|172:120|140:60|32:44,1,197.99999395752
96,224,187321,2,2,B|180:212|180:212|212:272|320:288,1,197.99999395752
448,240,187642,2,2,P|404:264|356:204,1,98.9999969787599
344,332,187857,6,2,B|332:308|332:308|356:312|356:312|384:240|360:180|240:140,1,197.99999395752
364,100,188178,2,0,P|352:160|292:188,1,98.9999969787599,2|2,0:0|0:0,0:0:0:0:
188,180,188392,1,2,0:0:0:0:
160,64,188500,2,2,P|212:72|256:92,1,98.9999969787599
112,324,188714,6,2,B|116:280|108:232|108:232|80:224|32:200|0:132,1,197.99999395752
72,88,189035,2,2,P|108:128|180:156,1,98.9999969787599,2|2,0:0|0:0,0:0:0:0:
288,152,189250,2,2,P|240:180|192:248,1,98.9999969787599,2|2,0:0|0:0,0:0:0:0:
224,308,189464,1,0,0:0:0:0:
352,336,189571,6,2,B|348:304|348:304|356:296|356:296|336:296|336:296|320:288|320:288|316:220|192:156,1,197.99999395752
272,36,189892,2,2,B|264:56|264:56|272:64|272:64|260:72|260:72|276:80|276:80|248:96|208:156|248:212|296:208,1,197.99999395752
160,336,190214,2,2,B|196:280|240:284|240:284|224:248|232:228|260:192,1,197.99999395752
256,192,192142,6,2,B|248:216|248:216|232:188|232:188|224:208|224:208|224:244|224:244|224:268|224:268|236:280|236:280|228:340|324:400|412:312|376:240|324:232,1,395.999987915039,8|0,0:0|0:0,0:0:0:0:
408,108,192785,2,0,B|388:160|388:160|376:148|376:148|352:140|352:140|348:160|332:172|332:172|308:164|292:156|292:156|256:192|256:192|200:140|132:164|112:240,2,395.999987915039,0|2|0,0:0|0:0|0:0,0:0:0:0:
256,36,193857,6,0,B|272:64|272:64|248:60|248:60|268:84|268:84|248:84|248:84|260:124|260:124|216:168|220:224|264:264|304:256|304:256|292:288|296:324|296:324|316:352,1,395.999987915039,8|0,0:0|0:0,0:0:0:0:
308,184,194499,1,0,0:0:0:0:
308,184,194607,2,0,P|248:120|88:208,2,296.99999093628,2|2|2,0:0|0:0|0:0,0:0:0:0:
404,44,195571,6,2,B|368:56|368:56|348:12|348:12|340:52|340:52|316:72|316:72|220:8|148:40|112:60|112:60|72:12,1,395.999987915039,8|0,0:0|0:0,0:0:0:0:
72,272,196214,1,2,0:0:0:0:
216,340,196427,1,2,0:0:0:0:
60,280,196642,1,2,0:0:0:0:
140,200,196857,2,0,P|192:184|280:232,1,98.9999969787599,2|2,0:0|0:0,0:0:0:0:
332,240,197071,2,0,B|312:192|312:192|324:120,1,98.9999969787599,2|2,0:0|0:0,0:0:0:0:
432,48,197285,6,0,B|464:76|464:76|432:72|408:84|408:84|444:120|444:120|424:156|436:192|436:192|424:220|424:220|444:228|444:228|400:288,2,296.99999093628,0|2|8,0:0|0:0|0:0,0:0:0:0:
260,136,198142,6,2,P|308:120|316:52,1,98.9999969787599,2|0,0:0|0:0,0:0:0:0:
220,212,198357,6,2,P|266:235|312:196,1,88,2|0,0:0|0:0,0:0:0:0:
136,224,198571,6,2,P|152:272|204:276,1,88,2|0,0:0|0:0,0:0:0:0:
68,168,198785,6,2,P|40:212|92:272,1,110,2|0,0:0|0:0,0:0:0:0:
52,80,198999,6,2,B|92:64|92:64|100:96|100:96|116:108|116:108|176:24|200:112|256:48|256:48|280:48|312:56|368:88|344:172,1,395.999987915039,10|2,0:0|0:0,0:0:0:0:
168,280,199642,2,0,B|124:264|92:272|92:272|40:232|60:176|60:176|136:132,1,197.99999395752,0|0,0:0|0:0,0:0:0:0:
256,324,200071,2,0,B|312:320|336:304|344:280|344:280|364:312|384:340|448:344,1,197.99999395752,2|0,0:0|0:0,0:0:0:0:
436,268,200392,1,0,0:0:0:0:
436,268,200499,2,0,P|407:233|439:169,1,98.9999969787599,2|0,0:0|0:0,0:0:0:0:
448,88,200714,6,0,B|428:96|428:96|420:68|420:68|400:88|376:64|376:64|352:76|328:44|328:44|316:68|248:72|184:60,1,296.99999093628,8|0,0:0|0:0,0:0:0:0:
124,196,201142,2,0,B|180:156|180:156|240:164|340:152,1,197.99999395752,2|0,0:0|0:0,0:0:0:0:
364,220,201464,1,0,0:0:0:0:
352,304,201571,6,0,B|316:324|316:324|304:308|304:308|284:308|284:308|276:280|276:280|248:300|192:280|132:224,1,197.99999395752,2|0,0:0|0:0,0:0:0:0:
156,116,201999,2,0,B|184:144|184:144|212:152|212:152|188:176|188:176|172:224|216:352,1,197.99999395752,0|0,0:0|0:0,0:0:0:0:
276,248,202428,6,0,P|278:188|324:152,1,98.9999969787599,2|0,0:0|0:0,0:0:0:0:
392,40,202642,2,0,B|404:88|404:88|392:136,1,98.9999969787599,0|2,0:0|0:0,0:0:0:0:
364,316,202857,2,0,P|372:260|352:192,1,98.9999969787599,2|0,0:0|0:0,0:0:0:0:
148,72,203071,2,0,P|140:128|160:196,1,98.9999969787599,0|2,0:0|0:0,0:0:0:0:
256,308,203285,2,0,B|240:272|240:272|272:260|272:260|256:244|256:244|264:224|264:224|244:216|244:216|300:180|208:140|268:48,2,296.99999093628,2|0|2,0:0|0:0|0:0,0:0:0:0:
148,316,204142,6,2,P|95:314|40:376,1,98.9999969787599,2|0,0:0|0:0,0:0:0:0:
72,236,204357,1,2,0:0:0:0:
236,172,204464,2,2,B|196:180|196:180|188:212|188:212|140:184|48:252,1,197.99999395752
276,240,204785,2,2,B|316:248|316:248|324:280|324:280|372:252|464:320,1,197.99999395752
440,112,205107,6,0,P|396:144|360:224,1,98.9999969787599,2|0,0:0|0:0,0:0:0:0:
288,336,205321,2,0,P|292:284|260:224,1,98.9999969787599,2|0,0:0|0:0,0:0:0:0:
136,112,205535,2,0,L|248:84,1,98.9999969787599
328,140,205749,1,0,0:0:0:0:
276,240,205857,6,2,B|252:228|252:228|224:248|224:248|208:204|208:204|136:240|52:212|32:120,1,296.99999093628,8|0,0:0|0:0,0:0:0:0:
56,284,206285,2,0,P|102:295|132:376,1,98.9999969787599,2|0,0:0|0:0,0:0:0:0:
276,240,206499,2,0,B|252:280|252:280|248:272|248:272|152:256|120:364,1,197.99999395752,0|2,0:0|0:0,0:0:0:0:
236,144,206928,2,0,B|260:104|260:104|264:112|264:112|360:128|392:20,1,197.99999395752
376,252,207249,2,0,P|372:196|432:168,1,98.9999969787599,0|2,0:0|0:0,0:0:0:0:
468,100,207464,1,0,0:0:0:0:
376,252,207571,6,0,B|316:264|280:228|280:228|260:244|260:244|240:236|240:236|224:248|224:248|208:244|208:244|168:272,1,197.99999395752
100,216,207999,2,0,B|144:236|144:236|124:256|124:256|172:224|216:244|232:280|232:300|232:300|248:328|220:320|220:320|240:336|240:336|192:400,2,296.99999093628,0|2|0,0:0|0:0|0:0,0:0:0:0:
128,128,208857,2,0,P|140:80|112:16,1,98.9999969787599,2|0,0:0|0:0,0:0:0:0:
244,52,209071,2,0,P|232:100|260:164,1,98.9999969787599,2|0,0:0|0:0,0:0:0:0:
372,200,209285,6,2,B|338:196|324:120|324:120|296:164|240:144|240:144|192:84|88:104|104:212,1,395.999987915039,2|2,0:0|0:0,0:0:0:0:
52,320,209927,1,0,0:0:0:0:
52,320,210035,2,0,B|84:316|84:316|84:268|84:268|104:276|180:264|176:184|176:184|220:248,2,296.99999093628,2|2|2,0:0|0:0|0:0,0:0:0:0:
188,333,210999,6,0,B|284:336|328:288|328:288|384:328|468:328,2,296.99999093628,2|2|2,0:0|0:0|0:0,0:0:0:0:
180,256,211857,2,2,P|232:252|292:192,1,98.9999969787599,0|0,0:0|0:0,0:0:0:0:
468,192,212071,2,2,B|416:192|416:192|344:172,1,98.9999969787599,0|0,0:0|0:0,0:0:0:0:
172,144,212285,2,2,B|224:140|224:140|268:124,1,98.9999969787599,0|0,0:0|0:0,0:0:0:0:
460,108,212499,2,2,P|408:104|348:44,1,98.9999969787599,0|0,0:0|0:0,0:0:0:0:
260,40,212714,6,0,B|216:28|216:28|196:40|200:60|200:60|172:40|172:40|112:44|96:108|132:140,1,197.99999395752,2|0,0:0|0:0,0:0:0:0:
196,236,213142,2,0,B|196:204|196:204|148:168|148:168|156:140|152:104|152:104|80:72,1,197.99999395752
32,188,213464,1,0,0:0:0:0:
116,288,213571,2,0,B|200:240|200:240|372:288,1,197.99999395752
376,184,213892,2,0,L|248:148,1,98.9999969787599
200,76,214107,2,0,L|328:40,1,98.9999969787599
392,80,214321,1,0,0:0:0:0:
300,324,214428,6,0,B|288:300|280:280|280:280|300:256|300:256|248:212|296:132,1,197.99999395752
200,76,214857,2,0,B|212:120|212:120|176:100|176:100|92:200|200:368,1,296.99999093628
344,292,215285,2,0,B|312:292|312:292|284:260|268:208|268:208|248:204|248:204|240:216|240:216|232:204|232:204|224:192|224:192|212:192|212:192|164:176,1,197.99999395752
344,92,215714,2,0,B|312:92|312:92|284:124|268:176|268:176|248:180|248:180|240:168|240:168|232:180|232:180|224:192|224:192|212:192|212:192|164:208,1,197.99999395752
120,200,216142,6,0,P|164:188|256:204,1,98.9999969787599
180,288,216357,2,0,B|132:300|132:300|52:344,1,98.9999969787599
120,200,216571,2,0,P|132:148|96:56,1,98.9999969787599
100,24,216785,1,0,0:0:0:0:
36,88,216892,1,0,0:0:0:0:
216,128,216999,6,0,B|244:108|244:108|280:180|344:180|344:180|292:268,1,197.99999395752
460,296,217321,2,0,B|428:300|428:300|436:276|436:276|408:280|408:256|408:256|360:268|304:176,1,197.99999395752
140,276,217642,2,0,L|384:188,1,197.99999395752
324,212,219571,5,0,0:0:0:0:
256,192,219678,12,0,224713,0:0:0:0:
