osu file format v12

[General]
AudioFilename: Skrillex-Imma Try It Out.mp3
AudioLeadIn: 0
PreviewTime: 65190
Countdown: 0
SampleSet: Normal
StackLeniency: 0.7
Mode: 0
LetterboxInBreaks: 1

[Editor]
Bookmarks: 13856,41284,54999,137243
DistanceSpacing: 0.7
BeatDivisor: 4
GridSize: 4

[Metadata]
Title:Imma Try It Out (feat. Alvin Risk)
TitleUnicode:Imma Try It Out (feat. Alvin Risk)
Artist:Skrillex
ArtistUnicode:Skrillex
Creator:Foreverends
Version:Endsane
Source:
Tags:Call Of Duty Black Ops 2 dubstep Sonny Moore KiyoshiX101 Cancel Nardoxyribonucleic
BeatmapID:234818
BeatmapSetID:76662

[Difficulty]
HPDrainRate:7
CircleSize:4
OverallDifficulty:7
ApproachRate:8
SliderMultiplier:2
SliderTickRate:2

[Events]
//Background and Video events
0,0,"bg.jpg",0,0
//Break Periods
2,41484,53284
2,123770,136534
//Storyboard Layer 0 (Background)
//Storyboard Layer 1 (Fail)
//Storyboard Layer 2 (Pass)
//Storyboard Layer 3 (Foreground)
//Storyboard Sound Samples
//Background Colour Transformations
3,100,163,162,255

[TimingPoints]
142,428.571428571429,4,1,0,60,1,0
13857,-100,4,1,1,60,0,0
14178,-100,4,3,0,60,0,0
14284,-100,4,1,1,60,0,0
15357,-100,4,1,1,60,0,0
16428,-100,4,1,3,60,0,0
17285,-100,4,1,1,60,0,0
17607,-100,4,1,0,60,0,0
18142,-100,4,1,3,60,0,0
18249,-100,4,1,1,60,0,0
18785,-100,4,1,2,60,0,0
19000,-100,4,1,1,60,0,0
19857,-100,4,1,3,60,0,0
20071,-100,4,1,1,50,0,0
20285,-100,4,1,3,60,0,0
20392,-100,4,1,1,50,0,0
20714,-100,4,1,1,60,0,0
21571,-100,4,1,2,60,0,0
21678,-100,4,1,1,60,0,0
23285,-100,4,1,2,60,0,0
23500,-100,4,1,3,60,0,0
24142,-100,4,1,1,60,0,0
25000,-100,4,1,2,60,0,0
26285,-100,4,1,1,60,0,0
26714,-100,4,1,2,60,0,0
28535,-100,4,1,1,60,0,0
29714,-100,4,1,1,40,0,0
29928,-100,4,1,1,60,0,0
30142,-100,4,1,2,60,0,0
30357,-100,4,1,1,60,0,0
31857,-100,4,1,2,60,0,0
31964,-100,4,1,1,60,0,0
33571,-100,4,1,2,60,0,0
33892,-100,4,3,0,60,0,0
34428,-100,4,1,1,60,0,0
34750,-100,4,1,0,60,0,0
34857,-100,4,3,0,60,0,0
35285,-100,4,1,2,60,0,0
35500,-100,4,1,0,60,0,0
35714,-100,4,1,1,60,0,0
36035,-100,4,1,0,60,0,0
36142,-100,4,1,2,60,0,0
37428,-100,4,1,1,60,0,0
38714,-100,4,3,0,40,0,0
39571,-100,4,1,1,60,0,0
39892,-100,4,1,2,60,0,0
40000,-100,4,1,1,60,0,0
40428,-100,4,1,2,60,0,0
40534,-100,4,1,1,60,0,0
41071,-66.6666666666667,4,1,1,60,0,0
41285,-100,4,1,1,60,0,0
54999,-100,4,1,3,60,0,0
68714,-76.9230769230769,4,1,0,60,0,1
75034,-62.5,4,1,0,60,0,1
75356,-50,4,1,0,60,0,1
75570,-76.9230769230769,4,1,0,60,0,1
80714,-76.9230769230769,4,1,0,60,0,0
82428,-76.9230769230769,4,1,0,60,0,1
88749,-62.5,4,1,0,60,0,1
89070,-50,4,1,0,60,0,1
89284,-76.9230769230769,4,1,0,60,0,1
90999,-76.9230769230769,4,1,1,60,0,1
93892,-62.5,4,1,1,60,0,1
94213,-50,4,1,1,60,0,1
94321,-76.9230769230769,4,1,1,60,0,0
94428,-76.9230769230769,4,1,1,60,0,1
94535,-76.9230769230769,4,1,1,60,0,0
96142,-76.9230769230769,4,1,1,60,0,1
102142,-76.9230769230769,4,1,0,60,0,1
102999,-76.9230769230769,4,1,1,60,0,1
106428,-76.9230769230769,4,1,0,60,0,0
109857,-76.9230769230769,4,1,0,60,0,1
121320,-62.5,4,1,0,60,0,1
121642,-50,4,1,0,60,0,1
123464,-76.9230769230769,4,1,0,60,0,0
123571,-76.9230769230769,4,1,0,60,0,1
123678,-100,4,1,0,60,0,0
137284,-100,4,1,3,60,0,0
164714,-76.9230769230769,4,1,0,60,0,1
171034,-62.5,4,1,0,60,0,1
171356,-50,4,1,0,60,0,1
171570,-76.9230769230769,4,1,0,60,0,1
176714,-76.9230769230769,4,1,0,60,0,0
178428,-76.9230769230769,4,1,0,60,0,1
184749,-62.5,4,1,0,60,0,1
185070,-50,4,1,0,60,0,1
185284,-76.9230769230769,4,1,0,60,0,1
189892,-62.5,4,1,0,60,0,1
190213,-50,4,1,0,60,0,1
190321,-76.9230769230769,4,1,0,60,0,0
190427,-76.9230769230769,4,1,0,60,0,1
190534,-76.9230769230769,4,1,0,60,0,0
192142,-76.9230769230769,4,1,0,60,0,1
204142,-76.9230769230769,4,1,0,60,0,0
205857,-76.9230769230769,4,1,0,60,0,1
217320,-62.5,4,1,0,60,0,1
217642,-50,4,1,0,60,0,1
217856,-76.9230769230769,4,1,0,60,0,0
219464,-76.9230769230769,4,1,0,60,0,0
219571,-76.9230769230769,4,1,0,60,0,1
219678,-76.9230769230769,4,1,0,60,0,0
219999,-76.9230769230769,4,1,1,55,0,0
220427,-76.9230769230769,4,1,1,50,0,0
220856,-76.9230769230769,4,1,1,45,0,0
221284,-76.9230769230769,4,1,1,40,0,0
221713,-76.9230769230769,4,1,1,35,0,0
222142,-76.9230769230769,4,1,1,30,0,0
222570,-76.9230769230769,4,1,1,25,0,0
222999,-76.9230769230769,4,1,1,20,0,0
223427,-76.9230769230769,4,1,1,15,0,0
223856,-76.9230769230769,4,1,1,10,0,0
224284,-76.9230769230769,4,2,1,5,0,0

[Colours]
Combo1 : 255,0,255
Combo2 : 0,163,240
Combo3 : 0,242,242
Combo4 : 251,34,34
Combo5 : 0,255,64
SliderBorder : 255,255,255

[HitObjects]
180,60,13857,2,0,B|172:100|196:132|196:132|156:124|112:160,1,150,8|0,0:0|0:0,0:0:0:0:
92,164,14285,2,0,P|60:192|96:256,1,100,0|0,0:0|0:0,0:0:0:0:
160,356,14714,2,0,B|200:328|188:284|188:284|160:252|184:188,1,150,2|0,0:0|0:0,0:0:0:0:
188,176,15142,1,0,0:0:0:0:
332,268,15357,1,2,0:0:0:0:
360,248,16000,5,2,0:0:0:0:
436,180,16214,1,0,0:0:0:0:
448,80,16428,2,0,P|392:84|344:144,1,100,8|0,0:0|0:0,0:0:0:0:
432,296,16857,2,0,B|440:236|404:192|404:192|440:128,1,150,8|0,0:0|0:0,0:0:0:0:
448,120,17285,6,0,P|370:120|312:44,1,150,8|0,0:0|0:0,0:0:0:0:
312,28,17714,1,0,0:0:0:0:
228,164,17928,1,0,0:0:0:0:
304,316,18142,1,8,0:0:0:0:
300,284,18250,1,0,0:0:0:0:
296,252,18357,1,0,0:0:0:0:
136,308,18571,1,0,0:0:0:0:
192,148,18785,5,2,0:0:0:0:
96,192,19000,2,0,P|164:248|240:240,2,150,2|0|2,0:0|0:0|0:0,0:0:0:0:
196,52,19857,2,0,P|212:112|168:172,1,100,8|0,0:0|0:0,0:0:0:0:
180,168,20178,1,0,0:0:0:0:
152,176,20285,1,0,0:0:0:0:
140,328,20500,1,0,0:0:0:0:
216,296,20714,6,0,P|284:320|357:245,1,150,2|0,0:0|0:0,0:0:0:0:
344,244,21142,2,0,B|328:200|328:200|352:136,1,100
472,208,21571,2,0,B|488:252|488:252|452:360,1,150,2|0,0:0|0:0,0:0:0:0:
444,372,22000,1,0,0:0:0:0:
304,256,22214,1,2,0:0:0:0:
344,352,22428,5,0,0:0:0:0:
400,176,22642,1,0,0:0:0:0:
368,164,22750,1,0,0:0:0:0:
336,156,22857,1,2,0:0:0:0:
300,152,22964,1,0,0:0:0:0:
264,152,23071,1,0,0:0:0:0:
308,272,23284,1,2,0:0:0:0:
452,360,23499,1,8,0:0:0:0:
284,356,23713,2,0,B|236:352|236:352|184:372|184:372|108:364,1,150,8|0,0:0|0:0,0:0:0:0:
112,344,24142,6,0,P|64:296|88:196,1,150
88,188,24570,2,0,B|140:180|140:180|192:128,1,100
340,180,24999,1,2,0:0:0:0:
312,176,25106,1,0,0:0:0:0:
284,168,25213,1,0,0:0:0:0:
280,328,25427,1,0,0:0:0:0:
408,232,25642,1,2,0:0:0:0:
332,80,25856,6,0,L|232:80,1,100,2|0,0:0|0:0,0:0:0:0:
192,80,26177,1,2,0:0:0:0:
184,268,26392,1,2,0:0:0:0:
215,287,26499,1,2,0:0:0:0:
251,296,26606,1,2,0:0:0:0:
285,290,26713,2,0,B|310:241|310:241|383:207,1,100,2|0,0:0|0:0,0:0:0:0:
396,208,27034,2,0,P|418:145|384:83,1,100,2|0,0:0|0:0,0:0:0:0:
390,78,27356,1,2,0:0:0:0:
352,48,27463,1,2,0:0:0:0:
308,40,27570,5,2,0:0:0:0:
192,140,27784,1,0,0:0:0:0:
336,176,27999,1,2,0:0:0:0:
232,68,28213,1,0,0:0:0:0:
240,236,28427,1,2,0:0:0:0:
252,208,28534,1,2,0:0:0:0:
264,180,28642,1,0,0:0:0:0:
380,272,28856,2,0,P|352:328|232:344,1,150,0|2,0:0|0:0,0:0:0:0:
240,356,29284,5,0,0:0:0:0:
248,248,29499,1,0,0:0:0:0:
336,312,29713,5,2,0:0:0:0:
156,292,29927,1,0,0:0:0:0:
204,156,30142,1,2,0:0:0:0:
336,204,30356,1,0,0:0:0:0:
400,116,30570,2,0,P|336:84|304:-8,1,150
332,28,30999,6,0,P|303:78|192:64,1,150,2|0,0:0|0:0,0:0:0:0:
192,68,31427,1,0,0:0:0:0:
304,176,31642,1,0,0:0:0:0:
444,124,31856,1,2,0:0:0:0:
420,140,31963,1,0,0:0:0:0:
404,164,32070,1,0,0:0:0:0:
428,312,32284,1,0,0:0:0:0:
500,180,32499,1,2,0:0:0:0:
356,252,32713,6,0,L|180:224,2,150,2|2|2,0:0|0:0|0:0,0:0:0:0:
418,191,33570,2,0,P|396:132|420:108,1,100,2|0,0:0|0:0,0:0:0:0:
436,100,33892,1,0,0:0:0:0:
456,100,33999,1,2,0:0:0:0:
464,248,34213,1,2,0:0:0:0:
332,316,34427,6,0,B|296:336|296:336|256:324|256:324|220:344|156:344,1,150,2|0,0:0|0:0,0:0:0:0:
160,340,34856,1,2,0:0:0:0:
160,192,35070,1,2,0:0:0:0:
296,256,35284,1,2,0:0:0:0:
312,240,35392,1,0,0:0:0:0:
328,224,35499,1,0,0:0:0:0:
444,348,35713,6,0,L|272:340,1,150,0|0,0:0|0:0,0:0:0:0:
252,336,36142,1,2,0:0:0:0:
164,240,36356,1,0,0:0:0:0:
284,176,36570,2,0,P|308:224|276:280,1,100
152,208,36999,2,0,P|137:166|161:118,1,100,2|0,0:0|0:0,0:0:0:0:
320,164,37427,2,0,P|348:228|288:316,1,150,2|0,0:0|0:0,0:0:0:0:
280,316,37856,6,0,B|244:300|236:276|236:276|212:284|212:284|180:272|116:284,1,150,2|0,0:0|0:0,0:0:0:0:
116,292,38284,1,0,0:0:0:0:
60,176,38499,1,0,0:0:0:0:
164,96,38713,5,8,0:0:0:0:
348,96,38927,1,8,0:0:0:0:
182,81,39142,5,8,0:0:0:0:
363,113,39356,1,8,0:0:0:0:
203,70,39570,5,0,0:0:0:0:
376,133,39784,1,0,0:0:0:0:
308,321,39999,1,0,0:0:0:0:
135,258,40213,1,0,0:0:0:0:
264,184,40427,2,0,P|292:228|388:220,1,150
396,196,40856,5,0,0:0:0:0:
116,196,41070,1,0,0:0:0:0:
256,264,41284,1,4,0:0:0:0:
168,220,54999,6,0,P|104:252|0:204,2,150,8|8|8,0:0|0:0|0:0,0:0:0:0:
256,176,55856,1,0,0:0:0:0:
256,176,55963,2,0,P|320:144|424:192,1,150,0|8,0:0|0:0,0:0:0:0:
420,260,56499,1,0,0:0:0:0:
372,348,56713,6,0,P|320:360|280:296,1,100
140,264,57142,2,0,P|173:237|225:249,1,100,0|0,0:0|0:0,0:0:0:0:
320,280,57570,2,0,P|372:212|344:132,1,150
336,128,57999,1,0,0:0:0:0:
228,104,58213,1,0,0:0:0:0:
160,188,58427,6,0,B|164:220|144:240|144:240|128:300|192:332,2,150
351,190,59284,1,0,0:0:0:0:
351,190,59392,2,0,B|348:220|368:240|368:240|384:300|337:321,1,150
256,220,59927,1,0,0:0:0:0:
180,112,60142,1,0,0:0:0:0:
332,112,60356,1,0,0:0:0:0:
136,200,60570,2,0,P|136:256|184:300,1,100
264,316,60999,2,0,B|300:284|300:284|340:292|340:292|368:268|412:268,1,150
440,276,61427,1,0,0:0:0:0:
376,176,61642,1,0,0:0:0:0:
456,84,61856,6,0,L|348:68,1,100
328,64,62177,1,0,0:0:0:0:
300,60,62284,1,0,0:0:0:0:
280,188,62499,1,0,0:0:0:0:
156,152,62713,1,0,0:0:0:0:
164,112,62820,1,0,0:0:0:0:
216,244,63034,1,0,0:0:0:0:
208,284,63141,1,0,0:0:0:0:
324,204,63356,5,0,0:0:0:0:
324,164,63463,1,0,0:0:0:0:
320,124,63570,1,0,0:0:0:0:
452,172,63784,1,0,0:0:0:0:
352,48,63999,1,0,0:0:0:0:
488,36,64213,1,0,0:0:0:0:
380,212,64427,1,0,0:0:0:0:
380,212,64534,2,0,L|256:228,1,100
248,228,64856,1,0,0:0:0:0:
464,312,65070,1,0,0:0:0:0:
368,352,65284,5,0,0:0:0:0:
372,336,65392,1,0,0:0:0:0:
376,320,65499,1,0,0:0:0:0:
380,304,65606,1,0,0:0:0:0:
388,280,65713,5,0,0:0:0:0:
372,260,65820,1,0,0:0:0:0:
356,240,65927,1,0,0:0:0:0:
336,220,66034,1,0,0:0:0:0:
344,192,66142,5,0,0:0:0:0:
372,180,66249,1,0,0:0:0:0:
400,168,66356,1,0,0:0:0:0:
428,156,66463,1,0,0:0:0:0:
440,124,66570,5,0,0:0:0:0:
424,92,66677,1,0,0:0:0:0:
396,68,66784,1,0,0:0:0:0:
356,64,66892,1,0,0:0:0:0:
320,84,66999,5,0,0:0:0:0:
284,100,67106,1,0,0:0:0:0:
244,104,67213,1,0,0:0:0:0:
204,100,67320,1,0,0:0:0:0:
168,80,67427,5,0,0:0:0:0:
128,64,67534,1,0,0:0:0:0:
84,76,67642,1,0,0:0:0:0:
60,116,67749,1,0,0:0:0:0:
68,160,67856,5,0,0:0:0:0:
68,160,68713,6,2,B|104:168|104:168|132:148|132:148|200:156|208:208,1,150,2|0,0:0|0:0,0:0:0:0:
212,220,69142,2,0,B|204:252|184:272|184:272|228:352,1,129.999994049073,0|2,0:0|0:0,0:0:0:0:
344,360,69570,5,0,0:0:0:0:
360,320,69677,1,2,0:0:0:0:
364,276,69784,1,2,0:0:0:0:
352,232,69892,2,0,B|332:212|332:212|360:196|360:196|344:176|344:176|339:149|344:100,1,129.999994049073,0|2,0:0|0:0,0:0:0:0:
332,88,70213,1,2,0:0:0:0:
292,64,70320,1,0,0:0:0:0:
248,64,70427,2,0,B|196:64|172:116|172:116|96:32,1,194.999991073609,2|2,0:0|0:0,0:0:0:0:
60,168,70963,5,0,0:0:0:0:
52,212,71070,1,0,0:0:0:0:
48,256,71177,1,0,0:0:0:0:
56,300,71284,2,2,B|96:312|96:312|128:300|128:300|144:320|208:340,1,129.999994049073,2|0,0:0|0:0,0:0:0:0:
220,336,71606,1,0,0:0:0:0:
264,328,71713,2,2,B|296:328|296:328|308:336|328:344|328:344|312:296|340:248|404:256|420:284,1,194.999991073609,2|0,0:0|0:0,0:0:0:0:
412,288,72142,6,2,B|440:272|440:272|440:244|432:220|432:220|480:160|432:80,1,194.999991073609,0|0,0:0|0:0,0:0:0:0:
420,80,72570,1,0,0:0:0:0:
380,56,72677,1,0,0:0:0:0:
336,40,72784,1,2,0:0:0:0:
336,40,72999,6,0,L|332:168,1,64.9999970245363,0|2,0:0|0:0,0:0:0:0:
296,192,73213,1,2,0:0:0:0:
296,192,73320,2,0,P|196:176|180:112,1,129.999994049073,0|2,0:0|0:0,0:0:0:0:
60,132,73642,2,0,P|92:108|140:144,1,64.9999970245363,2|0,0:0|0:0,0:0:0:0:
172,264,73856,6,2,B|152:276|152:276|132:268|136:252|136:252|144:240|144:240|116:212|112:172,1,129.999994049073,0|0,0:0|0:0,0:0:0:0:
116,144,74177,2,2,P|184:136|216:72,1,129.999994049073,2|0,0:0|0:0,0:0:0:0:
212,40,74499,1,0,0:0:0:0:
172,20,74606,1,0,0:0:0:0:
128,20,74713,6,2,P|64:40|104:92,1,129.999994049073,2|0,0:0|0:0,0:0:0:0:
120,108,75034,6,2,P|148:172|84:264,1,160,2|0,0:0|0:0,0:0:0:0:
60,296,75356,6,2,L|240:352,1,100,2|0,0:0|0:0,0:0:0:0:
332,312,75570,6,2,B|304:288|284:288|284:288|256:312|220:304|220:304|196:320|196:320|108:332,1,194.999991073609,2|0,0:0|0:0,0:0:0:0:
136,284,75999,1,0,0:0:0:0:
140,240,76106,1,0,0:0:0:0:
172,208,76213,1,2,0:0:0:0:
316,204,76427,5,0,0:0:0:0:
312,160,76534,1,2,0:0:0:0:
280,128,76641,1,0,0:0:0:0:
236,124,76749,2,2,P|220:72|304:36,1,129.999994049073,0|0,0:0|0:0,0:0:0:0:
316,44,77070,1,2,0:0:0:0:
356,64,77177,1,0,0:0:0:0:
396,84,77284,6,2,B|420:124|420:124|404:152|404:152|428:236,1,129.999994049073,0|0,0:0|0:0,0:0:0:0:
424,248,77606,2,2,P|360:268|316:188,1,129.999994049073,0|0,0:0|0:0,0:0:0:0:
300,188,77927,1,0,0:0:0:0:
300,144,78034,1,0,0:0:0:0:
332,108,78142,2,2,B|284:120|284:120|256:100|256:100|192:92,1,129.999994049073,2|0,0:0|0:0,0:0:0:0:
164,92,78463,1,0,0:0:0:0:
120,84,78570,2,2,B|120:100|120:100|104:116|104:116|116:112|116:112|104:156|104:156|120:148|120:148|113:222|144:244,1,194.999991073609,2|0,0:0|0:0,0:0:0:0:
156,264,78999,6,2,B|188:240|200:220|200:220|232:252|232:252|268:228|364:216,1,194.999991073609,2|0,0:0|0:0,0:0:0:0:
356,244,79427,1,0,0:0:0:0:
400,260,79534,1,0,0:0:0:0:
444,276,79642,2,2,B|468:240|468:240|432:212|448:156,1,129.999994049073,2|0,0:0|0:0,0:0:0:0:
456,116,79963,1,2,0:0:0:0:
452,72,80070,1,2,0:0:0:0:
420,40,80177,2,2,B|404:68|380:76|380:76|346:57|260:44,1,129.999994049073,0|2,0:0|0:0,0:0:0:0:
220,28,80499,2,2,L|232:96,1,64.9999970245363
244,164,80713,5,0,0:0:0:0:
252,326,80927,1,0,0:0:0:0:
342,194,81142,1,0,0:0:0:0:
192,254,81356,1,0,0:0:0:0:
348,295,81570,1,0,0:0:0:0:
176,256,81784,5,0,0:0:0:0:
356,184,81998,1,0,0:0:0:0:
247,342,82213,1,0,0:0:0:0:
238,148,82427,2,2,P|276:208|252:272,1,129.999994049073
224,288,82749,1,0,0:0:0:0:
180,296,82856,2,0,B|136:276|136:276|16:312,1,129.999994049073,0|2,0:0|0:0,0:0:0:0:
88,160,83284,6,0,P|108:132|88:72,1,64.9999970245363,0|2,0:0|0:0,0:0:0:0:
92,20,83499,1,2,0:0:0:0:
92,20,83606,2,2,B|136:16|160:32|176:52|176:52|248:28,1,129.999994049073,0|2,0:0|0:0,0:0:0:0:
284,84,83927,2,2,L|280:184,1,64.9999970245363,0|2,0:0|0:0,0:0:0:0:
220,208,84142,6,2,P|164:184|136:84,1,129.999994049073,0|0,0:0|0:0,0:0:0:0:
120,56,84463,2,2,B|144:28|172:24|172:24|208:40|256:36,1,129.999994049073,0|0,0:0|0:0,0:0:0:0:
316,28,84784,2,2,L|304:112,1,64.9999970245363,0|0,0:0|0:0,0:0:0:0:
292,168,84999,6,2,P|227:171|184:108,1,129.999994049073,0|0,0:0|0:0,0:0:0:0:
180,80,85320,1,0,0:0:0:0:
200,40,85427,2,2,B|225:52|244:52|244:52|260:44|272:44|272:44|288:56|312:64|312:64|348:52|348:52|440:64,1,194.999991073609
428,64,85856,6,2,B|408:108|432:136|432:136|408:160|408:160|440:200|420:276,1,194.999991073609,0|0,0:0|0:0,0:0:0:0:
432,284,86284,1,0,0:0:0:0:
404,320,86392,1,0,0:0:0:0:
360,336,86499,1,2,0:0:0:0:
260,252,86713,5,0,0:0:0:0:
220,232,86820,1,2,0:0:0:0:
176,232,86927,1,2,0:0:0:0:
136,252,87034,1,0,0:0:0:0:
28,156,87249,5,2,0:0:0:0:
64,124,87356,1,2,0:0:0:0:
108,112,87463,1,0,0:0:0:0:
152,112,87570,2,2,P|204:140|312:120,1,129.999994049073,0|0,0:0|0:0,0:0:0:0:
348,100,87892,2,2,B|368:60|416:64|416:64|464:128,1,129.999994049073,0|0,0:0|0:0,0:0:0:0:
404,176,88213,2,2,P|392:208|412:260,1,64.9999970245363,0|0,0:0|0:0,0:0:0:0:
440,312,88427,6,2,B|400:296|400:296|368:332|308:344,1,129.999994049073,2|0,0:0|0:0,0:0:0:0:
272,348,88749,6,2,B|232:370|232:370|209:348|209:348|158:342|133:265,1,160,2|0,0:0|0:0,0:0:0:0:
112,256,89070,6,2,B|152:224|152:224|252:240,1,100
380,228,89284,6,2,B|340:260|340:260|192:228,1,194.999991073609,2|0,0:0|0:0,0:0:0:0:
180,196,89713,1,0,0:0:0:0:
168,152,89820,1,0,0:0:0:0:
176,108,89927,1,2,0:0:0:0:
324,56,90142,5,0,0:0:0:0:
344,96,90249,1,2,0:0:0:0:
348,140,90356,1,2,0:0:0:0:
340,184,90463,2,0,B|316:224|340:264|340:264|264:256,1,129.999994049073,0|2,0:0|0:0,0:0:0:0:
220,240,90784,2,2,P|172:228|108:236,1,64.9999970245363,0|0,0:0|0:0,0:0:0:0:
84,252,90999,6,2,P|40:204|64:112,1,129.999994049073,2|0,0:0|0:0,0:0:0:0:
72,112,91320,2,2,B|128:136|128:136|160:100|224:96,1,129.999994049073,2|0,0:0|0:0,0:0:0:0:
228,84,91642,1,0,0:0:0:0:
272,68,91749,1,0,0:0:0:0:
316,56,91856,2,2,P|364:104|336:172,1,129.999994049073,8|0,0:0|0:0,0:0:0:0:
304,164,92177,5,0,0:0:0:0:
268,188,92284,1,0,0:0:0:0:
252,232,92392,1,0,0:0:0:0:
272,272,92499,1,0,0:0:0:0:
316,284,92606,1,0,0:0:0:0:
360,272,92713,6,0,B|369:241|372:216|372:216|392:248|392:248|440:208|512:256,2,194.999991073609
264,344,93570,2,0,P|216:320|208:240,1,129.999994049073,2|0,0:0|0:0,0:0:0:0:
228,200,93892,6,0,B|224:176|224:176|236:164|236:164|276:180|336:136|308:72,1,160,2|0,0:0|0:0,0:0:0:0:
256,76,94213,6,0,B|248:120|248:120|264:236|264:236|244:324,1,200,2|2,0:0|0:0,0:0:0:0:
256,368,95606,1,0,0:0:0:0:
256,368,95713,1,0,0:0:0:0:
256,368,96142,6,2,B|280:348|280:320|280:320|320:316|344:344|344:344|368:308|368:308|420:272|488:312,1,259.999988098145,2|0,0:0|0:0,0:0:0:0:
472,208,96784,2,0,P|408:204|312:248,1,129.999994049073,2|8,0:0|0:0,0:0:0:0:
156,292,97213,2,0,B|176:320|176:320|204:324|204:324|228:308|224:280|224:280|240:256|256:244|256:244|324:264|364:200,1,259.999988098145,0|2,0:0|0:0,0:0:0:0:
292,156,97856,6,0,B|248:136|248:136|260:108|260:108|252:76|252:76|260:48|260:48|348:60|332:132,1,259.999988098145,8|0,0:0|0:0,0:0:0:0:
160,204,98499,1,0,0:0:0:0:
160,204,98606,2,0,B|140:160|176:128|176:128|184:100|184:100|176:68|176:68|204:-20,2,194.999991073609,2|0|2,0:0|0:0|0:0,0:0:0:0:
296,284,99570,6,2,B|340:280|348:260|348:260|324:200|324:200|348:164|340:96,1,194.999991073609
344,68,99999,2,0,P|452:152|444:180,2,129.999994049073,2|2|2,0:0|0:0|0:0,0:0:0:0:
224,124,100642,1,2,0:0:0:0:
196,140,100749,1,2,0:0:0:0:
168,156,100856,1,2,0:0:0:0:
140,172,100963,1,2,0:0:0:0:
112,184,101070,1,2,0:0:0:0:
84,200,101177,1,2,0:0:0:0:
56,212,101284,6,0,B|76:264|76:264|68:292|84:332|116:308,1,129.999994049073,0|2,0:0|0:0,0:0:0:0:
140,280,101606,2,0,P|176:244|256:252,1,129.999994049073,0|2,0:0|0:0,0:0:0:0:
304,312,101927,2,0,L|408:340,1,64.9999970245363,0|2,0:0|0:0,0:0:0:0:
448,348,102142,5,2,0:0:0:0:
456,332,102249,1,0,0:0:0:0:
444,320,102356,1,2,0:0:0:0:
452,304,102463,1,0,0:0:0:0:
436,292,102570,1,0,0:0:0:0:
444,276,102677,1,0,0:0:0:0:
432,264,102784,1,2,0:0:0:0:
440,248,102891,1,0,0:0:0:0:
424,240,102999,6,2,B|416:216|416:216|388:232|388:232|336:216|316:172|336:116|384:108,1,194.999991073609
396,104,103427,1,0,0:0:0:0:
264,156,103642,2,0,B|220:156|192:116|192:116|140:284,2,259.999988098145
268,76,104713,6,0,B|236:48|224:28|224:28|140:16|100:100,1,194.999991073609
100,120,105142,2,0,P|128:184|84:252,1,129.999994049073
80,272,105463,1,0,0:0:0:0:
96,316,105570,2,0,B|136:300|136:300|160:300|160:300|174:302|188:312|188:312|212:312|212:312|228:304|236:300|236:300|260:300|260:300|272:308|284:312|284:312|308:312|308:312|392:292,1,259.999988098145
424,184,106213,1,0,0:0:0:0:
304,132,106427,5,0,0:0:0:0:
272,140,106534,1,0,0:0:0:0:
240,140,106642,1,0,0:0:0:0:
208,136,106749,1,0,0:0:0:0:
176,128,106856,5,0,0:0:0:0:
188,172,106963,1,0,0:0:0:0:
200,216,107070,1,0,0:0:0:0:
212,260,107177,1,0,0:0:0:0:
224,304,107284,2,0,B|284:300|316:268|316:268|448:320,2,194.999991073609
96,276,108142,5,0,0:0:0:0:
88,244,108249,1,0,0:0:0:0:
76,212,108356,1,0,0:0:0:0:
60,184,108463,1,2,0:0:0:0:
188,200,108677,5,0,0:0:0:0:
196,164,108784,1,2,0:0:0:0:
328,216,108999,6,2,P|348:148|296:76,1,129.999994049073
284,64,109320,1,0,0:0:0:0:
232,64,109427,1,0,0:0:0:0:
192,96,109534,1,0,0:0:0:0:
216,144,109642,1,0,0:0:0:0:
200,192,109749,1,0,0:0:0:0:
208,244,109856,6,2,B|192:280|204:328|252:348|288:336|288:336|352:268,1,194.999991073609
348,248,110284,2,0,B|372:220|372:220|412:260|492:260,1,129.999994049073
416,132,110713,2,0,P|348:124|296:172,1,129.999994049073
280,200,111034,2,0,B|300:224|300:224|292:244|272:264|272:264|284:312|332:348|380:324|404:296,1,194.999991073609
396,320,111463,1,0,0:0:0:0:
436,308,111570,6,0,B|400:268|400:268|444:244|444:244|424:188|424:188|464:140|432:60,1,259.999988098145
344,128,112213,1,0,0:0:0:0:
344,128,112320,2,0,P|292:168|168:164,2,194.999991073609
256,304,113284,6,2,B|220:316|220:316|220:292|220:292|208:276|188:280|188:280|172:300|172:300|160:280|160:280|138:278|84:256|68:200,1,259.999988098145
152,128,114034,2,0,P|224:176|208:112,2,194.999991073609
344,96,114999,6,0,B|324:132|324:132|348:156|348:156|348:240|272:268,2,194.999991073609
456,160,115856,1,0,0:0:0:0:
436,184,115963,1,0,0:0:0:0:
420,212,116070,1,0,0:0:0:0:
412,244,116177,1,0,0:0:0:0:
412,276,116284,5,0,0:0:0:0:
388,252,116392,1,0,0:0:0:0:
360,236,116499,1,0,0:0:0:0:
332,220,116606,1,0,0:0:0:0:
300,208,116713,6,0,B|280:208|260:224|256:248|256:248|232:228|232:228|216:232|216:232|164:212|120:272,1,194.999991073609
104,276,117142,2,0,B|84:260|84:260|60:268|60:268|16:236|52:168,1,129.999994049073
140,112,117570,1,0,0:0:0:0:
196,228,117784,2,0,B|232:232|232:232|256:256|256:256|284:256|284:256|352:288,2,129.999994049073
216,100,118427,6,0,B|240:92|240:92|232:132|232:132|264:152|332:112,1,129.999994049073
408,196,118856,2,0,P|352:220|268:232,1,129.999994049073
44,284,119284,2,0,B|48:244|48:244|84:252|84:252|72:208|84:172|84:172|124:192|140:220|140:220|164:216|184:200|184:200|252:192|312:260,1,389.999982147218
372,328,120142,5,0,0:0:0:0:
384,304,120249,1,0,0:0:0:0:
396,280,120356,1,0,0:0:0:0:
384,256,120463,1,0,0:0:0:0:
372,232,120570,5,0,0:0:0:0:
360,208,120677,1,0,0:0:0:0:
344,184,120784,1,0,0:0:0:0:
360,160,120891,1,0,0:0:0:0:
376,140,120999,6,0,B|340:140|304:156|304:156|264:80,1,129.999994049073
232,172,121320,6,0,B|256:224|256:224|256:252|248:272|248:272|268:292|268:352,1,160
176,316,121642,6,0,B|160:280|160:280|172:240|172:240|128:196|136:152|168:112,1,200
156,132,123570,5,4,0:0:0:0:
56,272,137284,6,0,L|236:244,1,150,0|0,0:0|0:0,0:0:0:0:
204,248,137713,1,8,0:0:0:0:
120,360,137927,1,0,0:0:0:0:
120,176,138142,1,8,0:0:0:0:
124,148,138249,1,8,0:0:0:0:
128,120,138356,2,0,P|88:76|104:8,1,100,0|0,0:0|0:0,0:0:0:0:
280,112,138784,1,0,0:0:0:0:
356,36,138999,5,0,0:0:0:0:
196,40,139213,1,0,0:0:0:0:
288,212,139427,2,0,P|336:216|400:204,1,100,8|0,0:0|0:0,0:0:0:0:
208,164,139856,2,0,L|24:184,1,150
60,180,140284,1,0,0:0:0:0:
184,64,140499,1,0,0:0:0:0:
172,248,140713,6,0,L|188:368,1,100,0|8,0:0|0:0,0:0:0:0:
196,356,141034,2,0,B|280:324|280:324|356:344,1,150,8|8,0:0|0:0,0:0:0:0:
368,312,141463,1,0,0:0:0:0:
376,272,141570,1,8,0:0:0:0:
360,236,141677,1,0,0:0:0:0:
323,215,141784,1,8,0:0:0:0:
284,220,141892,1,0,0:0:0:0:
252,244,141999,2,0,B|244:272|244:272|252:364,1,100,8|0,0:0|0:0,0:0:0:0:
439,353,142427,5,8,0:0:0:0:
312,280,142642,1,0,0:0:0:0:
192,368,142856,2,0,L|180:244,1,100,8|0,0:0|0:0,0:0:0:0:
180,92,143284,1,0,0:0:0:0:
180,92,143392,2,0,L|196:220,1,100,8|0,0:0|0:0,0:0:0:0:
192,192,143713,1,8,0:0:0:0:
344,192,143927,1,0,0:0:0:0:
272,64,144142,6,8,B|240:56|240:56|216:60|216:60|104:56,2,150,8|0|8,0:0|0:0|0:0,0:0:0:0:
408,56,144999,1,8,0:0:0:0:
412,92,145106,1,0,0:0:0:0:
416,128,145213,1,8,0:0:0:0:
420,164,145320,1,0,0:0:0:0:
420,200,145427,2,0,P|392:256|344:268,1,100,8|0,0:0|0:0,0:0:0:0:
188,184,145856,6,0,L|308:180,1,100
244,292,146284,1,8,0:0:0:0:
328,112,146499,1,0,0:0:0:0:
148,100,146713,2,0,B|140:128|140:128|145:146|152:160|152:160|152:272,1,150
152,246,147142,1,8,0:0:0:0:
80,48,147356,1,0,0:0:0:0:
228,120,147570,6,0,P|273:116|368:80,1,100,8|0,0:0|0:0,0:0:0:0:
324,100,147892,2,0,B|315:152|315:152|335:292,1,150,8|0,0:0|0:0,0:0:0:0:
424,148,148427,1,0,0:0:0:0:
424,148,148534,2,0,P|436:96|412:36,1,100,8|8,0:0|0:0,0:0:0:0:
424,52,148856,2,0,B|384:48|384:48|320:64|320:64|244:56,1,150,0|8,0:0|0:0,0:0:0:0:
276,59,149284,5,0,0:0:0:0:
352,200,149499,1,0,0:0:0:0:
348,24,149713,1,8,0:0:0:0:
268,156,149927,1,0,0:0:0:0:
440,248,150142,1,0,0:0:0:0:
336,324,150356,5,8,0:0:0:0:
300,332,150463,1,8,0:0:0:0:
264,340,150570,1,0,0:0:0:0:
228,348,150677,1,8,0:0:0:0:
192,356,150785,1,8,0:0:0:0:
156,364,150892,1,8,0:0:0:0:
120,372,150999,6,0,P|84:328|104:240,1,150,8|0,0:0|0:0,0:0:0:0:
101,242,151427,1,8,0:0:0:0:
256,264,151642,1,8,0:0:0:0:
256,264,151749,1,8,0:0:0:0:
144,156,151963,1,8,0:0:0:0:
144,156,152070,1,0,0:0:0:0:
312,188,152284,2,0,L|496:164,1,150,8|0,0:0|0:0,0:0:0:0:
460,168,152713,5,8,0:0:0:0:
344,276,152927,1,0,0:0:0:0:
339,100,153142,2,0,L|351:-4,1,100,8|0,0:0|0:0,0:0:0:0:
312,188,153570,2,0,P|376:192|436:120,1,150
432,134,153999,1,8,0:0:0:0:
256,120,154213,1,0,0:0:0:0:
396,224,154427,6,0,L|384:332,1,100,8|0,0:0|0:0,0:0:0:0:
384,324,154749,2,0,B|355:320|335:306|335:306|235:338,1,150,8|0,0:0|0:0,0:0:0:0:
384,244,155284,1,0,0:0:0:0:
384,244,155392,2,0,B|412:248|433:262|433:262|508:236,1,100,8|8,0:0|0:0,0:0:0:0:
477,247,155713,2,0,B|469:193|469:193|480:64,1,150
477,98,156142,5,0,0:0:0:0:
432,292,156356,1,0,0:0:0:0:
384,120,156570,2,0,P|388:68|424:20,1,100,8|0,0:0|0:0,0:0:0:0:
477,98,156999,1,0,0:0:0:0:
477,98,157106,1,8,0:0:0:0:
404,176,157320,1,8,0:0:0:0:
404,176,157427,1,0,0:0:0:0:
264,84,157642,1,0,0:0:0:0:
312,160,157856,6,0,P|304:216|336:280,1,100,8|0,0:0|0:0,0:0:0:0:
340,292,158177,2,0,L|456:300,1,100,8|0,0:0|0:0,0:0:0:0:
460,264,158499,1,0,0:0:0:0:
464,224,158606,1,8,0:0:0:0:
452,184,158713,1,0,0:0:0:0:
424,156,158820,2,0,B|384:132|384:132|376:88|416:56,1,100
424,56,159142,2,0,B|388:64|388:64|300:40,1,100,8|0,0:0|0:0,0:0:0:0:
288,44,159463,5,0,0:0:0:0:
252,60,159570,1,8,0:0:0:0:
348,112,159784,1,0,0:0:0:0:
244,204,159999,1,8,0:0:0:0:
256,240,160106,1,0,0:0:0:0:
272,276,160213,1,0,0:0:0:0:
336,204,160427,1,8,0:0:0:0:
336,204,160534,1,0,0:0:0:0:
192,128,160749,5,8,0:0:0:0:
192,128,160856,1,0,0:0:0:0:
192,128,160963,1,0,0:0:0:0:
192,128,161070,1,0,0:0:0:0:
192,128,161177,1,0,0:0:0:0:
192,128,161284,6,0,P|136:136|92:172,1,100,8|0,0:0|0:0,0:0:0:0:
84,208,161606,2,0,B|84:248|84:248|100:288|152:312,1,100,8|8,0:0|0:0,0:0:0:0:
160,280,161927,1,0,0:0:0:0:
200,280,162034,1,0,0:0:0:0:
236,296,162142,1,0,0:0:0:0:
256,328,162249,6,8,L|380:308,1,100,8|0,0:0|0:0,0:0:0:0:
392,288,162570,2,0,P|368:240|372:176,1,100
380,156,162892,5,0,0:0:0:0:
412,124,162999,1,0,0:0:0:0:
456,120,163106,1,8,0:0:0:0:
492,144,163213,1,8,0:0:0:0:
468,184,163320,1,8,0:0:0:0:
456,228,163427,1,0,0:0:0:0:
488,268,163534,1,8,0:0:0:0:
484,320,163642,1,8,0:0:0:0:
448,356,163749,1,8,0:0:0:0:
400,364,163856,1,8,0:0:0:0:
400,364,164713,6,2,B|376:344|376:344|352:336|352:336|300:372|248:328,1,150,2|0,0:0|0:0,0:0:0:0:
216,316,165142,1,0,0:0:0:0:
192,272,165249,1,0,0:0:0:0:
192,220,165356,1,2,0:0:0:0:
292,140,165570,5,0,0:0:0:0:
248,152,165677,1,2,0:0:0:0:
212,180,165784,1,2,0:0:0:0:
192,220,165892,2,2,B|228:240|240:276|240:276|336:228,1,129.999994049073,0|0,0:0|0:0,0:0:0:0:
364,212,166213,2,2,P|392:193|440:184,1,64.9999970245363,0|0,0:0|0:0,0:0:0:0:
468,256,166427,2,2,B|436:224|436:224|420:172|480:112,1,129.999994049073,2|0,0:0|0:0,0:0:0:0:
480,104,166749,2,2,P|488:72|400:40,1,129.999994049073,2|0,0:0|0:0,0:0:0:0:
376,48,167070,5,0,0:0:0:0:
340,72,167177,1,0,0:0:0:0:
300,92,167284,2,2,L|128:68,1,129.999994049073,2|0,0:0|0:0,0:0:0:0:
124,68,167606,1,2,0:0:0:0:
92,36,167713,2,0,B|72:56|72:56|64:41|48:44|48:44|48:84|48:84|16:100|16:180|96:176,1,194.999991073609
76,188,168142,6,2,B|120:184|136:156|136:156|300:212,1,194.999991073609,2|0,0:0|0:0,0:0:0:0:
292,208,168570,1,0,0:0:0:0:
328,220,168677,1,0,0:0:0:0:
364,232,168784,1,2,0:0:0:0:
380,80,168999,5,0,0:0:0:0:
336,88,169106,1,2,0:0:0:0:
292,88,169213,1,2,0:0:0:0:
248,80,169320,2,0,P|244:152|320:180,1,129.999994049073
364,232,169642,2,2,L|364:312,1,64.9999970245363,0|0,0:0|0:0,0:0:0:0:
276,328,169856,2,2,P|216:288|180:192,1,129.999994049073,0|0,0:0|0:0,0:0:0:0:
172,188,170177,2,2,B|180:160|180:160|160:88|160:88|172:36,1,129.999994049073,0|0,0:0|0:0,0:0:0:0:
212,92,170499,1,0,0:0:0:0:
264,96,170606,1,0,0:0:0:0:
312,80,170713,6,2,P|389:90|452:128,1,129.999994049073,2|0,0:0|0:0,0:0:0:0:
416,176,171034,6,2,B|384:176|384:176|348:208|312:248|312:248|240:252,1,160,2|0,0:0|0:0,0:0:0:0:
220,296,171356,6,2,L|344:360,1,100
456,272,171570,6,2,P|360:268|312:384,1,194.999991073609,2|0,0:0|0:0,0:0:0:0:
276,300,171999,1,0,0:0:0:0:
264,248,172106,1,0,0:0:0:0:
264,196,172213,2,2,B|296:180|324:192|324:192|384:176|392:228,1,129.999994049073,2|0,0:0|0:0,0:0:0:0:
348,284,172534,6,2,P|353:314|384:352,1,64.9999970245363
456,340,172749,2,2,B|474:311|480:280|480:280|424:204,1,129.999994049073,0|2,0:0|0:0,0:0:0:0:
404,188,173070,1,2,0:0:0:0:
404,136,173177,1,2,0:0:0:0:
448,112,173284,2,2,B|380:108|380:108|360:80|324:56,1,129.999994049073,0|0,0:0|0:0,0:0:0:0:
284,52,173606,2,2,P|232:92|244:160,1,129.999994049073,0|0,0:0|0:0,0:0:0:0:
268,192,173927,1,0,0:0:0:0:
248,240,174034,1,0,0:0:0:0:
256,292,174142,2,2,B|216:312|216:312|176:288|104:272,1,129.999994049073,0|0,0:0|0:0,0:0:0:0:
84,284,174463,1,2,0:0:0:0:
44,316,174570,2,2,B|32:276|32:276|56:248|56:248|52:216|36:200|36:200|29:164|44:120,1,194.999991073609,2|0,0:0|0:0,0:0:0:0:
44,84,174999,6,2,B|80:104|96:124|96:124|121:104|188:80,1,129.999994049073,2|2,0:0|0:0,0:0:0:0:
200,76,175320,1,0,0:0:0:0:
252,84,175427,1,0,0:0:0:0:
292,116,175534,1,0,0:0:0:0:
300,168,175642,1,2,0:0:0:0:
208,252,175856,5,0,0:0:0:0:
160,232,175963,1,2,0:0:0:0:
112,212,176070,1,2,0:0:0:0:
64,188,176177,2,2,B|56:232|56:232|72:268|72:268|84:364,1,129.999994049073,0|0,0:0|0:0,0:0:0:0:
100,360,176499,1,2,0:0:0:0:
152,372,176606,1,2,0:0:0:0:
204,360,176713,5,0,0:0:0:0:
300,256,176927,1,0,0:0:0:0:
164,152,177142,1,0,0:0:0:0:
332,148,177356,1,0,0:0:0:0:
192,240,177570,1,0,0:0:0:0:
316,352,177784,1,0,0:0:0:0:
436,308,177999,1,0,0:0:0:0:
404,184,178213,1,0,0:0:0:0:
272,236,178427,6,2,P|234:176|258:112,1,129.999994049073,2|0,0:0|0:0,0:0:0:0:
288,96,178749,1,0,0:0:0:0:
332,88,178856,2,2,B|376:108|376:108|496:72,1,129.999994049073,0|2,0:0|0:0,0:0:0:0:
424,224,179284,6,2,P|404:252|424:312,1,64.9999970245363
420,364,179499,1,2,0:0:0:0:
420,364,179606,2,2,B|376:368|352:352|336:332|336:332|264:356,1,129.999994049073,0|0,0:0|0:0,0:0:0:0:
228,300,179927,2,2,L|232:200,1,64.9999970245363
292,176,180142,6,2,P|348:200|376:300,1,129.999994049073,0|0,0:0|0:0,0:0:0:0:
392,328,180463,2,2,B|368:356|340:360|340:360|304:344|256:348,1,129.999994049073,0|0,0:0|0:0,0:0:0:0:
196,356,180784,2,2,L|208:272,1,64.9999970245363,2|2,0:0|0:0,0:0:0:0:
220,216,180999,6,2,P|285:213|328:276,1,129.999994049073,0|0,0:0|0:0,0:0:0:0:
332,304,181320,1,0,0:0:0:0:
312,344,181427,2,2,B|287:332|268:332|268:332|252:340|240:340|240:340|224:328|200:320|200:320|164:332|164:332|72:320,1,194.999991073609,2|0,0:0|0:0,0:0:0:0:
84,320,181856,6,2,B|104:276|80:248|80:248|104:224|104:224|72:184|92:108,1,194.999991073609,2|0,0:0|0:0,0:0:0:0:
80,100,182284,1,0,0:0:0:0:
108,64,182392,1,0,0:0:0:0:
152,48,182499,1,2,0:0:0:0:
252,132,182713,5,0,0:0:0:0:
292,152,182820,1,2,0:0:0:0:
336,152,182927,1,2,0:0:0:0:
376,132,183034,1,0,0:0:0:0:
484,228,183249,5,2,0:0:0:0:
448,260,183356,1,2,0:0:0:0:
404,272,183463,1,2,0:0:0:0:
360,272,183570,2,2,P|308:244|200:264,1,129.999994049073,0|0,0:0|0:0,0:0:0:0:
164,284,183892,2,2,B|144:324|96:320|96:320|48:256,1,129.999994049073,0|0,0:0|0:0,0:0:0:0:
108,208,184213,2,2,P|120:176|100:124,1,64.9999970245363,0|0,0:0|0:0,0:0:0:0:
72,72,184427,6,2,B|112:88|112:88|144:52|204:40,1,129.999994049073,2|0,0:0|0:0,0:0:0:0:
240,36,184749,6,2,B|280:14|280:14|303:36|303:36|354:42|379:119,1,160,2|0,0:0|0:0,0:0:0:0:
400,128,185070,6,0,B|360:160|360:160|260:144,1,100,2|2,0:0|0:0,0:0:0:0:
132,156,185284,6,2,B|172:124|172:124|320:156,1,194.999991073609,2|0,0:0|0:0,0:0:0:0:
332,188,185713,1,0,0:0:0:0:
344,232,185820,1,0,0:0:0:0:
336,276,185927,1,2,0:0:0:0:
188,328,186142,5,0,0:0:0:0:
168,288,186249,1,2,0:0:0:0:
164,244,186356,1,2,0:0:0:0:
172,200,186463,2,2,B|196:160|172:120|172:120|248:128,1,129.999994049073,0|0,0:0|0:0,0:0:0:0:
292,144,186784,2,2,P|340:156|404:148,1,64.9999970245363
428,128,186999,6,2,P|472:176|448:268,1,129.999994049073,0|0,0:0|0:0,0:0:0:0:
440,272,187320,2,2,B|384:248|384:248|352:284|288:288,1,129.999994049073,0|0,0:0|0:0,0:0:0:0:
284,300,187642,1,0,0:0:0:0:
240,316,187749,1,0,0:0:0:0:
196,328,187856,2,2,P|148:280|176:212,1,129.999994049073,0|0,0:0|0:0,0:0:0:0:
208,220,188177,5,2,0:0:0:0:
244,196,188284,1,0,0:0:0:0:
260,152,188392,1,0,0:0:0:0:
240,112,188499,1,2,0:0:0:0:
196,100,188606,1,0,0:0:0:0:
152,112,188713,6,2,B|143:143|140:168|140:168|120:136|120:136|72:176|0:128,2,194.999991073609
248,40,189570,2,0,P|296:64|304:144,1,129.999994049073
284,184,189892,6,0,B|288:208|288:208|276:220|276:220|236:204|176:248|204:312,1,160
256,308,190213,6,0,B|264:264|264:264|248:148|248:148|268:60,1,200
256,16,191606,1,0,0:0:0:0:
256,16,191713,1,0,0:0:0:0:
256,16,192142,6,0,B|232:36|232:64|232:64|192:68|168:40|168:40|144:76|144:76|92:112|24:72,1,259.999988098145
40,176,192784,2,0,P|104:180|200:136,1,129.999994049073
356,92,193213,2,0,B|336:64|336:64|308:60|308:60|284:76|288:104|288:104|272:128|256:140|256:140|188:120|148:184,1,259.999988098145
220,228,193856,6,0,B|264:248|264:248|252:276|252:276|260:308|260:308|252:336|252:336|164:324|180:252,1,259.999988098145
352,180,194499,1,0,0:0:0:0:
352,180,194606,2,0,B|372:224|336:256|336:256|328:284|328:284|336:316|336:316|308:404,2,194.999991073609
216,100,195570,6,0,B|172:104|164:124|164:124|188:184|188:184|164:220|172:288,1,194.999991073609
168,316,195999,2,0,P|60:232|68:204,2,129.999994049073
288,260,196642,1,0,0:0:0:0:
316,244,196749,1,0,0:0:0:0:
344,228,196856,1,0,0:0:0:0:
372,212,196963,1,0,0:0:0:0:
400,200,197070,1,0,0:0:0:0:
428,184,197177,1,0,0:0:0:0:
456,172,197284,6,0,B|436:120|436:120|444:92|428:52|396:76,1,129.999994049073
372,104,197606,2,0,P|336:140|256:132,1,129.999994049073
208,72,197927,2,0,L|104:44,1,64.9999970245363
64,36,198142,1,0,0:0:0:0:
56,52,198249,1,0,0:0:0:0:
68,64,198356,1,0,0:0:0:0:
60,80,198463,1,0,0:0:0:0:
76,92,198570,1,0,0:0:0:0:
68,108,198677,1,0,0:0:0:0:
80,120,198784,1,0,0:0:0:0:
72,136,198891,1,0,0:0:0:0:
88,144,198999,6,0,B|96:168|96:168|124:152|124:152|176:168|196:212|176:268|128:276,1,194.999991073609
116,280,199427,1,0,0:0:0:0:
248,228,199642,2,0,B|292:228|320:268|320:268|372:100,2,259.999988098145
244,308,200713,6,0,B|276:336|288:356|288:356|372:368|412:284,1,194.999991073609
412,264,201142,2,0,P|384:200|428:132,1,129.999994049073
432,112,201463,1,0,0:0:0:0:
416,68,201570,2,0,B|376:84|376:84|352:84|352:84|338:82|324:72|324:72|300:72|300:72|284:80|276:84|276:84|252:84|252:84|240:76|228:72|228:72|204:72|204:72|120:92,1,259.999988098145
88,200,202213,1,0,0:0:0:0:
208,252,202427,5,0,0:0:0:0:
240,244,202534,1,0,0:0:0:0:
272,244,202642,1,0,0:0:0:0:
304,248,202749,1,0,0:0:0:0:
336,256,202856,5,0,0:0:0:0:
324,212,202963,1,0,0:0:0:0:
312,168,203070,1,0,0:0:0:0:
300,124,203177,1,0,0:0:0:0:
288,80,203284,2,0,B|228:84|196:116|196:116|64:64,2,194.999991073609
416,108,204142,5,0,0:0:0:0:
424,140,204249,1,0,0:0:0:0:
436,172,204356,1,0,0:0:0:0:
452,200,204463,1,2,0:0:0:0:
324,184,204677,5,0,0:0:0:0:
316,220,204784,1,2,0:0:0:0:
184,168,204999,6,2,P|164:236|216:308,1,129.999994049073
228,320,205320,1,0,0:0:0:0:
280,320,205427,1,0,0:0:0:0:
320,288,205534,1,0,0:0:0:0:
296,240,205642,1,0,0:0:0:0:
312,192,205749,1,0,0:0:0:0:
304,140,205856,6,2,B|320:104|308:56|260:36|224:48|224:48|160:116,1,194.999991073609
164,136,206284,2,0,B|140:164|140:164|100:124|20:124,1,129.999994049073
96,252,206713,2,0,P|164:260|216:212,1,129.999994049073
232,184,207034,2,0,B|212:160|212:160|220:140|240:120|240:120|228:72|180:36|132:60|108:88,1,194.999991073609
116,64,207463,1,0,0:0:0:0:
76,76,207570,6,0,B|112:116|112:116|68:140|68:140|88:196|88:196|48:244|80:324,1,259.999988098145
168,256,208213,1,0,0:0:0:0:
168,256,208320,2,0,P|220:216|344:220,2,194.999991073609
256,80,209284,6,2,B|292:68|292:68|292:92|292:92|304:108|324:104|324:104|340:84|340:84|352:104|352:104|374:106|428:128|444:184,1,259.999988098145
360,256,210034,2,0,P|288:208|304:272,2,194.999991073609
168,288,210999,6,0,B|188:252|188:252|164:228|164:228|164:144|240:116,2,194.999991073609
56,224,211856,1,0,0:0:0:0:
76,200,211963,1,0,0:0:0:0:
92,172,212070,1,0,0:0:0:0:
100,140,212177,1,0,0:0:0:0:
100,108,212284,5,0,0:0:0:0:
124,132,212392,1,0,0:0:0:0:
152,148,212499,1,0,0:0:0:0:
180,164,212606,1,0,0:0:0:0:
212,176,212713,6,0,B|232:176|252:160|256:136|256:136|280:156|280:156|296:152|296:152|348:172|392:112,1,194.999991073609
408,108,213142,2,0,B|428:124|428:124|452:116|452:116|496:148|460:216,1,129.999994049073
372,272,213570,1,0,0:0:0:0:
316,156,213784,2,0,B|280:152|280:152|256:128|256:128|228:128|228:128|160:96,2,129.999994049073
296,284,214427,6,0,B|272:292|272:292|280:252|280:252|248:232|180:272,1,129.999994049073
104,188,214856,2,0,P|160:164|244:152,1,129.999994049073
468,100,215284,2,0,B|464:140|464:140|428:132|428:132|440:176|428:212|428:212|388:192|372:164|372:164|348:168|328:184|328:184|260:192|200:124,1,389.999982147218
140,56,216142,5,0,0:0:0:0:
128,80,216249,1,0,0:0:0:0:
116,104,216356,1,0,0:0:0:0:
128,128,216463,1,0,0:0:0:0:
140,152,216570,1,0,0:0:0:0:
152,176,216677,1,0,0:0:0:0:
168,200,216784,1,0,0:0:0:0:
152,224,216891,1,0,0:0:0:0:
136,244,216999,6,0,B|172:244|208:228|208:228|248:304,1,129.999994049073
280,212,217320,6,0,B|256:160|256:160|256:132|264:112|264:112|244:92|244:32,1,160
336,68,217642,6,0,B|352:104|352:104|340:144|340:144|384:188|376:232|344:272,1,200
356,252,219570,5,0,0:0:0:0:
256,192,219677,12,0,224713,0:0:0:0:
