osu file format v12

[General]
AudioFilename: Skrillex-Imma Try It Out.mp3
AudioLeadIn: 0
PreviewTime: 65190
Countdown: 0
SampleSet: Normal
StackLeniency: 0.7
Mode: 0
LetterboxInBreaks: 1

[Editor]
DistanceSpacing: 1
BeatDivisor: 1
GridSize: 4

[Metadata]
Title:Imma Try It Out (feat. Alvin Risk)
TitleUnicode:Imma Try It Out (feat. Alvin Risk)
Artist:Skrillex
ArtistUnicode:Skrillex
Creator:Foreverends
Version:Easy
Source:
Tags:Call Of Duty Black Ops 2 dubstep Sonny Moore KiyoshiX101 Cancel Nardoxyribonucleic
BeatmapID:215800
BeatmapSetID:76662

[Difficulty]
HPDrainRate:2
CircleSize:3
OverallDifficulty:2
ApproachRate:3
SliderMultiplier:1
SliderTickRate:2

[Events]
//Background and Video events
0,0,"bg.jpg",0,0
//Break Periods
2,41484,53559
2,123770,135844
//Storyboard Layer 0 (Background)
//Storyboard Layer 1 (Fail)
//Storyboard Layer 2 (Pass)
//Storyboard Layer 3 (Foreground)
//Storyboard Sound Samples
//Background Colour Transformations
3,100,163,162,255

[TimingPoints]
142,428.571428571429,4,1,1,60,1,0
25000,-100,4,1,2,60,0,0
25214,-100,4,1,1,60,0,0
25642,-100,4,1,2,60,0,0
25857,-100,4,1,1,60,0,0
26714,-100,4,1,2,60,0,0
26928,-100,4,1,1,60,0,0
28428,-100,4,1,0,60,0,0
29285,-100,4,1,1,60,0,0
30142,-100,4,1,0,60,0,0
32714,-100,4,1,1,60,0,0
33142,-100,4,1,2,60,0,0
34428,-100,4,1,1,60,0,0
54999,-100,4,1,3,60,0,0
68713,-100,4,1,1,60,0,1
80714,-100,4,1,1,60,0,0
82427,-100,4,1,1,60,0,1
94321,-100,4,1,1,60,0,0
94427,-100,4,1,1,60,0,1
94534,-100,4,1,1,60,0,0
96141,-100,4,1,1,60,0,1
96891,-100,4,1,2,40,0,1
97105,-100,4,1,1,60,0,1
98605,-100,4,1,2,40,0,1
98819,-100,4,1,1,60,0,1
106427,-100,4,1,1,60,0,0
109856,-100,4,1,1,60,0,1
110605,-100,4,1,2,40,0,1
110819,-100,4,1,1,60,0,1
112319,-100,4,1,2,40,0,1
112533,-100,4,1,1,60,0,1
122712,-100,4,1,3,60,0,1
123463,-100,4,1,3,60,0,0
123570,-100,4,1,1,60,0,1
123677,-100,4,1,1,60,0,0
137285,-100,4,1,3,60,0,0
161392,-100,4,1,2,20,0,0
161606,-100,4,1,3,60,0,0
161820,-100,4,1,2,20,0,0
162034,-100,4,1,3,60,0,0
162249,-100,4,1,2,20,0,0
162463,-100,4,1,3,60,0,0
164713,-100,4,1,1,60,0,1
176713,-100,4,1,1,60,0,0
178427,-100,4,1,1,60,0,1
190320,-100,4,1,1,60,0,0
190427,-100,4,1,1,60,0,1
190534,-100,4,1,1,60,0,0
192141,-100,4,1,1,60,0,1
192891,-100,4,1,2,40,0,1
193105,-100,4,1,1,60,0,1
194605,-100,4,1,2,40,0,1
194819,-100,4,1,1,60,0,1
202427,-100,4,1,1,60,0,0
205856,-100,4,1,1,60,0,1
206605,-100,4,1,2,40,0,1
206819,-100,4,1,1,60,0,1
208319,-100,4,1,2,40,0,1
208533,-100,4,1,1,60,0,1
217856,-100,4,1,1,60,0,0
219463,-100,4,1,1,60,0,0
219570,-100,4,1,1,60,0,1
219678,-100,4,1,1,60,0,0
219999,-100,4,2,1,55,0,0
220427,-100,4,2,1,50,0,0
220856,-100,4,2,1,45,0,0
221284,-100,4,2,1,40,0,0
221713,-100,4,2,1,35,0,0
222142,-100,4,2,1,30,0,0
222570,-100,4,2,1,25,0,0
222999,-100,4,2,1,20,0,0
223427,-100,4,2,1,15,0,0
223856,-100,4,2,1,10,0,0
224284,-100,4,2,1,5,0,0

[Colours]
Combo1 : 255,0,255
Combo2 : 0,163,240
Combo3 : 0,242,242
Combo4 : 251,34,34
Combo5 : 0,255,64
SliderBorder : 255,255,255

[HitObjects]
168,296,24142,2,0,P|212:328|364:268,2,200,8|10|8,0:0|0:0|0:0,0:0:0:0:
152,136,26713,2,0,L|152:20,2,100
308,260,28427,1,0,0:0:0:0:
464,124,29284,2,0,P|408:28|332:64,1,200,8|8,0:0|0:0,0:0:0:0:
200,52,30999,2,0,P|134:29|78:125,1,200,0|8,0:0|0:0,0:0:0:0:
104,264,32713,2,0,B|188:232|220:296|312:264,1,200
416,188,34427,6,0,B|356:173|328:122|328:122|294:162|243:168,1,200,8|0,0:0|0:0,0:0:0:0:
136,88,36142,2,0,P|96:188|180:276,1,200
264,324,37856,2,0,B|332:316|360:256|360:256|404:276|468:240,1,200
400,120,39570,2,0,B|332:112|304:52|304:52|264:76|196:36,1,200
256,192,41284,1,4,0:0:0:0:
288,204,54999,6,8,P|344:168|416:220,2,150
232,288,56713,2,0,P|148:348|64:296,1,200,8|0,0:0|0:0,0:0:0:0:
200,156,58427,2,8,B|244:132|248:104|248:104|224:80|216:8,2,150
108,192,60141,2,0,P|156:284|244:252,1,200,8|0,0:0|0:0,0:0:0:0:
156,80,61856,5,8,0:0:0:0:
340,76,62713,1,8,0:0:0:0:
364,268,63570,2,0,P|280:328|232:252,1,200,8|0,0:0|0:0,0:0:0:0:
280,76,65284,6,8,P|328:64|388:84,1,100
440,152,66141,1,0,0:0:0:0:
332,328,66999,2,8,P|264:344|192:248,1,200,8|4,0:0|0:0,0:0:0:0:
20,148,68713,6,4,P|56:268|144:320,1,200,6|2,0:0|0:0,0:0:0:0:
336,316,70427,2,0,B|352:284|352:284|308:176|308:176|340:96,1,200,0|0,0:0|0:0,0:0:0:0:
224,128,71713,1,2,0:0:0:0:
244,32,72141,6,4,B|268:48|268:48|288:28|288:28|344:68|448:16,1,200,6|0,0:0|0:0,0:0:0:0:
472,220,73856,2,0,P|432:224|368:204,1,100,2|2,0:0|0:0,0:0:0:0:
296,148,74713,2,0,P|280:248|372:292,1,200,2|0,0:0|0:0,0:0:0:0:
160,332,76427,5,8,0:0:0:0:
48,168,77284,2,0,P|51:71|147:43,1,200,2|8,0:0|0:0,0:0:0:0:
200,120,78570,1,2,0:0:0:0:
180,216,78999,2,4,B|216:252|216:252|276:172|380:224,1,200,6|8,0:0|0:0,0:0:0:0:
352,52,80713,6,0,L|248:28,2,100
452,72,81999,1,0,0:0:0:0:
476,168,82427,6,0,P|420:252|316:244,1,200,6|8,0:0|0:0,0:0:0:0:
196,72,84141,6,8,P|148:60|88:80,1,100
36,148,84999,1,0,0:0:0:0:
164,208,85856,6,0,P|164:304|272:328,1,200,6|8,0:0|0:0,0:0:0:0:
312,212,87570,2,0,P|360:192|448:208,1,100,2|2,0:0|0:0,0:0:0:0:
456,140,88427,6,0,P|416:108|256:116,1,200,8|6,0:0|0:0,0:0:0:0:
164,196,90141,2,0,B|256:236|256:236|352:196,2,200
184,56,92713,5,2,0:0:0:0:
256,176,93570,1,8,0:0:0:0:
328,56,94427,1,8,0:0:0:0:
296,140,96141,6,4,B|256:120|256:120|232:164|232:164|144:132|72:180|72:180|96:252|12:324,2,400,6|6|6,0:0|0:0|0:0,0:0:0:0:
420,208,100427,5,2,0:0:0:0:
320,308,101284,2,0,B|276:292|276:292|248:332|180:352|108:312,2,200,2|8|4,0:0|0:0|0:0,0:0:0:0:
416,204,103856,1,8,0:0:0:0:
324,100,104713,2,0,P|228:88|184:180,2,200,2|8|2,0:0|0:0|0:0,0:0:0:0:
424,196,107284,5,8,0:0:0:0:
332,300,108141,2,0,P|260:200|240:316,1,300,0|2,0:0|0:0,0:0:0:0:
152,340,109856,6,0,B|104:304|104:304|140:276|124:248|124:248|132:156|244:84|336:112,2,400,8|0|12,0:0|0:0|0:0,0:0:0:0:
256,248,114141,5,8,0:0:0:0:
388,296,114999,2,0,P|400:216|288:136,2,200,2|2|8,0:0|0:0|0:0,0:0:0:0:
252,268,117570,5,8,0:0:0:0:
352,168,118427,2,0,B|248:136|276:208|148:168,2,200,2|8|2,0:0|0:0|0:0,0:0:0:0:
372,308,120999,5,8,0:0:0:0:
256,228,121856,2,0,L|256:28,2,200,8|8|8,0:0|0:0|0:0,0:0:0:0:
184,120,137284,6,8,P|260:144|352:96,2,150,12|8|8,0:0|0:0|0:0,0:0:0:0:
92,164,138999,2,0,B|132:220|192:232|192:232|208:336,1,200,8|0,0:0|0:0,0:0:0:0:
280,240,140284,1,8,0:0:0:0:
360,300,140713,6,8,B|372:225|372:225|432:213|456:181,2,150,12|8|8,0:0|0:0|0:0,0:0:0:0:
272,348,142427,2,0,P|176:316|200:212,1,200,8|0,0:0|0:0,0:0:0:0:
156,136,143713,1,8,0:0:0:0:
256,116,144141,6,8,B|248:148|248:148|264:220|264:220|252:276,2,150,12|8|8,0:0|0:0|0:0,0:0:0:0:
356,108,145856,2,0,B|356:156|356:156|392:172|392:172|372:248|444:304,1,200,8|0,0:0|0:0,0:0:0:0:
508,316,147142,1,8,0:0:0:0:
412,344,147570,6,8,B|328:332|328:332|240:352,2,150,12|8|8,0:0|0:0|0:0,0:0:0:0:
388,248,149284,2,0,P|288:224|232:132,1,200,8|8,0:0|0:0,0:0:0:0:
384,12,150999,6,0,P|464:28|476:120,2,150,12|8|8,0:0|0:0|0:0,0:0:0:0:
308,76,152713,2,0,B|204:124|216:36|92:88,1,200,8|0,0:0|0:0,0:0:0:0:
88,176,153999,1,8,0:0:0:0:
64,272,154427,6,0,L|240:280,2,150,12|8|8,0:0|0:0|0:0,0:0:0:0:
88,176,156142,2,0,P|182:157|152:40,1,200,8|0,0:0|0:0,0:0:0:0:
276,56,157427,1,8,0:0:0:0:
336,136,157856,6,0,P|340:226|423:237,2,150,12|8|8,0:0|0:0|0:0,0:0:0:0:
436,116,159570,2,0,B|420:172|420:172|452:252|452:252|428:332,1,200,8|0,0:0|0:0,0:0:0:0:
344,340,160856,1,0,0:0:0:0:
252,300,161284,6,8,P|200:312|136:288,2,100
256,200,162570,1,0,0:0:0:0:
184,128,162999,2,0,P|259:68|323:128,1,200,0|12,0:0|0:0,0:0:0:0:
492,236,164713,6,4,P|456:116|368:64,1,200,6|2,0:0|0:0,0:0:0:0:
176,68,166427,2,0,B|160:100|160:100|204:208|204:208|172:288,1,200,0|0,0:0|0:0,0:0:0:0:
288,256,167713,1,2,0:0:0:0:
268,352,168142,6,4,B|244:336|244:336|224:356|224:356|168:316|64:368,1,200,6|0,0:0|0:0,0:0:0:0:
40,164,169856,2,0,P|80:160|144:180,1,100,2|2,0:0|0:0,0:0:0:0:
216,236,170713,2,0,P|232:136|140:92,1,200,2|0,0:0|0:0,0:0:0:0:
352,52,172427,5,8,0:0:0:0:
464,216,173284,2,0,P|461:313|365:341,1,200,2|8,0:0|0:0,0:0:0:0:
312,264,174570,1,2,0:0:0:0:
332,168,174999,2,4,B|296:132|296:132|236:212|132:160,1,200,6|8,0:0|0:0,0:0:0:0:
160,332,176713,6,0,L|264:356,2,100
80,316,177999,1,0,0:0:0:0:
48,244,178427,6,0,P|104:160|208:168,1,200,6|8,0:0|0:0,0:0:0:0:
316,312,180142,6,8,P|364:324|424:304,1,100
476,236,180999,1,0,0:0:0:0:
348,176,181856,2,0,P|348:80|240:56,1,200,6|8,0:0|0:0,0:0:0:0:
200,172,183570,2,0,P|152:192|64:176,1,100,2|2,0:0|0:0,0:0:0:0:
56,244,184427,6,0,P|96:276|256:268,1,200,8|6,0:0|0:0,0:0:0:0:
348,188,186142,2,0,B|256:148|256:148|160:188,2,200
328,328,188713,5,2,0:0:0:0:
256,208,189570,1,8,0:0:0:0:
184,328,190427,1,8,0:0:0:0:
216,244,192142,6,4,B|256:260|256:260|288:220|324:208|324:208|380:248|380:248|448:212|448:212|488:144|436:64,2,400,6|6|6,0:0|0:0|0:0,0:0:0:0:
92,176,196427,1,2,0:0:0:0:
192,76,197284,2,0,B|236:92|236:92|264:52|332:32|404:72,2,200,2|8|4,0:0|0:0|0:0,0:0:0:0:
96,180,199856,1,8,0:0:0:0:
188,284,200713,2,0,P|284:296|328:204,2,200,2|8|2,0:0|0:0|0:0,0:0:0:0:
88,188,203284,5,8,0:0:0:0:
180,84,204142,2,0,P|252:184|272:68,1,300,0|2,0:0|0:0,0:0:0:0:
360,44,205856,6,0,B|392:88|384:152|384:152|412:176|412:176|396:200|380:260|380:260|400:300|400:336|400:336|440:356|460:280,2,400,8|0|12,0:0|0:0|0:0,0:0:0:0:
256,136,210142,1,8,0:0:0:0:
124,88,210999,2,0,P|112:168|224:248,2,200,2|2|8,0:0|0:0|0:0,0:0:0:0:
260,116,213570,1,8,0:0:0:0:
160,216,214427,2,0,B|264:248|236:176|364:216,2,200,2|8|2,0:0|0:0|0:0,0:0:0:0:
140,76,216999,5,8,0:0:0:0:
256,156,217856,2,0,L|256:356,2,200,8|8|8,0:0|0:0|0:0,0:0:0:0:
256,192,219784,12,0,224713,0:0:0:0:
