osu file format v10

[General]
AudioFilename: Skrillex.mp3
AudioLeadIn: 0
PreviewTime: 85214
Countdown: 0
SampleSet: Soft
StackLeniency: 0.7
Mode: 0
LetterboxInBreaks: 0
EpilepsyWarning: 1

[Editor]
Bookmarks: 21074,30997,87282,122869,127007
DistanceSpacing: 1
BeatDivisor: 3
GridSize: 4

[Metadata]
Title:First Of The Year (Equinox)
TitleUnicode:First Of The Year (Equinox)
Artist:Skrillex
ArtistUnicode:Skrillex
Creator:nold_1702
Version:RG
Source:
Tags:dubstep ghost witches magic noise noisy CALL 911 NOW Foreverend Pokie Flask Regou Hotdog wub more scary monsters and sprites
BeatmapID:187640
BeatmapSetID:56791

[Difficulty]
HPDrainRate:3
CircleSize:4
OverallDifficulty:3
ApproachRate:5
SliderMultiplier:1.4
SliderTickRate:1

[Events]
//Background and Video events
0,0,"skrillex_by_chollo-d378sfs.jpg"
//Break Periods
2,61827,62910
2,65137,66220
2,68447,69531
2,128033,129117
2,131344,132427
2,134654,135738
//Storyboard Layer 0 (Background)
//Storyboard Layer 1 (Fail)
//Storyboard Layer 2 (Pass)
//Storyboard Layer 3 (Foreground)
Sprite,Foreground,Centre,"Storyboard\Start05.png",320,240 F,0,17765,17972,0,1 M,0,17972,,465,412 F,0,17972,19420,1 F,0,19420,21076,1,0
Sprite,Foreground,Centre,"Storyboard\End02-d.png",320,240 M,0,180179,,454,415 F,0,180179,180593,0,1 F,0,180593,183282,1 F,0,183282,184110,1,0
//Storyboard Sound Samples
//Background Colour Transformations
3,100,163,162,255

[TimingPoints]
1214,413.793103448276,4,2,0,100,1,0
21076,-100,4,2,1,60,0,0
21489,-100,4,2,2,60,0,0
21627,-100,4,2,1,60,0,0
22317,-100,4,2,2,60,0,0
22731,-100,4,2,1,60,0,0
23145,-100,4,2,2,60,0,0
23282,-100,4,2,1,60,0,0
23972,-100,4,2,2,60,0,0
24386,-100,4,2,1,60,0,0
25351,-100,4,2,2,60,0,0
26041,-100,4,2,1,60,0,0
26455,-100,4,2,2,60,0,0
26593,-100,4,2,1,60,0,0
27282,-100,4,2,2,60,0,0
27696,-100,4,2,1,60,0,0
27972,-100,4,2,2,60,0,0
28386,-100,4,2,1,60,0,0
28938,-100,4,2,2,60,0,0
29351,-100,4,2,1,60,0,0
30041,-100,4,2,1,60,0,0
30593,-100,4,2,2,60,0,0
31007,-100,4,2,1,60,0,0
31420,-100,4,2,2,60,0,0
31696,-100,4,2,1,60,0,0
32110,-100,4,2,2,60,0,0
32662,-100,4,2,1,60,0,0
33076,-100,4,2,1,30,0,0
33351,-100,4,2,1,40,0,0
33903,-100,4,2,1,60,0,0
34179,-100,4,2,1,70,0,0
35145,-100,4,2,1,70,0,0
35558,-100,4,2,2,70,0,0
35696,-100,4,2,0,70,0,0
35834,-100,4,2,1,70,0,0
36386,-100,4,2,2,70,0,0
36662,-100,4,2,1,70,0,0
37214,-100,4,2,2,70,0,0
37489,-100,4,2,1,70,0,0
38869,-100,4,2,2,70,0,0
39145,-100,4,2,1,70,0,0
39696,-100,4,2,2,70,0,0
39972,-100,4,2,1,70,0,0
40524,-100,4,2,2,70,0,0
40938,-100,4,2,1,70,0,0
41351,-100,4,2,2,70,0,0
41627,-100,4,2,1,70,0,0
41903,-100,4,2,2,70,0,0
42593,-100,4,2,1,70,0,0
43007,-100,4,2,2,70,0,0
43282,-100,4,2,1,70,0,0
43834,-100,4,2,2,70,0,0
44248,-100,4,2,1,70,0,0
44662,-100,4,2,2,70,0,0
44938,-100,4,2,1,70,0,0
46317,-100,4,2,2,70,0,0
46731,-100,4,2,1,70,0,0
47007,-100,4,2,2,70,0,0
47558,-100,4,2,1,70,0,0
48800,-100,4,2,2,70,0,0
49214,-100,4,2,1,70,0,0
49627,-100,4,2,2,70,0,0
50041,-100,4,2,1,70,0,0
50317,-100,4,2,2,70,0,0
50869,-100,4,2,1,70,0,0
51696,-100,4,2,1,70,0,0
52110,-100,4,2,2,70,0,0
52248,-100,4,2,1,70,0,0
52524,-100,4,2,1,70,0,0
52800,-100,4,2,2,70,0,0
53007,-100,4,2,1,70,0,0
53627,-100,4,2,2,70,0,0
54179,-100,4,2,1,70,0,0
54593,-100,4,2,2,70,0,0
55007,-100,4,2,1,70,0,0
55420,-100,4,2,2,70,0,0
55834,-100,4,2,1,70,0,0
56248,-100,4,2,2,70,0,0
56524,-100,4,2,1,70,0,0
57076,-100,4,2,2,70,0,0
57282,-100,4,2,0,70,0,0
57489,-100,4,1,1,70,0,0
59972,-100,4,2,1,90,0,0
60386,-100,4,1,1,70,0,0
61627,-100,4,2,2,100,0,0
63696,-100,4,1,1,70,0,0
64938,-100,4,2,2,100,0,0
67145,-100,4,1,1,70,0,0
68248,-100,4,2,2,100,0,0
70455,-100,4,1,1,70,0,0
71558,-100,4,2,2,100,0,0
72110,-100,4,2,0,70,0,0
73903,-100,4,1,1,70,0,0
75834,-100,4,2,0,100,0,0
77351,-100,4,1,1,70,0,0
79007,-100,4,2,0,70,0,0
80662,-100,4,1,1,70,0,0
81076,-100,4,1,2,70,0,0
81489,-100,4,1,1,70,0,0
82317,-100,4,1,2,70,0,0
82731,-100,4,1,1,70,0,0
84386,-100,4,1,2,70,0,0
84800,-100,4,1,1,70,0,0
85696,-100,4,1,1,100,0,0
87282,-100,4,1,2,70,0,1
87351,-100,4,1,2,70,0,0
87558,-100,4,1,1,70,0,0
101351,-100,4,2,2,100,0,0
102179,-100,4,2,1,80,0,0
102317,-100,4,2,0,80,0,0
103007,-100,4,2,1,80,0,0
103834,-100,4,1,1,80,0,0
104662,-100,4,1,1,100,0,0
105351,-100,4,1,1,40,0,0
105489,-100,4,1,1,80,0,0
123420,-100,4,2,0,80,0,0
123558,-100,4,1,1,80,0,0
124524,-100,4,1,1,80,0,0
125351,-100,4,1,1,80,0,0
126179,-100,4,2,1,80,0,0
127007,-100,4,1,1,70,0,0
127007,-100,4,1,1,80,0,0
127834,-100,4,2,2,100,0,0
130041,-100,4,1,1,70,0,0
131145,-100,4,2,2,100,0,0
133627,-100,4,1,1,70,0,0
134455,-100,4,2,2,100,0,0
136938,-100,4,1,1,70,0,0
137765,-100,4,2,2,100,0,0
138179,-100,4,2,0,70,0,0
140248,-100,4,1,1,70,0,0
142179,-100,4,2,0,100,0,0
143558,-100,4,1,1,70,0,0
147282,-100,4,1,2,70,0,0
147420,-100,4,1,1,70,0,0
148524,-100,4,1,2,70,0,0
148662,-100,4,1,1,70,0,0
151903,-100,4,1,1,100,0,0
153489,-100,4,1,2,80,0,1
153558,-100,4,1,1,80,0,0
167558,-100,4,2,2,100,0,0
167834,-100,4,2,0,100,0,0
169214,-100,4,1,1,80,0,0
176386,-100,4,2,0,80,0,0
176524,-100,4,1,1,80,0,0
179972,-100,4,2,1,80,0,0

[Colours]
Combo1 : 128,0,128
Combo2 : 0,128,128
Combo3 : 0,128,64
Combo4 : 128,255,128
Combo5 : 0,128,255
Combo6 : 217,0,108

[HitObjects]
148,60,21076,2,0,B|128:224,1,140,4|0,0:0|0:0,0:0:0
132,340,21903,2,8,B|220:360|272:300|272:300,1,140,12|0,0:0|0:0,0:0:0
296,220,22593,1,2,0:0:0
296,220,22731,6,0,B|320:68,1,140,2|0,0:0|0:0,0:0:0
180,52,23558,2,0,B|132:116|160:212,1,140,12|2,0:0|0:0,0:0:0
232,240,24248,5,2,0:0:0
232,240,24386,2,0,B|308:280|364:224|364:224|428:176|512:236,1,280,2|12,0:0|0:0,0:0:0
476,364,25627,2,0,B|432:392|360:356,1,93.3333333333333,0|2,0:0|0:0,0:0:0
376,364,26041,54,0,B|229:348,1,140,2|0,0:0|0:0,0:0:0
96,360,26869,2,0,B|176:344|184:220,1,140,12|2,0:0|0:0,0:0:0
248,196,27558,1,2,0:0:0
248,196,27696,6,0,B|208:160|148:160|108:200,1,140,2|0,0:0|0:0,0:0:0
156,328,28524,2,0,B|316:304,1,140,12|0,0:0|0:0,0:0:0
380,344,29214,1,2,0:0:0
380,344,29351,6,0,B|428:288|408:184|324:136|240:172,1,280,2|12,0:0|0:0,0:0:0
132,224,30593,1,2,0:0:0
164,312,30869,1,2,0:0:0
164,312,31007,54,0,B|112:328|60:304|40:236,2,140,2|0|12,0:0|0:0|0:0,0:0:0
288,248,32248,1,0,0:0:0
376,284,32524,1,2,0:0:0
380,292,32662,6,0,B|408:136,1,140
340,28,33489,2,0,B|312:184,1,140,12|0,0:0|0:0,0:0:0
252,292,34317,6,0,B|220:396|56:416|12:296,1,280,6|8,0:0|0:0,0:0:0
128,228,35558,1,2,0:0:0
52,176,35834,1,0,0:0:0
52,176,35972,54,0,B|108:116|192:160,1,140,2|0,0:0|0:0,0:0:0
292,240,36800,2,0,B|372:276|432:204,1,140,12|2,0:0|0:0,0:0:0
448,80,37627,6,0,B|376:-4|236:20|224:136,1,280,2|12,0:0|0:0,0:0:0
208,260,38869,5,2,0:0:0
152,336,39145,1,0,0:0:0
152,336,39282,2,2,B|88:276|136:184,1,140,2|0,0:0|0:0,0:0:0
268,184,40110,2,0,B|324:248|272:344,1,140,8|2,0:0|0:0,0:0:0
232,384,40800,1,0,0:0:0
232,384,40938,70,0,B|68:372,1,140,2|0,0:0|0:0,0:0:0
48,240,41765,1,8,0:0:0
52,244,42179,1,0,0:0:0
56,248,42593,6,0,B|28:180|44:96,2,140,2|0|12,0:0|0:0|0:0,0:0:0
248,332,44041,1,2,0:0:0
248,332,44248,54,0,B|256:284|256:284|248:244|248:244|256:188,1,140,2|0,0:0|0:0,0:0:0
348,184,44938,1,0,0:0:0
348,184,45076,2,0,B|332:96|220:72|140:140|168:244,1,280,12|2,0:0|0:0,0:0:0
96,336,46317,2,0,B|136:376|208:360,1,93.3333333333333
192,360,46731,2,0,B|368:364,1,140,12|0,0:0|0:0,0:0:0
472,372,47558,6,0,B|492:296|456:228|456:228|416:160|440:60,1,280,6|12,0:0|0:0,0:0:0
433,101,48800,1,0,0:0:0
352,144,49076,1,0,0:0:0
352,144,49214,2,2,B|272:160|184:124,1,140
112,232,50041,2,0,B|184:216|256:240,1,140,12|2,0:0|0:0,0:0:0
176,356,50869,6,0,B|72:392|-28:312|4:184,1,280,2|12,0:0|0:0,0:0:0
104,116,52110,1,0,0:0:0
188,152,52386,1,0,0:0:0
188,152,52524,2,0,B|224:156|224:156|244:152|244:152|288:156,2,93.3333333333333,2|2|0,0:0|0:0|0:0,0:0:0
120,216,53351,2,0,B|-28:188,1,140,12|0,0:0|0:0,0:0:0
76,84,54179,54,0,B|152:60|216:116,1,140,2|0,0:0|0:0,0:0:0
320,192,55007,1,12,0:0:0
324,200,55420,1,2,0:0:0
328,208,55834,2,0,B|312:168|312:168|316:128|316:128|292:64,2,140,2|2|12,0:0|0:0|0:0,0:0:0
164,344,57282,5,2,0:0:0
164,344,57489,2,0,B|112:192,1,140,8|8,0:0|0:0,0:0:0
168,80,58317,2,0,B|216:224,1,140,12|8,0:0|0:0,0:0:0
260,344,59145,5,8,0:0:0
352,332,59420,1,4,0:0:0
352,332,59558,1,8,0:0:0
300,256,59834,1,8,0:0:0
300,256,59972,2,0,B|288:108,1,140,0|12,0:0|0:0,0:0:0
400,28,60800,53,0,0:0:0
464,96,61076,1,0,0:0:0
464,96,61214,2,0,B|448:180|480:256,1,140,0|4,0:0|0:0,0:0:0
400,28,64110,5,0,0:0:0
464,96,64386,1,0,0:0:0
464,96,64524,2,0,B|448:180|480:256,1,140,0|4,0:0|0:0,0:0:0
400,28,67420,5,0,0:0:0
464,96,67696,1,0,0:0:0
464,96,67834,2,0,B|448:180|480:256,1,140,0|4,0:0|0:0,0:0:0
400,28,70731,53,0,0:0:0
464,96,71007,1,0,0:0:0
464,96,71145,2,0,P|444:152|460:204|460:204|416:184,1,140,0|8,0:0|0:0,0:0:0
208,324,72386,6,0,B|184:172,1,140,2|2,0:0|0:0,0:0:0
328,188,73214,2,0,B|348:236|344:292,2,93.3333333333333,2|0|2,0:0|0:0|0:0,0:0:0
280,108,74041,22,0,B|232:52|156:40,1,140,4|8,0:0|0:0,0:0:0
100,168,74869,2,0,B|128:320,1,140,0|0,0:0|0:0,0:0:0
32,304,75558,1,0,0:0:0
32,304,75696,38,0,B|8:240|4:152,1,140,0|0,0:0|0:0,0:0:0
56,88,76386,1,0,0:0:0
56,88,76524,2,0,B|128:116|192:76|192:76|248:40|332:80,1,280,0|4,0:0|0:0,0:0:0
356,164,77627,37,0,0:0:0
356,164,77765,2,0,B|328:320,1,140,8|0,0:0|0:0,0:0:0
448,220,78593,2,0,B|476:144|428:68,1,140,0|0,0:0|0:0,0:0:0
340,60,79282,2,0,B|304:56|304:56|288:52|288:52|240:48,2,93.3333333333333
356,152,80110,1,0,0:0:0
356,152,80248,2,0,B|288:192|216:148,1,140
92,200,81076,38,0,B|100:240|100:240|84:284|84:284|92:340,1,140
216,264,81903,1,8,0:0:0
216,264,82179,1,0,0:0:0
216,264,82317,2,0,B|268:316|348:284,1,140,8|4,0:0|0:0,0:0:0
464,364,83145,2,0,B|504:292|460:204,1,140
368,132,83972,37,8,0:0:0
368,132,84386,1,8,0:0:0
280,160,84662,1,0,0:0:0
280,160,84800,2,0,B|112:184,1,140,4|4,0:0|0:0,0:0:0
36,88,85627,37,2,0:0:0
36,88,87282,54,0,B|12:252,1,140,12|0,0:0|0:0,0:0:0
100,336,88110,1,2,0:0:0
156,208,88524,2,0,B|208:192|272:216,1,93.3333333333333,0|0,0:0|0:0,0:0:0
256,212,88938,2,0,B|332:248|424:224,1,140,2|0,0:0|0:0,0:0:0
480,120,89765,2,0,B|412:88|332:100,1,140,4|0,0:0|0:0,0:0:0
208,136,90593,6,0,B|40:160,2,140,8|0|2,0:0|0:0|0:0,0:0:0
288,252,91834,1,0,0:0:0
248,336,92110,1,0,0:0:0
248,336,92248,70,0,B|168:336|88:328,1,140,2|0,0:0|0:0,0:0:0
8,296,93076,2,0,B|111:310|267:298,1,233.333333333333,2|0,0:0|0:0,0:0:0
256,296,93903,1,4,0:0:0
468,80,94731,6,0,B|400:36|308:80,1,140,10|0,0:0|0:0,0:0:0
272,140,95420,1,0,0:0:0
272,140,95558,2,0,B|296:288,1,140,0|0,0:0|0:0,0:0:0
424,336,96386,2,0,B|444:276|420:220|420:220|388:152|408:88,1,233.333333333333,2|0,0:0|0:0,0:0:0
416,100,97214,70,0,B|368:164|276:140,1,140,10|0,0:0|0:0,0:0:0
164,84,98041,2,0,B|212:24|300:44,1,140,2|0,0:0|0:0,0:0:0
248,124,98731,1,0,0:0:0
248,124,98869,6,0,B|224:260,1,140,8|0,0:0|0:0,0:0:0
116,352,99696,2,0,B|64:284|108:200,1,140,8|0,0:0|0:0,0:0:0
72,188,100317,1,0,0:0:0
68,148,100524,70,0,B|0:0,2,140,8|0|0,0:0|0:0|0:0,0:0:0
184,228,101765,1,0,0:0:0
272,204,102041,1,0,0:0:0
272,204,102179,2,0,B|352:176|436:232,1,140,10|0,0:0|0:0,0:0:0
452,348,103007,2,0,B|384:376|308:332,1,140,12|0,0:0|0:0,0:0:0
192,276,103834,5,0,0:0:0
184,280,104662,2,0,B|176:304|188:324|188:324|268:284|164:216|204:132,1,233.333333333333,0|0,0:0|0:0,0:0:0
192,144,105489,70,8,B|339:182,1,140,8|0,0:0|0:0,0:0:0
424,280,106317,2,0,B|256:236,1,140,0|0,0:0|0:0,0:0:0
216,300,107007,1,0,0:0:0
216,300,107145,6,0,B|136:300|64:276,2,140,8|0|0,0:0|0:0|0:0,0:0:0
336,368,108386,1,2,0:0:0
428,344,108662,1,0,0:0:0
428,344,108800,1,0,0:0:0
368,272,109076,1,0,0:0:0
368,272,109214,2,0,B|332:228|336:140,1,93.3333333333333,2|0,0:0|0:0,0:0:0
348,180,109627,70,0,B|184:160,1,140,8|0,0:0|0:0,0:0:0
76,116,110455,6,0,B|72:192|8:244,1,140,8|0,0:0|0:0,0:0:0
104,344,111282,2,0,B|160:312|216:348|216:348|268:380|344:344,1,233.333333333333,2|0,0:0|0:0,0:0:0
336,344,112110,69,0,0:0:0
472,304,112524,1,0,0:0:0
428,172,112938,1,0,0:0:0
292,212,113351,1,0,0:0:0
220,272,113627,1,0,0:0:0
220,272,113765,6,0,B|164:324|64:308|-8:248|16:136,1,280,8|2,0:0|0:0,0:0:0
148,148,115007,1,0,0:0:0
240,164,115282,1,0,0:0:0
240,164,115420,2,0,B|312:176|332:260,1,140,2|0,0:0|0:0,0:0:0
192,280,116248,2,0,B|60:204,1,140,12|0,0:0|0:0,0:0:0
52,72,117076,69,0,0:0:0
52,72,117903,2,0,B|128:96|180:64|180:64|232:32|296:60,1,233.333333333333,6|0,0:0|0:0,0:0:0
288,56,118731,5,8,0:0:0
384,156,119145,1,8,0:0:0
508,92,119558,1,2,0:0:0
384,156,119972,2,0,B|368:208|392:280,1,93.3333333333333,2|0,0:0|0:0,0:0:0
396,264,120386,70,0,B|324:236|264:276|264:276|204:316|124:276,1,280,8|2,0:0|0:0,0:0:0
92,144,121627,1,0,0:0:0
72,52,121903,1,0,0:0:0
72,52,122041,2,0,B|20:68|-12:124|8:200,1,140,2|0,0:0|0:0,0:0:0
116,240,122869,2,0,B|168:224|200:168|180:92,1,140,0|2,0:0|0:0,0:0:0
288,36,123696,6,0,B|308:200,1,140,8|0,0:0|0:0,0:0:0
388,216,124386,1,0,0:0:0
388,216,124524,2,0,B|468:180|532:276,1,140,2|0,0:0|0:0,0:0:0
420,356,125351,69,2,0:0:0
424,364,125765,1,0,0:0:0
288,324,126179,1,2,0:0:0
204,368,126455,1,0,0:0:0
204,368,126593,2,0,B|128:324|44:360,1,140,2|8,0:0|0:0,0:0:0
36,264,127282,5,0,0:0:0
36,264,127420,2,0,B|48:104,1,140,0|4,0:0|0:0,0:0:0
69,350,130317,69,0,0:0:0
36,264,130593,1,0,0:0:0
36,264,130731,2,0,B|48:104,1,140,0|4,0:0|0:0,0:0:0
69,350,133627,5,0,0:0:0
36,264,133903,1,0,0:0:0
36,264,134041,2,0,B|48:104,1,140,0|4,0:0|0:0,0:0:0
69,350,136938,69,0,0:0:0
36,264,137214,1,0,0:0:0
36,264,137351,2,0,P|68:208|60:152|60:152|80:176,1,140,0|14,0:0|0:0,0:0:0
320,56,138593,6,0,B|344:136|316:208,1,140,2|0,0:0|0:0,0:0:0
196,128,139420,2,0,B|156:124|156:124|132:112|132:112|84:108,2,93.3333333333333,2|0|2,0:0|0:0|0:0,0:0:0
208,116,140248,54,0,B|212:172|212:172|204:220|204:220|212:276,1,140,4|8,0:0|0:0,0:0:0
256,384,141076,1,0,0:0:0
108,352,141489,1,0,0:0:0
116,260,141765,37,0,0:0:0
120,264,141903,2,0,B|80:120,1,140,0|0,0:0|0:0,0:0:0
164,80,142593,1,0,0:0:0
164,80,142731,2,0,B|232:116|312:72,1,140,0|0,0:0|0:0,0:0:0
312,220,143558,38,0,B|240:192|160:236,2,140,4|8|0,0:0|0:0|0:0,0:0:0
252,348,144800,1,0,0:0:0
172,300,145076,1,0,0:0:0
172,300,145214,2,0,B|28:344,2,140,0|0|0,0:0|0:0|0:0,0:0:0
260,264,146317,1,0,0:0:0
260,264,146455,2,0,B|292:192|272:116,1,140,0|4,0:0|0:0,0:0:0
196,76,147145,37,0,0:0:0
196,76,147282,2,0,B|184:232,1,140,4|4,0:0|0:0,0:0:0
176,356,148110,1,0,0:0:0
236,284,148386,1,0,0:0:0
236,284,148524,38,0,B|308:264|380:300,1,140,4|4,0:0|0:0,0:0:0
476,204,149351,2,0,B|396:224|332:180,1,140,8|4,0:0|0:0,0:0:0
256,192,150179,12,2,151834,0:0:0
136,72,153489,6,0,B|108:224,1,140,14|0,0:0|0:0,0:0:0
192,324,154317,2,0,B|224:164,1,140,10|0,0:0|0:0,0:0:0
272,108,155007,1,0,0:0:0
272,108,155145,2,0,B|340:72|436:120,1,140,10|0,0:0|0:0,0:0:0
472,232,155972,2,0,B|420:236|348:272,1,93.3333333333333,8|0,0:0|0:0,0:0:0
384,264,156386,2,0,B|240:240,1,140,0|8,0:0|0:0,0:0:0
152,348,157214,6,0,B|128:272|32:248,2,140,0|10|0,0:0|0:0|0:0,0:0:0
244,348,158317,1,0,0:0:0
244,348,158455,2,0,B|336:344|408:360,1,140,10|0,0:0|0:0,0:0:0
472,248,159282,1,8,0:0:0
472,248,159420,2,0,B|412:256|336:188|356:92,1,186.666666666667,2|0,0:0|0:0,0:0:0
344,120,160110,70,0,B|316:276,1,140,14|0,0:0|0:0,0:0:0
200,332,160938,2,0,B|232:172,1,140,8|0,0:0|0:0,0:0:0
236,100,161627,1,0,0:0:0
236,100,161765,2,8,B|200:28|100:36,1,140,8|0,0:0|0:0,0:0:0
148,124,162455,1,0,0:0:0
148,124,162593,2,0,B|68:104|8:144,1,140,10|0,0:0|0:0,0:0:0
12,280,163420,6,0,B|68:376|204:356|236:256,1,280,10|8,0:0|0:0,0:0:0
280,128,164662,1,0,0:0:0
212,64,164938,1,0,0:0:0
212,64,165076,70,0,B|208:12|152:36|136:104|200:148|272:100|240:-4|336:20|388:72,1,280,2|8,0:0|0:0,0:0:0
116,188,166731,6,0,B|200:172|276:192,1,140,6|0,0:0|0:0,0:0:0
376,256,167558,2,0,B|440:120,1,140,0|0,0:0|0:0,0:0:0
364,68,168248,1,0,0:0:0
364,68,168386,2,0,B|308:96|216:76,1,140,2|0,0:0|0:0,0:0:0
160,160,169076,1,0,0:0:0
160,176,169214,2,0,B|212:352,1,140,0|0,0:0|0:0,0:0:0
60,276,170041,69,0,0:0:0
60,276,170869,2,0,B|100:308|64:352|64:352|20:312|52:256|60:244|64:228|64:208|64:184|56:168,1,280,2|2,0:0|0:0,0:0:0
172,88,172110,5,0,0:0:0
260,196,172524,2,0,B|336:228|428:176,1,140,0|2,0:0|0:0,0:0:0
452,116,173214,1,0,0:0:0
452,116,173351,2,0,B|504:192|452:260|452:260|472:344,1,233.333333333333,2|0,0:0|0:0,0:0:0
470,336,174179,69,8,0:0:0
332,308,174593,2,0,B|280:300|220:320,1,93.3333333333333,2|0,0:0|0:0,0:0:0
232,320,175007,2,0,B|168:336|64:316,1,140,2|0,0:0|0:0,0:0:0
32,252,175696,1,0,0:0:0
32,252,175834,2,0,B|44:232|44:232|24:216|24:216|44:180|40:100,1,140,0|6,0:0|0:0,0:0:0
148,36,176662,6,0,B|180:168,1,93.3333333333333,8|0,0:0|0:0,0:0:0
164,136,177076,2,0,B|232:92|320:132,2,140,2|0|2,0:0|0:0|0:0,0:0:0
240,252,178317,69,8,0:0:0
312,312,178593,1,0,0:0:0
312,312,178731,2,0,B|448:284,2,140,2|0|0,0:0|0:0|0:0,0:0:0
180,356,179972,5,2,0:0:0
