osu file format v10

[General]
AudioFilename: Skrillex.mp3
AudioLeadIn: 0
PreviewTime: 85214
Countdown: 0
SampleSet: Normal
StackLeniency: 0.7
Mode: 0
LetterboxInBreaks: 0
EpilepsyWarning: 1

[Editor]
Bookmarks: 21074,30997,122869,127007
DistanceSpacing: 1
BeatDivisor: 3
GridSize: 4

[Metadata]
Title:First Of The Year (Equinox)
TitleUnicode:First Of The Year (Equinox)
Artist:Skrillex
ArtistUnicode:Skrillex
Creator:nold_1702
Version:ND1
Source:
Tags:dubstep ghost witches magic noise noisy CALL 911 NOW Foreverend Pokie Flask Regou Hotdog wub more scary monsters and sprites
BeatmapID:187639
BeatmapSetID:56791

[Difficulty]
HPDrainRate:7
CircleSize:4
OverallDifficulty:7
ApproachRate:9
SliderMultiplier:2
SliderTickRate:1

[Events]
//Background and Video events
0,0,"skrillex_by_chollo-d378sfs.jpg"
//Break Periods
2,61827,63510
2,65138,66820
2,68448,70131
2,71758,73441
2,128034,129717
2,131344,133027
2,134654,136338
//Storyboard Layer 0 (Background)
//Storyboard Layer 1 (Fail)
//Storyboard Layer 2 (Pass)
//Storyboard Layer 3 (Foreground)
Sprite,Foreground,Centre,"Storyboard\Start.png",320,240 F,0,17765,17972,0,1 M,0,17972,,465,412 F,0,17972,19420,1 F,0,19420,21076,1,0
Sprite,Foreground,Centre,"Storyboard\End02-a.png",320,240 M,0,180179,,454,415 F,0,180179,180593,0,1 F,0,180593,183282,1 F,0,183282,184110,1,0
//Storyboard Sound Samples
//Background Colour Transformations
3,100,163,162,255

[TimingPoints]
1214,413.793103448276,4,2,0,100,1,0
21076,-200,4,2,1,60,0,0
21489,-200,4,2,2,60,0,0
21627,-200,4,2,1,60,0,0
22317,-200,4,2,2,60,0,0
22455,-200,4,2,1,60,0,0
23145,-200,4,2,2,60,0,0
23282,-200,4,2,1,60,0,0
23972,-200,4,2,2,60,0,0
24110,-200,4,2,1,60,0,0
24800,-200,4,2,2,60,0,0
24938,-200,4,2,1,60,0,0
25351,-200,4,2,2,60,0,0
25765,-200,4,2,1,60,0,0
26455,-200,4,2,2,60,0,0
26593,-200,4,2,1,60,0,0
27282,-200,4,2,2,60,0,0
27420,-200,4,2,1,60,0,0
27972,-200,4,2,2,60,0,0
28386,-200,4,2,1,60,0,0
28938,-200,4,2,2,60,0,0
29076,-200,4,2,1,60,0,0
29627,-200,4,2,2,60,0,0
30041,-200,4,2,1,60,0,0
30593,-200,4,2,2,60,0,0
31007,-200,4,2,1,60,0,0
31420,-200,4,2,2,60,0,0
31696,-200,4,2,1,60,0,0
32110,-200,4,2,2,60,0,0
32386,-200,4,2,1,60,0,0
32800,-200,4,2,1,20,0,0
33076,-200,4,2,1,30,0,0
33351,-200,4,2,1,40,0,0
33627,-200,4,2,1,50,0,0
33903,-200,4,2,1,60,0,0
34179,-200,4,2,1,70,0,0
34731,-200,4,2,2,70,0,0
35145,-200,4,2,1,70,0,0
35558,-200,4,2,2,70,0,0
35696,-200,4,2,0,70,0,0
35834,-200,4,2,1,70,0,0
36386,-200,4,2,2,70,0,0
36524,-200,4,2,0,70,0,0
36662,-200,4,2,1,70,0,0
37214,-200,4,2,2,70,0,0
37489,-200,4,2,1,70,0,0
38041,-200,4,2,2,70,0,0
38317,-200,4,2,1,70,0,0
38869,-200,4,2,2,70,0,0
39007,-200,4,2,0,70,0,0
39145,-200,4,2,1,70,0,0
39696,-200,4,2,2,70,0,0
39834,-200,4,2,0,70,0,0
39972,-200,4,2,1,70,0,0
40248,-200,4,2,0,70,0,0
40386,-200,4,2,2,70,0,0
40524,-100,4,2,2,70,0,0
40662,-100,4,2,0,70,0,0
40800,-100,4,2,2,70,0,0
40938,-200,4,2,1,70,0,0
41351,-200,4,2,2,70,0,0
41627,-200,4,2,1,70,0,0
41903,-200,4,2,2,70,0,0
42593,-200,4,2,1,70,0,0
43007,-200,4,2,2,70,0,0
43282,-200,4,2,1,70,0,0
43834,-200,4,2,2,70,0,0
44248,-200,4,2,1,70,0,0
44662,-200,4,2,2,70,0,0
44800,-200,4,2,0,70,0,0
44938,-200,4,2,1,70,0,0
45489,-200,4,2,2,70,0,0
45903,-200,4,2,1,70,0,0
46317,-200,4,2,2,70,0,0
46731,-200,4,2,1,70,0,0
46869,-200,4,2,0,70,0,0
47007,-200,4,2,2,70,0,0
47558,-200,4,2,1,70,0,0
47972,-200,4,2,2,70,0,0
48386,-200,4,2,1,70,0,0
48800,-200,4,2,2,70,0,0
48938,-200,4,2,0,70,0,0
49076,-200,4,2,2,70,0,0
49214,-200,4,2,1,70,0,0
49627,-200,4,2,2,70,0,0
50041,-100,4,2,1,70,0,0
50179,-200,4,2,0,70,0,0
50317,-200,4,2,2,70,0,0
50869,-200,4,2,1,70,0,0
51282,-200,4,2,2,70,0,0
51696,-200,4,2,1,70,0,0
52110,-200,4,2,2,70,0,0
52248,-200,4,2,1,70,0,0
52524,-133.333333333333,4,2,1,70,0,0
52731,-133.333333333333,4,2,0,70,0,0
52800,-100,4,2,2,70,0,0
53007,-100,4,2,1,70,0,0
53214,-100,4,2,0,70,0,0
53351,-100,4,2,1,70,0,0
53558,-100,4,2,0,70,0,0
53627,-83.3333333333333,4,2,2,70,0,0
54179,-200,4,2,1,70,0,0
54593,-200,4,2,2,70,0,0
55007,-200,4,2,1,70,0,0
55420,-200,4,2,2,70,0,0
55834,-200,4,2,1,70,0,0
56248,-200,4,2,2,70,0,0
56524,-200,4,2,1,70,0,0
57076,-200,4,2,2,70,0,0
57282,-200,4,2,0,70,0,0
57489,-200,4,1,1,70,0,0
59007,-100,4,1,1,70,0,0
59696,-100,4,2,1,90,0,0
59834,-100,4,1,1,70,0,0
59972,-100,4,2,1,90,0,0
60110,-100,4,1,1,70,0,0
60248,-100,4,2,0,90,0,0
60386,-100,4,1,1,70,0,0
60524,-100,4,2,2,70,0,0
60662,-100,4,1,1,70,0,0
60800,-100,4,1,1,70,0,0
61627,-100,4,2,2,100,0,0
63696,-100,4,1,1,70,0,0
64938,-100,4,2,2,100,0,0
67145,-100,4,1,1,70,0,0
68248,-100,4,2,2,100,0,0
70455,-100,4,1,1,70,0,0
71558,-100,4,2,2,100,0,0
73214,-100,4,1,1,70,0,0
74869,-100,4,1,1,40,0,0
75834,-100,4,2,0,100,0,0
77351,-100,4,1,1,70,0,0
78179,-100,4,1,1,40,0,0
79007,-100,4,2,0,70,0,0
80662,-100,4,1,1,70,0,0
81076,-100,4,1,2,70,0,0
81489,-100,4,1,1,70,0,0
82317,-100,4,1,2,70,0,0
82731,-100,4,1,1,70,0,0
84386,-100,4,1,2,70,0,0
84800,-100,4,1,1,70,0,0
85696,-100,4,1,1,100,0,0
87282,-100,4,1,2,70,0,1
87351,-100,4,1,2,70,0,0
87558,-100,4,1,1,70,0,0
88110,-66.6666666666667,4,1,1,70,0,0
89765,-133.333333333333,4,1,1,70,0,0
91420,-66.6666666666667,4,1,1,70,0,0
92938,-200,4,1,1,70,0,0
93076,-66.6666666666667,4,1,1,70,0,0
93903,-100,4,1,1,70,0,0
94731,-66.6666666666667,4,1,1,70,0,0
95076,-66.6666666666667,4,2,0,70,0,0
95145,-66.6666666666667,4,1,1,70,0,0
96386,-133.333333333333,4,1,1,70,0,0
97214,-66.6666666666667,4,1,1,70,0,0
98869,-133.333333333333,4,1,1,70,0,0
100524,-100,4,1,1,70,0,0
101351,-100,4,2,1,70,0,0
101489,-100,4,2,2,100,0,0
102179,-100,4,2,1,80,0,0
102317,-100,4,2,0,80,0,0
103007,-100,4,2,1,80,0,0
103834,-200,4,1,1,80,0,0
104662,-200,4,1,1,100,0,0
104800,-200,4,1,1,80,0,0
104938,-200,4,1,1,70,0,0
105076,-200,4,1,1,60,0,0
105214,-200,4,1,1,50,0,0
105351,-200,4,1,1,40,0,0
105489,-66.6666666666667,4,1,1,80,0,0
107145,-133.333333333333,4,1,1,80,0,0
110041,-66.6666666666667,4,1,1,80,0,0
110179,-66.6666666666667,4,2,0,80,0,0
110317,-66.6666666666667,4,1,1,80,0,0
112110,-133.333333333333,4,1,1,80,0,0
112938,-100,4,1,1,80,0,0
113765,-133.333333333333,4,1,1,80,0,0
115420,-100,4,1,1,80,0,0
116593,-100,4,2,0,80,0,0
116662,-66.6666666666667,4,1,1,80,0,0
117076,-133.333333333333,4,1,1,80,0,0
117903,-100,4,1,1,80,0,0
118593,-66.6666666666667,4,1,1,80,0,0
120386,-133.333333333333,4,1,1,80,0,0
121214,-66.6666666666667,4,1,1,80,0,0
122869,-133.333333333333,4,1,1,80,0,0
123282,-66.6666666666667,4,1,1,80,0,0
123420,-66.6666666666667,4,2,0,80,0,0
123558,-100,4,1,1,80,0,0
124110,-200,4,1,1,80,0,0
124524,-83.3333333333333,4,1,1,80,0,0
124869,-83.3333333333333,4,2,0,80,0,0
124938,-83.3333333333333,4,1,1,80,0,0
125351,-133.333333333333,4,1,1,80,0,0
126179,-100,4,2,1,80,0,0
127007,-100,4,1,1,70,0,0
127007,-100,4,1,1,80,0,0
127834,-100,4,2,2,100,0,0
130041,-100,4,1,1,70,0,0
131145,-100,4,2,2,100,0,0
133627,-100,4,1,1,70,0,0
134455,-100,4,2,2,100,0,0
136938,-100,4,1,1,70,0,0
137765,-100,4,2,2,100,0,0
138179,-100,4,2,0,70,0,0
140248,-100,4,1,1,70,0,0
141076,-100,4,1,1,40,0,0
142179,-100,4,2,0,100,0,0
143558,-100,4,1,1,60,0,0
144386,-100,4,1,1,40,0,0
145214,-100,4,1,1,70,0,0
147282,-100,4,1,2,70,0,0
147420,-100,4,1,1,70,0,0
148524,-100,4,1,2,70,0,0
148662,-100,4,1,1,70,0,0
149351,-100,4,1,1,40,0,0
149903,-100,4,1,1,70,0,0
150593,-100,4,1,2,70,0,0
150731,-100,4,1,1,70,0,0
151903,-100,4,1,1,100,0,0
153489,-100,4,1,2,80,0,1
153558,-100,4,1,1,80,0,0
154317,-66.6666666666667,4,1,1,80,0,0
156800,-100,4,1,1,80,0,0
157627,-66.6666666666667,4,1,1,80,0,0
159282,-58.8235294117647,4,1,1,80,0,0
160110,-133.333333333333,4,1,1,80,0,0
160938,-66.6666666666667,4,1,1,80,0,0
162593,-133.333333333333,4,1,1,80,0,0
163420,-66.6666666666667,4,1,1,80,0,0
165076,-200,4,1,1,80,0,0
166731,-100,4,1,1,80,0,0
167558,-100,4,2,1,100,0,0
167834,-100,4,2,0,100,0,0
168317,-100,4,2,2,100,0,0
168455,-100,4,2,0,100,0,0
169214,-100,4,1,1,80,0,0
169627,-66.6666666666667,4,1,1,80,0,0
170041,-133.333333333333,4,1,1,80,0,0
171696,-66.6666666666667,4,1,1,80,0,0
173351,-133.333333333333,4,1,1,80,0,0
174179,-66.6666666666667,4,1,1,80,0,0
175834,-133.333333333333,4,1,1,80,0,0
176248,-66.6666666666667,4,1,1,80,0,0
176386,-66.6666666666667,4,2,0,80,0,0
176524,-66.6666666666667,4,1,1,80,0,0
178317,-100,4,1,1,80,0,0
179007,-100,4,1,1,80,0,0
179420,-133.333333333333,4,1,1,80,0,0
179558,-200,4,1,1,80,0,0
179972,-100,4,2,1,80,0,0

[Colours]
Combo1 : 128,0,128
Combo2 : 0,128,128
Combo3 : 0,128,64
Combo4 : 128,255,128
Combo5 : 255,0,0
Combo6 : 255,255,255
Combo7 : 0,128,255
Combo8 : 217,0,108

[HitObjects]
188,212,21076,6,0,B|216:212|272:204,1,66.6666666666667,6|0,0:0|0:0,0:0:0
200,112,21489,2,0,B|186:87|151:43,1,66.6666666666667,2|0,0:0|0:0,0:0:0
107,151,21903,2,0,B|92:175|71:227,1,66.6666666666667,12|0,0:0|0:0,0:0:0
40,304,22317,1,2,0:0:0
220,348,22593,1,0,0:0:0
220,348,22731,6,0,B|256:340|304:320,1,66.6666666666667,2|0,0:0|0:0,0:0:0
328,172,23145,2,0,B|316:207|310:258,1,66.6666666666667,2|0,0:0|0:0,0:0:0
426,353,23558,2,0,B|401:325|359:294,1,66.6666666666667,12|0,0:0|0:0,0:0:0
313,237,23972,1,2,0:0:0
472,128,24248,1,0,0:0:0
472,128,24386,6,0,B|466:38,1,66.6666666666667,2|0,0:0|0:0,0:0:0
348,144,24800,2,0,B|342:54,1,66.6666666666667,2|0,0:0|0:0,0:0:0
224,124,25214,2,0,B|218:34,1,66.6666666666667,12|0,0:0|0:0,0:0:0
108,120,25627,1,2,0:0:0
72,292,25903,1,0,0:0:0
140,348,26041,86,0,B|112:380|64:384,1,66.6666666666667,2|0,0:0|0:0,0:0:0
4,240,26455,2,0,B|32:208|80:204,1,66.6666666666667,2|0,0:0|0:0,0:0:0
108,55,26869,2,0,B|121:95|101:138,1,66.6666666666667,12|0,0:0|0:0,0:0:0
158,204,27282,2,0,B|172:226|214:236,1,66.6666666666667,2|0,0:0|0:0,0:0:0
240,88,27696,6,0,B|220:160,1,66.6666666666667,2|0,0:0|0:0,0:0:0
336,104,28110,2,0,B|331:178,1,66.6666666666667,2|0,0:0|0:0,0:0:0
433,99,28524,2,0,B|444:172,1,66.6666666666667,12|0,0:0|0:0,0:0:0
472,248,28938,1,2,0:0:0
328,356,29214,1,0,0:0:0
328,356,29351,6,0,B|240:344,1,66.6666666666667,2|0,0:0|0:0,0:0:0
96,296,29765,2,0,B|184:284,1,66.6666666666667,2|0,0:0|0:0,0:0:0
360,240,30179,2,0,B|272:228,1,66.6666666666667,12|0,0:0|0:0,0:0:0
204,176,30593,1,2,0:0:0
20,152,30869,1,0,0:0:0
20,152,31007,86,0,B|8:112|48:68,1,66.6666666666667,2|0,0:0|0:0,0:0:0
128,116,31420,2,0,B|164:84|156:36,1,66.6666666666667,2|0,0:0|0:0,0:0:0
272,124,31834,2,0,B|276:156|284:200,1,66.6666666666667,12|0,0:0|0:0,0:0:0
432,172,32248,2,0,B|412:200|386:234,1,66.6666666666667,2|0,0:0|0:0,0:0:0
344,316,32662,5,2,0:0:0
256,192,32800,12,0,34179,0:0:0
228,288,34317,6,0,B|208:252|188:208,1,66.6666666666667,6|0,0:0|0:0,0:0:0
104,288,34731,2,0,B|100:246|99:198,1,66.6666666666667,2|0,0:0|0:0,0:0:0
0,224,35145,2,0,B|13:185|32:140,1,66.6666666666667,12|0,0:0|0:0,0:0:0
40,36,35558,1,2,0:0:0
104,80,35696,1,2,0:0:0
180,80,35834,1,0,0:0:0
288,132,35972,86,0,B|330:129|375:100,1,66.6666666666667,2|0,0:0|0:0,0:0:0
408,0,36386,2,0,B|416:56,1,33.3333333333333,2|2,0:0|0:0,0:0:0
468,140,36662,1,0,0:0:0
428,248,36800,2,0,B|432:288|440:340,1,66.6666666666667,12|0,0:0|0:0,0:0:0
296,198,37214,2,0,B|292:158|284:106,1,66.6666666666667,2|0,0:0|0:0,0:0:0
204,296,37627,6,0,B|208:336|216:388,1,66.6666666666667,2|0,0:0|0:0,0:0:0
104,284,38041,2,0,B|67:267|18:248,1,66.6666666666667,2|0,0:0|0:0,0:0:0
164,203,38455,2,0,B|197:179|256:132,1,100,12|0,0:0|0:0,0:0:0
280,8,39007,2,0,B|292:56,1,33.3333333333333,2|0,0:0|0:0,0:0:0
364,128,39282,6,0,B|420:136|452:144,1,66.6666666666667,2|0,0:0|0:0,0:0:0
496,232,39696,1,2,0:0:0
436,304,39834,1,0,0:0:0
344,304,39972,1,0,0:0:0
344,304,40110,2,0,B|296:332,1,33.3333333333333,12|0,0:0|0:0,0:0:0
216,356,40386,1,0,0:0:0
216,356,40524,6,0,B|200:248,1,66.6666666666667,2|0,0:0|0:0,0:0:0
140,216,40800,69,2,0:0:0
140,216,40938,1,2,0:0:0
36,92,41214,1,0,0:0:0
36,92,41351,2,0,B|32:44|28:4,1,66.6666666666667,2|0,0:0|0:0,0:0:0
108,48,41765,1,12,0:0:0
188,56,42179,1,2,0:0:0
256,104,42455,1,2,0:0:0
256,104,42593,6,0,B|276:136|280:180,1,66.6666666666667,2|0,0:0|0:0,0:0:0
196,328,43007,2,0,B|213:294|249:269,1,66.6666666666667,2|0,0:0|0:0,0:0:0
164,188,43420,2,0,B|100:188|44:156,1,100,12|2,0:0|0:0,0:0:0
92,332,44110,2,0,B|83:334|76:336,1,16.6666666666667
64,336,44248,6,0,B|97:344|145:328,1,66.6666666666667,2|0,0:0|0:0,0:0:0
28,256,44662,1,2,0:0:0
28,256,44800,2,0,B|12:196,1,33.3333333333333
160,140,45076,2,0,B|127:132|79:148,1,66.6666666666667,12|0,0:0|0:0,0:0:0
16,40,45489,1,2,0:0:0
132,224,45765,1,2,0:0:0
216,264,45903,86,0,B|224:316|236:388,1,100,2|2,0:0|0:0,0:0:0
332,128,46593,1,0,0:0:0
332,128,46731,2,0,B|356:184,1,33.3333333333333,12|0,0:0|0:0,0:0:0
412,60,47007,2,0,B|424:0,1,33.3333333333333
488,128,47282,2,0,B|496:192,1,50
500,192,47558,6,0,B|473:222|425:214,1,66.6666666666667,6|0,0:0|0:0,0:0:0
337,223,47972,2,0,B|324:184|355:147,1,66.6666666666667,2|0,0:0|0:0,0:0:0
392,68,48386,2,0,B|431:76|448:121,1,66.6666666666667,12|0,0:0|0:0,0:0:0
440,216,48800,2,0,B|456:272,1,33.3333333333333,2|0,0:0|0:0,0:0:0
428,344,49076,1,2,0:0:0
428,344,49214,6,0,B|396:352|364:360,1,66.6666666666667,2|0,0:0|0:0,0:0:0
272,272,49627,2,0,B|264:240|256:208,1,66.6666666666667,2|0,0:0|0:0,0:0:0
184,344,50041,6,0,B|152:352|112:360,1,66.6666666666667,12|2,0:0|0:0,0:0:0
40,292,50317,5,0,0:0:0
112,216,50455,2,0,B|106:176|103:122,1,66.6666666666667,2|0,0:0|0:0,0:0:0
244,100,50869,54,0,B|250:140|253:194,1,66.6666666666667,2|0,0:0|0:0,0:0:0
396,204,51282,2,0,B|390:164|387:110,1,66.6666666666667,2|0,0:0|0:0,0:0:0
368,320,51696,2,0,B|314:327|262:329,1,100,12|2,0:0|0:0,0:0:0
48,368,52386,1,0,0:0:0
48,368,52524,6,0,B|40:292,1,75.0000028610231,2|0,0:0|0:0,0:0:0
80,200,52800,22,0,B|124:192|176:184,1,66.6666666666667,0|2,0:0|0:0,0:0:0
228,52,53076,2,0,B|152:68,1,66.6666666666667
308,172,53351,6,0,B|404:152,1,100,12|0,0:0|0:0,0:0:0
472,200,53627,102,0,B|476:240|484:296,1,79.9999975585938,0|2,0:0|0:0,0:0:0
452,356,53903,1,0,0:0:0
452,356,54041,1,0,0:0:0
336,320,54179,102,0,B|280:340|256:348,1,66.6666666666667,2|0,0:0|0:0,0:0:0
176,216,54593,2,0,B|120:196|96:188,1,66.6666666666667,2|0,0:0|0:0,0:0:0
16,80,55007,2,0,B|104:60|132:48,1,100,12|2,0:0|0:0,0:0:0
316,112,55696,1,0,0:0:0
316,112,55834,86,0,B|320:144|332:184,1,66.6666666666667,2|0,0:0|0:0,0:0:0
360,292,56248,2,0,B|385:272|414:242,1,66.6666666666667,2|0,0:0|0:0,0:0:0
494,164,56662,2,0,B|450:139|388:119,1,100,12|2,0:0|0:0,0:0:0
244,29,57282,6,0,B|248:75,1,33.3333333333333,2|0,0:0|0:0,0:0:0
248,76,57489,1,8,0:0:0
140,200,57903,1,8,0:0:0
264,308,58317,1,12,0:0:0
372,184,58731,1,8,0:0:0
248,76,59145,101,8,0:0:0
159,256,59282,1,8,0:0:0
360,243,59420,1,8,0:0:0
352,127,59558,6,0,B|384:104|410:94,1,66.6666666666667,0|12,0:0|0:0,0:0:0
264,307,59834,2,0,B|268:346|263:374,1,66.6666666666667,8|12,0:0|0:0,0:0:0
151,141,60110,2,0,B|115:125|94:107,1,66.6666666666667,8|0,0:0|0:0,0:0:0
260,196,60386,5,8,0:0:0
260,196,60524,1,2,0:0:0
260,196,60662,1,12,0:0:0
260,196,60800,86,0,B|320:224|392:252,1,133.333333333333,12|8,0:0|0:0,0:0:0
432,336,61214,2,0,B|454:273|485:203,1,133.333333333333,8|8,0:0|0:0,0:0:0
396,120,61627,1,6,0:0:0
28,228,64110,6,0,B|92:208|196:180,1,133.333333333333,12|8,0:0|0:0,0:0:0
212,60,64524,2,0,B|148:80|44:108,1,133.333333333333,8|8,0:0|0:0,0:0:0
12,32,64938,1,6,0:0:0
160,152,67420,6,0,B|142:229|212:299,1,133.333333333333,12|8,0:0|0:0,0:0:0
352,232,67834,2,0,B|369:154|299:84,1,133.333333333333,8|8,0:0|0:0,0:0:0
256,192,68248,1,6,0:0:0
428,32,70731,86,0,B|456:144|468:200,1,133.333333333333,12|8,0:0|0:0,0:0:0
400,308,71145,2,0,B|396:290|368:178,1,133.333333333333,8|8,0:0|0:0,0:0:0
280,68,71558,1,14,0:0:0
20,248,74041,70,2,B|76:228|176:196,1,133.333333333333,14|8,0:0|0:0,0:0:0
232,160,74455,2,2,B|212:88|192:20,1,133.333333333333,10|0,0:0|0:0,0:0:0
352,40,74869,38,2,B|344:80,5,33.3333333333333
436,112,75282,2,2,B|444:160,5,33.3333333333333
464,220,75696,69,2,0:0:0
464,220,76110,37,2,0:0:0
404,340,76248,1,2,0:0:0
280,288,76386,1,2,0:0:0
192,348,76524,70,2,B|144:364,5,33.3333333333333
144,272,76938,2,0,B|112:260,5,33.3333333333333,2|2|2|2|2|2,0:0|0:0|0:0|0:0|0:0|0:0,0:0:0
28,276,77351,38,2,B|16:208|4:128,1,133.333333333333,14|8,0:0|0:0,0:0:0
112,136,77765,2,2,B|180:120|264:96,1,133.333333333333,10|0,0:0|0:0,0:0:0
312,180,78179,70,2,B|304:220,5,33.3333333333333,2|2|2|2|2|2,0:0|0:0|0:0|0:0|0:0|0:0,0:0:0
244,288,78593,2,2,B|252:336,5,33.3333333333333
324,360,79007,38,0,B|380:330|479:286,1,133.333333333333,2|2,0:0|0:0,0:0:0
472,160,79420,2,0,B|444:80,1,66.6666666666667,2|2,0:0|0:0,0:0:0
344,32,79696,1,2,0:0:0
344,32,79834,2,0,B|280:48|200:68,1,133.333333333333,2|2,0:0|0:0,0:0:0
88,32,80248,1,2,0:0:0
116,128,80386,1,2,0:0:0
144,224,80524,1,2,0:0:0
64,352,80662,70,2,B|136:364|240:372,1,133.333333333333,14|8,0:0|0:0,0:0:0
368,372,81076,2,2,B|342:303|297:209,1,133.333333333333,14|0,0:0|0:0,0:0:0
233,98,81489,2,2,B|186:154|127:240,1,133.333333333333,6|4,0:0|0:0,0:0:0
312,168,81903,1,4,0:0:0
400,212,82041,1,8,0:0:0
488,164,82179,1,8,0:0:0
484,64,82317,38,2,B|376:56|328:52,1,133.333333333333,14|0,0:0|0:0,0:0:0
165,26,82731,1,4,0:0:0
233,98,82869,1,4,0:0:0
240,196,83007,1,8,0:0:0
188,280,83145,2,2,B|144:288,5,33.3333333333333,8|0|0|0|0|0,0:0|0:0|0:0|0:0|0:0|0:0,0:0:0
128,292,83558,1,8,0:0:0
264,360,83765,1,0,0:0:0
264,360,83834,2,2,B|300:364|344:368,1,66.6666666666667,4|4,0:0|0:0,0:0:0
424,324,84110,69,8,0:0:0
460,232,84248,1,8,0:0:0
420,140,84386,2,4,B|360:148|304:160,1,100,12|6,0:0|0:0,0:0:0
220,44,84800,1,4,0:0:0
220,44,84869,2,2,B|128:56|104:60,1,100,10|4,0:0|0:0,0:0:0
16,184,85214,1,4,0:0:0
116,168,85351,1,8,0:0:0
200,224,85489,1,4,0:0:0
216,324,85627,85,2,0:0:0
256,192,85696,12,4,87145,0:0:0
12,128,87282,38,0,B|72:108|160:80,1,133.333333333333,12|0,0:0|0:0,0:0:0
392,100,87696,2,0,B|325:121|265:141,1,133.333333333333,8|0,0:0|0:0,0:0:0
64,228,88110,70,2,B|40:272|32:348,1,100.000003814697,14|2,0:0|0:0,0:0:0
140,312,88386,1,0,0:0:0
140,312,88524,2,0,B|184:288|260:280,1,100.000003814697,8|8,0:0|0:0,0:0:0
192,156,88800,1,8,0:0:0
284,168,88938,2,2,B|216:112|136:124|136:124|108:64,1,200.000007629395,10|0,0:0|0:0,0:0:0
400,120,89351,1,8,0:0:0
240,44,89489,1,8,0:0:0
356,8,89627,1,8,0:0:0
284,168,89765,6,0,B|264:216|244:296,1,100.000003814697,12|0,0:0|0:0,0:0:0
376,240,90179,2,0,B|424:260|504:280,1,100.000003814697,8|8,0:0|0:0,0:0:0
400,120,90593,2,0,B|408:104|408:104|416:100|416:100|412:92|412:92|420:64|440:20,1,100.000003814697,8|0,0:0|0:0,0:0:0
312,56,91007,2,0,B|296:48|296:48|292:40|292:40|284:44|284:44|256:36|212:16,1,100.000003814697,8|0,0:0|0:0,0:0:0
120,36,91420,102,2,B|132:124|156:260,1,200.000007629395,10|0,0:0|0:0,0:0:0
240,276,91834,2,2,B|224:336|152:344|136:324,1,100.000003814697,2|2,0:0|0:0,0:0:0
56,256,92110,1,2,0:0:0
56,256,92248,2,2,B|8:196|40:96|112:80,1,200.000007629395,10|0,0:0|0:0,0:0:0
252,104,92662,1,8,0:0:0
252,104,92938,6,0,B|312:80,1,33.3333333333333,0|12,0:0|0:0,0:0:0
404,64,93214,102,2,B|432:120,9,50.0000019073487
472,184,93903,54,2,B|432:232|376:316,1,133.333333333333,10|0,0:0|0:0,0:0:0
320,368,94317,2,2,B|298:309|253:218,1,133.333333333333,0|0,0:0|0:0,0:0:0
236,144,94731,54,2,B|352:164|504:176,1,250.000009536744,10|0,0:0|0:0,0:0:0
484,174,95145,1,14,0:0:0
356,64,95282,1,8,0:0:0
325,231,95420,1,10,0:0:0
414,229,95558,37,10,0:0:0
439,97,95696,1,8,0:0:0
311,142,95833,1,10,0:0:0
441,166,95972,5,10,0:0:0
370,104,96109,1,8,0:0:0
352,198,96247,1,10,0:0:0
208,76,96386,70,2,B|208:84|208:84|204:76|204:76|204:84|204:84|200:76|200:76|200:84|200:84|196:76|196:76|196:84|196:84|196:112|196:112|156:160|104:120|88:68|132:32|152:40,1,250.000009536744,12|0,0:0|0:0,0:0:0
32,232,97214,102,2,B|111:248|238:280,1,200.000007629395,10|0,0:0|0:0,0:0:0
288,384,97627,2,2,B|318:268|334:189,1,200.000007629395,10|0,0:0|0:0,0:0:0
336,68,98041,2,2,B|276:52|212:32,1,100.000003814697,14|2,0:0|0:0,0:0:0
20,200,98317,1,2,0:0:0
116,32,98455,1,2,0:0:0
136,228,98593,1,2,0:0:0
4,80,98731,1,2,0:0:0
196,124,98869,6,0,B|240:160|280:200,1,100.000003814697,8|0,0:0|0:0,0:0:0
380,272,99282,2,0,B|326:292|272:306,1,100.000003814697,12|0,0:0|0:0,0:0:0
159,357,99696,2,0,B|168:300|182:246,1,100.000003814697,8|0,0:0|0:0,0:0:0
104,152,100110,2,0,B|88:148|56:128|48:88,1,75.0000028610231
104,152,100524,38,0,B|32:120|48:36,1,133.333333333333,8|0,0:0|0:0,0:0:0
188,64,100938,2,0,B|251:17|316:73,1,133.333333333333,0|0,0:0|0:0,0:0:0
222,180,101351,2,0,B|230:258|149:286,1,133.333333333333,12|0,0:0|0:0,0:0:0
64,312,101765,2,0,B|19:340|29:392,2,66.6666666666667,2|2|0,0:0|0:0|0:0,0:0:0
104,152,102179,102,0,B|102:99|52:81,2,66.6666666666667,2|2|2,0:0|0:0|0:0,0:0:0
224,268,102593,2,0,B|270:292|310:258,2,66.6666666666667,2|2|2,0:0|0:0|0:0,0:0:0
222,180,103007,2,0,B|202:92|182:20,1,133.333333333333,12|0,0:0|0:0,0:0:0
312,80,103420,2,0,B|398:106|470:125,1,133.333333333333,2|0,0:0|0:0,0:0:0
468,216,103834,86,2,B|476:260|488:328,1,100,8|0,0:0|0:0,0:0:0
485,314,104662,2,2,B|400:332|296:360,1,166.666666666667,10|0,0:0|0:0,0:0:0
234,339,105489,102,2,B|224:254|208:128,1,200.000007629395,10|0,0:0|0:0,0:0:0
120,176,105903,2,2,B|134:289|144:374,1,200.000007629395,10|0,0:0|0:0,0:0:0
320,272,106317,2,2,B|310:187|294:61,1,200.000007629395,14|0,0:0|0:0,0:0:0
68,16,106731,1,2,0:0:0
20,128,106869,1,2,0:0:0
12,248,107007,1,2,0:0:0
128,344,107145,6,2,B|192:352|260:356,1,100.000003814697,8|0,0:0|0:0,0:0:0
362,363,107558,2,2,B|336:303|306:242,1,100.000003814697,0|0,0:0|0:0,0:0:0
192,220,107972,21,12,0:0:0
248,168,108110,1,10,0:0:0
174,145,108248,1,10,0:0:0
192,220,108386,5,10,0:0:0
320,187,108524,1,10,0:0:0
228,92,108662,1,10,0:0:0
268,244,108800,101,10,0:0:0
300,112,108938,1,10,0:0:0
174,145,109076,1,10,0:0:0
278,282,109214,5,10,0:0:0
326,84,109352,1,10,0:0:0
137,134,109490,1,10,0:0:0
278,282,109627,70,2,B|296:340|312:388,1,100.000003814697,14|0,0:0|0:0,0:0:0
452,312,110041,102,2,B|434:254|418:206,1,100.000003814697,2|0,0:0|0:0,0:0:0
421,216,110455,1,8,0:0:0
328,184,110593,1,8,0:0:0
328,84,110731,1,8,0:0:0
424,112,110869,2,2,B|342:177|218:190,1,200.000007629395,10|0,0:0|0:0,0:0:0
32,60,111282,37,12,0:0:0
124,180,111420,1,10,0:0:0
4,136,111558,1,10,0:0:0
152,108,111696,5,10,0:0:0
48,200,111834,1,10,0:0:0
104,48,111972,1,10,0:0:0
196,336,112110,70,0,B|248:332|292:312,1,100.000003814697,8|0,0:0|0:0,0:0:0
504,312,112524,2,0,B|474:268|435:240,1,100.000003814697,8|0,0:0|0:0,0:0:0
304,156,112938,22,0,B|232:148|160:104,1,133.333333333333,8|8,0:0|0:0,0:0:0
112,24,113351,2,0,B|84:76|60:168,1,133.333333333333,8|8,0:0|0:0,0:0:0
36,336,113765,86,2,B|60:360|60:360|100:336|100:336|120:376|188:384|188:384|208:340|224:312|200:268,1,300.000011444092,10|12,0:0|0:0,0:0:0
296,228,114731,1,2,0:0:0
315,338,114869,1,2,0:0:0
190,303,115007,37,2,0:0:0
303,208,115145,1,2,0:0:0
328,353,115283,1,2,0:0:0
272,288,115420,101,10,0:0:0
332,122,115558,1,2,0:0:0
157,152,115696,1,2,0:0:0
348,222,115834,5,2,0:0:0
236,85,115972,1,2,0:0:0
175,252,116110,1,2,0:0:0
12,204,116248,70,2,B|20:280|32:400,1,166.666666666667,10|0,0:0|0:0,0:0:0
28,369,116662,102,2,B|92:368|172:356,1,100.000003814697,10|2,0:0|0:0,0:0:0
272,288,116938,1,2,0:0:0
448,344,117076,6,2,B|468:336|468:336|444:312|444:312|476:312|476:312|440:284|440:284|476:272|476:272|504:240|452:156,1,250.000009536744,8|0,0:0|0:0,0:0:0
320,40,117903,22,2,B|348:172|356:200,2,133.333333333333,10|2|2,0:0|0:0|0:0,0:0:0
224,168,118731,70,2,B|127:218|14:128|31:77,1,200.000007629395,10|0,0:0|0:0,0:0:0
176,324,119145,2,2,B|244:288|244:288|292:316|292:316|360:288,1,200.000007629395,10|0,0:0|0:0,0:0:0
480,364,119558,2,2,B|472:256|448:120,1,200.000007629395,10|0,0:0|0:0,0:0:0
352,32,119972,1,2,0:0:0
224,112,120110,1,2,0:0:0
80,76,120248,1,2,0:0:0
24,180,120386,6,0,B|52:272|64:308,1,100.000003814697,8|0,0:0|0:0,0:0:0
136,352,120800,2,0,B|228:324|268:314,1,100.000003814697,0|0,0:0|0:0,0:0:0
388,344,121214,21,12,0:0:0
484,216,121351,1,2,0:0:0
308,308,121489,1,2,0:0:0
468,300,121627,5,2,0:0:0
292,224,121765,1,2,0:0:0
424,152,121903,1,2,0:0:0
412,240,122041,101,2,0:0:0
232,168,122179,1,2,0:0:0
416,64,122317,1,2,0:0:0
352,176,122455,5,2,0:0:0
216,80,122593,1,2,0:0:0
352,8,122731,1,2,0:0:0
112,64,122869,70,2,B|72:120|32:168,1,100.000003814697,14|0,0:0|0:0,0:0:0
0,340,123282,102,2,B|20:316|60:260,1,100.000003814697,2|0,0:0|0:0,0:0:0
59,260,123696,37,8,0:0:0
168,344,123834,1,8,0:0:0
312,320,123972,1,8,0:0:0
436,356,124110,85,8,0:0:0
432,336,124248,1,8,0:0:0
428,316,124386,1,8,0:0:0
492,140,124524,102,2,B|416:164|272:200,1,199.999993896485,10|0,0:0|0:0,0:0:0
299,193,124938,2,0,B|300:144|296:76,1,79.9999975585938,2|2,0:0|0:0,0:0:0
212,248,125214,1,2,0:0:0
212,248,125351,6,0,B|169:271|92:320,1,100.000003814697,8|0,0:0|0:0,0:0:0
308,292,125765,2,4,B|349:317|430:359,1,100.000003814697,12|0,0:0|0:0,0:0:0
480,224,126179,22,0,B|464:152|448:52,1,133.333333333333,14|2,0:0|0:0,0:0:0
240,72,126593,2,0,B|310:62|412:40,1,133.333333333333,2|2,0:0|0:0,0:0:0
128,60,127007,6,0,B|150:122|181:192,1,133.333333333333,12|8,0:0|0:0,0:0:0
104,316,127421,2,0,B|75:255|47:184,1,133.333333333333,0|8,0:0|0:0,0:0:0
216,272,127834,1,6,0:0:0
216,272,130317,102,0,B|292:276|348:219,1,133.333333333333,12|8,0:0|0:0,0:0:0
176,352,130731,2,0,B|108:344|32:332,1,133.333333333333,8|8,0:0|0:0,0:0:0
112,224,131144,1,6,0:0:0
464,92,133627,6,0,B|396:116|332:145,1,133.333333333333,12|8,0:0|0:0,0:0:0
260,216,134041,2,0,B|268:148|280:72,1,133.333333333333,8|8,0:0|0:0,0:0:0
344,28,134454,1,6,0:0:0
156,268,136938,102,0,B|72:304|12:324,1,133.333333333333,12|8,0:0|0:0,0:0:0
196,196,137351,2,0,B|206:105|219:43,1,133.333333333333,8|8,0:0|0:0,0:0:0
239,267,137765,1,14,0:0:0
239,267,138593,5,2,0:0:0
312,296,139007,1,0,0:0:0
385,325,139420,85,2,0:0:0
392,320,139696,1,0,0:0:0
400,316,139972,1,2,0:0:0
412,196,140248,38,2,B|428:108|444:44,1,133.333333333333,14|10,0:0|0:0,0:0:0
304,76,140662,2,2,B|219:106|156:124,1,133.333333333333,10|8,0:0|0:0,0:0:0
56,24,141076,2,0,B|64:64,5,33.3333333333333,2|2|2|2|2|2,0:0|0:0|0:0|0:0|0:0|0:0,0:0:0
16,136,141489,2,0,B|12:184,5,33.3333333333333,2|2|2|2|2|2,0:0|0:0|0:0|0:0|0:0|0:0,0:0:0
88,244,141903,69,2,0:0:0
100,232,142317,37,2,0:0:0
232,228,142455,1,2,0:0:0
296,344,142593,1,2,0:0:0
376,300,142731,70,0,B|396:296|424:280,5,33.3333333333333,2|2|2|2|2|2,0:0|0:0|0:0|0:0|0:0|0:0,0:0:0
324,216,143145,2,0,B|300:204|296:188,5,33.3333333333333,2|2|2|2|2|2,0:0|0:0|0:0|0:0|0:0|0:0,0:0:0
396,132,143558,38,2,B|368:40|352:-16,1,133.333333333333,14|8,0:0|0:0,0:0:0
248,124,143972,2,2,B|237:159|209:251,1,133.333333333333,14|0,0:0|0:0,0:0:0
92,328,144386,70,2,B|52:320,5,33.3333333333333
72,224,144800,2,2,B|120:208,5,33.3333333333333
0,152,145214,38,0,B|60:133|161:94,1,133.333333333333,2|2,0:0|0:0,0:0:0
232,144,145627,1,2,0:0:0
392,44,145765,1,2,0:0:0
480,208,145903,1,2,0:0:0
400,336,146041,2,0,B|384:272|364:192,1,133.333333333333,2|2,0:0|0:0,0:0:0
204,376,146455,1,2,0:0:0
220,256,146593,1,2,0:0:0
232,144,146731,1,2,0:0:0
248,12,146869,70,2,B|236:84|228:188,1,133.333333333333,14|8,0:0|0:0,0:0:0
76,324,147282,2,2,B|50:255|5:161,1,133.333333333333,14|0,0:0|0:0,0:0:0
192,252,147696,2,2,B|248:299|334:358,1,133.333333333333,14|12,0:0|0:0,0:0:0
472,276,148110,1,4,0:0:0
492,152,148248,1,8,0:0:0
416,60,148386,1,8,0:0:0
296,32,148524,38,2,B|188:24|140:20,1,133.333333333333,14|0,0:0|0:0,0:0:0
248,220,148938,1,12,0:0:0
168,336,149076,1,4,0:0:0
28,340,149214,1,8,0:0:0
32,184,149352,2,2,B|40:140,5,33.3333333333333,10|2|2|2|2|2,0:0|0:0|0:0|0:0|0:0|0:0,0:0:0
104,108,149765,1,8,0:0:0
440,60,149972,1,2,0:0:0
444,64,150041,2,2,B|440:100|436:144,1,66.6666666666667,4|4,0:0|0:0,0:0:0
484,360,150317,69,8,0:0:0
488,244,150455,1,8,0:0:0
360,224,150593,2,4,B|368:284|380:340,1,100,12|6,0:0|0:0,0:0:0
128,300,151007,1,4,0:0:0
112,304,151076,2,2,B|20:316|-4:320,1,100,10|4,0:0|0:0,0:0:0
152,88,151421,1,4,0:0:0
360,296,151558,1,8,0:0:0
360,88,151696,1,4,0:0:0
152,296,151834,85,2,0:0:0
256,192,151903,12,0,153351,0:0:0
384,276,153489,38,0,B|456:292|504:220|472:188,1,133.333333333333,12|8,0:0|0:0,0:0:0
468,76,153903,2,0,B|445:5|359:0|347:43,1,133.333333333333,12|0,0:0|0:0,0:0:0
344,148,154317,70,2,B|338:154|338:154|328:160|328:160|324:152|324:152|316:156|316:156|320:164|320:164|312:168|312:168|308:160|308:160|272:180|272:180|211:193|154:156|151:131,1,200.000007629395,10|0,0:0|0:0,0:0:0
224,88,154731,1,12,0:0:0
36,216,154869,1,8,0:0:0
144,44,155007,1,8,0:0:0
24,124,155145,2,2,B|52:140|52:140|32:148|32:148|64:132|136:184|96:256,1,200.000007629395,10|0,0:0|0:0,0:0:0
28,336,155558,1,12,0:0:0
196,200,155696,1,8,0:0:0
112,368,155834,1,8,0:0:0
240,360,155972,5,8,0:0:0
456,368,156110,1,8,0:0:0
288,276,156248,1,8,0:0:0
420,272,156386,1,12,0:0:0
340,196,156524,1,8,0:0:0
448,192,156662,1,8,0:0:0
460,120,156800,22,0,B|409:97|327:71,1,133.333333333333,8|0,0:0|0:0,0:0:0
260,24,157214,2,0,B|224:91|203:144,1,133.333333333333,8|0,0:0|0:0,0:0:0
96,48,157627,70,2,B|100:84|100:84|152:124|132:212|76:236,1,200.000007629395,10|0,0:0|0:0,0:0:0
44,152,158041,1,14,0:0:0
92,316,158179,1,2,0:0:0
4,256,158317,1,2,0:0:0
184,240,158455,2,2,B|316:308|416:352,1,200.000007629395,10|2,0:0|0:0,0:0:0
408,208,158869,2,2,B|476:76|520:-24,1,200.000007629395,14|2,0:0|0:0,0:0:0
328,72,159282,1,8,0:0:0
328,72,159420,2,2,B|184:-4,1,113.333335494995,2|10,0:0|0:0,0:0:0
224,148,159696,2,2,B|144:284|76:436,1,226.66667098999,14|0,0:0|0:0,0:0:0
44,216,160110,6,2,B|128:192|180:188,1,100.000003814697,10|0,0:0|0:0,0:0:0
296,316,160524,2,2,B|233:255|203:212,1,100.000003814697,14|0,0:0|0:0,0:0:0
224,148,160938,102,0,B|256:104,4,50.0000019073487,10|2|2|2|2,0:0|0:0|0:0|0:0|0:0,0:0:0
353,138,161351,1,14,0:0:0
492,204,161489,1,10,0:0:0
376,232,161627,1,10,0:0:0
448,312,161765,1,10,0:0:0
276,268,161903,1,10,0:0:0
300,368,162041,1,10,0:0:0
136,192,162179,1,14,0:0:0
176,284,162317,1,10,0:0:0
96,352,162455,1,10,0:0:0
96,352,162593,6,0,B|72:296|52:244,1,100.000003814697,8|0,0:0|0:0,0:0:0
96,168,163007,2,0,B|152:144|204:124,1,100.000003814697,12|0,0:0|0:0,0:0:0
248,16,163420,102,2,B|313:193|325:253,1,200.000007629395,10|0,0:0|0:0,0:0:0
400,288,163834,2,2,B|223:353|163:365,1,200.000007629395,14|0,0:0|0:0,0:0:0
48,288,164248,1,8,0:0:0
28,192,164386,1,10,0:0:0
152,248,164524,1,10,0:0:0
128,108,164662,1,14,0:0:0
268,236,164800,1,10,0:0:0
256,40,164938,1,10,0:0:0
376,220,165076,6,0,B|416:248|472:292,2,100,8|0|12,0:0|0:0|0:0,0:0:0
256,192,165972,12,0,166593,0:0:0
40,112,166731,38,0,B|48:172|68:264,1,133.333333333333,8|0,0:0|0:0,0:0:0
140,312,167145,2,0,B|187:275|257:211,1,133.333333333333,0|0,0:0|0:0,0:0:0
264,124,167558,102,0,B|208:100|118:72,1,133.333333333333,12|0,0:0|0:0,0:0:0
348,20,167972,1,2,0:0:0
460,92,168110,1,2,0:0:0
352,176,168248,1,2,0:0:0
456,176,168386,1,2,0:0:0
360,300,168524,1,2,0:0:0
492,248,168662,1,2,0:0:0
428,376,168800,5,2,0:0:0
360,300,168938,1,2,0:0:0
268,260,169076,1,2,0:0:0
168,260,169214,2,2,B|124:256|64:272|36:340,1,133.333333333333,14|0,0:0|0:0,0:0:0
136,136,169627,54,2,B|200:164|296:104|308:32,1,200.000007629395,10|0,0:0|0:0,0:0:0
512,212,170041,6,2,B|492:232|492:232|496:200|496:200|424:256|380:144,1,200.000007629395,10|0,0:0|0:0,0:0:0
296,320,170869,2,2,B|160:344,2,100.000003814697,6|2|2,0:0|0:0|0:0,0:0:0
24,208,171696,102,2,B|72:240|172:192|172:192|164:252,1,200.000007629395,8|0,0:0|0:0,0:0:0
48,120,172110,2,2,B|104:132|176:84|176:84|156:0,1,200.000007629395,8|0,0:0|0:0,0:0:0
292,156,172524,2,2,B|264:40|264:40|352:76|392:0,1,200.000007629395,12|0,0:0|0:0,0:0:0
480,128,172938,1,2,0:0:0
360,220,173076,1,2,0:0:0
428,352,173214,1,2,0:0:0
236,352,173351,6,2,B|208:336|188:324|188:324|144:340|128:328,1,100.000003814697,8|0,0:0|0:0,0:0:0
44,220,173765,2,2,B|92:220|92:220|156:260,1,100.000003814697,0|0,0:0|0:0,0:0:0
44,112,174179,21,14,0:0:0
96,36,174317,1,8,0:0:0
124,136,174455,1,10,0:0:0
172,36,174593,1,10,0:0:0
196,160,174731,1,8,0:0:0
244,32,174869,1,10,0:0:0
272,176,175007,5,10,0:0:0
320,28,175145,1,8,0:0:0
344,200,175282,1,10,0:0:0
424,216,175420,101,10,0:0:0
344,332,175558,1,8,0:0:0
200,340,175695,1,10,0:0:0
250,194,175834,86,2,B|288:308,1,100.000003814697,14|0,0:0|0:0,0:0:0
281,288,176248,102,0,B|400:244,1,100.000003814697,2|0,0:0|0:0,0:0:0
374,253,176662,53,8,0:0:0
480,152,176800,1,8,0:0:0
360,148,176938,1,8,0:0:0
440,64,177076,54,2,B|376:88|320:28|320:28|256:88|296:128,1,200.000007629395,10|0,0:0|0:0,0:0:0
112,168,177489,2,2,B|188:114|188:114|208:173|290:187,1,200.000007629395,14|2,0:0|0:0,0:0:0
48,104,177903,2,0,B|8:132|4:196|48:228,2,100.000003814697,10|8|10,0:0|0:0|0:0,0:0:0
116,296,178317,38,0,B|184:332,1,66.6666666666667
400,256,178731,2,0,B|328:296,1,66.6666666666667,8|0,0:0|0:0,0:0:0
152,200,179145,70,0,B|224:244,1,66.6666666666667,12|8,0:0|0:0,0:0:0
360,160,179420,38,0,B|304:188,1,50.0000019073487,8|8,0:0|0:0,0:0:0
160,96,179696,86,0,B|200:120,1,33.3333333333333,8|8,0:0|0:0,0:0:0
304,68,179972,37,2,0:0:0
