osu file format v10

[General]
AudioFilename: Skrillex.mp3
AudioLeadIn: 0
PreviewTime: 85214
Countdown: 0
SampleSet: Normal
StackLeniency: 0.7
Mode: 0
LetterboxInBreaks: 0
EpilepsyWarning: 1

[Editor]
Bookmarks: 113214
DistanceSpacing: 0.8
BeatDivisor: 3
GridSize: 4

[Metadata]
Title:First Of The Year (Equinox)
TitleUnicode:First Of The Year (Equinox)
Artist:Skrillex
ArtistUnicode:Skrillex
Creator:nold_1702
Version:INold
Source:
Tags:dubstep ghost witches magic noise noisy CALL 911 NOW Foreverend Pokie Flask Regou Hotdog wub more scary monsters and sprites
BeatmapID:187638
BeatmapSetID:56791

[Difficulty]
HPDrainRate:6
CircleSize:4
OverallDifficulty:6
ApproachRate:8
SliderMultiplier:1.8
SliderTickRate:1

[Events]
//Background and Video events
0,0,"skrillex_by_chollo-d378sfs.jpg"
//Break Periods
2,61827,63360
2,65138,66670
2,68447,69981
2,71758,73291
2,128033,129567
2,131345,132877
2,134655,136188
//Storyboard Layer 0 (Background)
//Storyboard Layer 1 (Fail)
//Storyboard Layer 2 (Pass)
//Storyboard Layer 3 (Foreground)
Sprite,Foreground,Centre,"Storyboard\Start02.png",320,240 F,0,17765,17972,0,1 M,0,17972,,464,412 F,0,17972,19420,1 F,0,19420,21076,1,0
Sprite,Foreground,Centre,"Storyboard\End02-a.png",320,240 M,0,180179,,454,415 F,0,180179,180593,0,1 F,0,180593,183282,1 F,0,183282,184110,1,0
//Storyboard Sound Samples
//Background Colour Transformations
3,100,163,162,255

[TimingPoints]
1214,413.793103448276,4,2,0,100,1,0
21076,-200,4,2,1,60,0,0
21489,-200,4,2,2,60,0,0
21627,-200,4,2,1,60,0,0
22317,-200,4,2,2,60,0,0
22455,-200,4,2,1,60,0,0
23145,-200,4,2,2,60,0,0
23282,-200,4,2,1,60,0,0
23972,-200,4,2,2,60,0,0
24110,-200,4,2,1,60,0,0
24800,-200,4,2,2,60,0,0
24938,-200,4,2,1,60,0,0
25351,-200,4,2,2,60,0,0
25765,-200,4,2,1,60,0,0
26455,-200,4,2,2,60,0,0
26593,-200,4,2,1,60,0,0
27282,-200,4,2,2,60,0,0
27420,-200,4,2,1,60,0,0
27972,-200,4,2,2,60,0,0
28386,-200,4,2,1,60,0,0
28938,-200,4,2,2,60,0,0
29076,-200,4,2,1,60,0,0
29627,-200,4,2,2,60,0,0
30041,-200,4,2,1,60,0,0
30593,-200,4,2,2,60,0,0
31007,-200,4,2,1,60,0,0
31420,-200,4,2,2,60,0,0
31696,-200,4,2,1,60,0,0
32110,-200,4,2,2,60,0,0
32386,-200,4,2,1,60,0,0
32800,-200,4,2,1,20,0,0
33076,-200,4,2,1,30,0,0
33351,-200,4,2,1,40,0,0
33627,-200,4,2,1,50,0,0
33903,-200,4,2,1,60,0,0
34179,-200,4,2,1,70,0,0
34731,-200,4,2,2,70,0,0
35145,-200,4,2,1,70,0,0
35558,-200,4,2,2,70,0,0
35696,-200,4,2,0,70,0,0
35834,-200,4,2,1,70,0,0
36386,-200,4,2,2,70,0,0
36524,-200,4,2,0,70,0,0
36662,-200,4,2,1,70,0,0
37214,-200,4,2,2,70,0,0
37489,-200,4,2,1,70,0,0
38041,-200,4,2,2,70,0,0
38317,-200,4,2,1,70,0,0
38869,-200,4,2,2,70,0,0
39007,-200,4,2,0,70,0,0
39145,-200,4,2,1,70,0,0
39696,-200,4,2,2,70,0,0
39834,-200,4,2,0,70,0,0
39972,-200,4,2,1,70,0,0
40248,-200,4,2,0,70,0,0
40386,-200,4,2,2,70,0,0
40524,-100,4,2,2,70,0,0
40662,-100,4,2,0,70,0,0
40800,-100,4,2,2,70,0,0
40938,-200,4,2,1,70,0,0
41351,-200,4,2,2,70,0,0
41627,-200,4,2,1,70,0,0
41903,-200,4,2,2,70,0,0
42593,-200,4,2,1,70,0,0
43007,-200,4,2,2,70,0,0
43282,-200,4,2,1,70,0,0
43834,-200,4,2,2,70,0,0
44248,-200,4,2,1,70,0,0
44662,-200,4,2,2,70,0,0
44800,-200,4,2,0,70,0,0
44938,-200,4,2,1,70,0,0
45489,-200,4,2,2,70,0,0
45903,-200,4,2,1,70,0,0
46317,-200,4,2,2,70,0,0
46731,-200,4,2,1,70,0,0
46869,-200,4,2,0,70,0,0
47007,-200,4,2,2,70,0,0
47558,-200,4,2,1,70,0,0
47972,-200,4,2,2,70,0,0
48386,-200,4,2,1,70,0,0
48800,-200,4,2,2,70,0,0
48938,-200,4,2,0,70,0,0
49076,-200,4,2,2,70,0,0
49214,-200,4,2,1,70,0,0
49627,-200,4,2,2,70,0,0
50041,-100,4,2,1,70,0,0
50179,-200,4,2,0,70,0,0
50317,-200,4,2,2,70,0,0
50869,-200,4,2,1,70,0,0
51282,-200,4,2,2,70,0,0
51696,-200,4,2,1,70,0,0
52110,-200,4,2,2,70,0,0
52248,-200,4,2,1,70,0,0
52524,-133.333333333333,4,2,1,70,0,0
52800,-100,4,2,2,70,0,0
53007,-100,4,2,1,70,0,0
53214,-100,4,2,0,70,0,0
53351,-100,4,2,1,70,0,0
53627,-83.3333333333333,4,2,2,70,0,0
54179,-200,4,2,1,70,0,0
54593,-200,4,2,2,70,0,0
55007,-200,4,2,1,70,0,0
55420,-200,4,2,2,70,0,0
55834,-200,4,2,1,70,0,0
56248,-200,4,2,2,70,0,0
56524,-200,4,2,1,70,0,0
57076,-200,4,2,2,70,0,0
57282,-200,4,2,0,70,0,0
57489,-200,4,1,1,70,0,0
59007,-100,4,1,1,70,0,0
59696,-100,4,2,1,90,0,0
59834,-100,4,1,1,70,0,0
59972,-100,4,2,1,90,0,0
60110,-100,4,1,1,70,0,0
60248,-100,4,2,0,90,0,0
60386,-100,4,1,1,70,0,0
60524,-100,4,2,2,70,0,0
60662,-100,4,1,1,70,0,0
60800,-100,4,1,1,70,0,0
61627,-100,4,2,2,100,0,0
63696,-100,4,1,1,70,0,0
64938,-100,4,2,2,100,0,0
67145,-100,4,1,1,70,0,0
68248,-100,4,2,2,100,0,0
70455,-100,4,1,1,70,0,0
71558,-100,4,2,2,100,0,0
73214,-133.333333333333,4,1,1,70,0,0
75834,-133.333333333333,4,2,0,100,0,0
77351,-133.333333333333,4,1,1,70,0,0
79007,-133.333333333333,4,2,0,70,0,0
80662,-133.333333333333,4,1,1,70,0,0
81076,-133.333333333333,4,1,2,70,0,0
81489,-133.333333333333,4,1,1,70,0,0
82317,-133.333333333333,4,1,2,70,0,0
82731,-133.333333333333,4,1,1,70,0,0
84386,-133.333333333333,4,1,2,70,0,0
84800,-133.333333333333,4,1,1,70,0,0
85696,-100,4,1,1,100,0,0
87282,-100,4,1,2,70,0,1
87351,-100,4,1,2,70,0,0
87558,-100,4,1,1,70,0,0
88110,-80,4,1,1,70,0,0
89765,-133.333333333333,4,1,1,70,0,0
91420,-80,4,1,1,70,0,0
92938,-200,4,1,1,70,0,0
93076,-80,4,1,1,70,0,0
93903,-100,4,1,1,70,0,0
94731,-80,4,1,1,70,0,0
96386,-133.333333333333,4,1,1,70,0,0
97214,-80,4,1,1,70,0,0
98869,-133.333333333333,4,1,1,70,0,0
100524,-100,4,1,1,70,0,0
101351,-100,4,2,2,100,0,0
102179,-100,4,2,1,80,0,0
102317,-100,4,2,0,80,0,0
103007,-100,4,2,1,80,0,0
103834,-200,4,1,1,80,0,0
104662,-200,4,1,1,100,0,0
104800,-200,4,1,1,80,0,0
104938,-200,4,1,1,70,0,0
105076,-200,4,1,1,60,0,0
105214,-200,4,1,1,50,0,0
105351,-200,4,1,1,40,0,0
105489,-80,4,1,1,80,0,0
107145,-133.333333333333,4,1,1,80,0,0
107834,-80,4,1,1,80,0,0
109627,-133.333333333333,4,1,1,80,0,0
110041,-80,4,1,1,80,0,0
110179,-80,4,2,0,80,0,0
110317,-80,4,1,1,80,0,0
112110,-133.333333333333,4,1,1,80,0,0
112938,-100,4,1,1,80,0,0
113765,-133.333333333333,4,1,1,80,0,0
115420,-100,4,1,1,80,0,0
116662,-80,4,1,1,40,0,0
117076,-133.333333333333,4,1,1,80,0,0
117903,-100,4,1,1,80,0,0
118593,-80,4,1,1,80,0,0
120386,-133.333333333333,4,1,1,80,0,0
121214,-80,4,1,1,80,0,0
122869,-133.333333333333,4,1,1,80,0,0
123282,-80,4,1,1,80,0,0
123420,-80,4,2,0,80,0,0
123558,-100,4,1,1,80,0,0
124110,-200,4,1,1,80,0,0
124524,-83.3333333333333,4,1,1,80,0,0
125351,-133.333333333333,4,1,1,80,0,0
126179,-100,4,2,1,80,0,0
127007,-100,4,1,1,70,0,0
127007,-100,4,1,1,80,0,0
127834,-100,4,2,2,100,0,0
130041,-100,4,1,1,70,0,0
131145,-100,4,2,2,100,0,0
133627,-100,4,1,1,70,0,0
134455,-100,4,2,2,100,0,0
136938,-100,4,1,1,70,0,0
137765,-100,4,2,2,100,0,0
138179,-200,4,2,0,70,0,0
140248,-100,4,1,1,70,0,0
142179,-100,4,2,0,100,0,0
143558,-100,4,1,1,70,0,0
147282,-100,4,1,2,70,0,0
147420,-100,4,1,1,70,0,0
148524,-100,4,1,2,70,0,0
148662,-100,4,1,1,70,0,0
150593,-100,4,1,2,70,0,0
150731,-100,4,1,1,70,0,0
151903,-100,4,1,1,100,0,0
153489,-100,4,1,2,80,0,1
153558,-100,4,1,1,80,0,0
154317,-80,4,1,1,80,0,0
156800,-100,4,1,1,80,0,0
157627,-80,4,1,1,80,0,0
159282,-80,4,1,1,80,0,0
160110,-133.333333333333,4,1,1,80,0,0
160938,-80,4,1,1,80,0,0
162593,-133.333333333333,4,1,1,80,0,0
163420,-80,4,1,1,80,0,0
165076,-200,4,1,1,80,0,0
166731,-100,4,1,1,80,0,0
167558,-100,4,2,1,80,0,0
167696,-100,4,2,2,80,0,0
169214,-100,4,2,1,80,0,0
169489,-80,4,1,1,80,0,0
170041,-133.333333333333,4,1,1,80,0,0
170731,-200,4,1,1,80,0,0
171696,-80,4,1,1,80,0,0
173351,-166.666666666667,4,1,1,80,0,0
173903,-80,4,1,1,80,0,0
178317,-100,4,1,1,80,0,0
179558,-133.333333333333,4,1,1,80,0,0
179972,-133.333333333333,4,2,1,80,0,0

[Colours]
Combo1 : 128,0,128
Combo2 : 0,128,128
Combo3 : 0,128,64
Combo4 : 128,255,128
Combo5 : 255,0,0
Combo6 : 255,255,255
Combo7 : 0,128,255
Combo8 : 217,0,108

[HitObjects]
104,332,21076,6,0,B|84:252,1,60,6|0,0:0|0:0,0:0:0
16,260,21489,2,0,B|16:212|56:192|88:192,1,90,2|12,0:0|0:0,0:0:0
112,372,22317,5,2,0:0:0
232,364,22593,1,0,0:0:0
232,364,22731,2,0,B|268:356|272:324,1,60,2|0,0:0|0:0,0:0:0
200,292,23145,2,0,B|180:248|200:216|224:208,1,90,2|12,0:0|0:0,0:0:0
248,384,23972,5,2,0:0:0
368,384,24248,1,0,0:0:0
424,340,24386,2,0,B|400:272|388:240,1,90,2|2,0:0|0:0,0:0:0
500,312,25076,1,0,0:0:0
500,312,25214,2,0,B|516:360|488:384,1,60,12|0,0:0|0:0,0:0:0
424,364,25627,85,2,0:0:0
308,332,25903,1,0,0:0:0
308,332,26041,2,0,B|264:300|276:244,1,90,2|2,0:0|0:0,0:0:0
200,348,26731,1,0,0:0:0
200,348,26869,2,0,B|140:356,1,60,12|0,0:0|0:0,0:0:0
80,304,27282,6,0,B|96:212,1,90,2|2,0:0|0:0,0:0:0
0,68,28110,2,0,B|60:80,1,60,2|0,0:0|0:0,0:0:0
132,92,28524,2,0,B|180:76|164:32,1,60,12|0,0:0|0:0,0:0:0
100,16,28938,5,2,0:0:0
80,152,29214,1,0,0:0:0
80,152,29351,2,0,B|92:248,1,90,2|2,0:0|0:0,0:0:0
26,72,30179,1,12,0:0:0
91,241,30593,1,2,0:0:0
28,344,30869,1,0,0:0:0
100,364,31007,86,0,B|128:376|164:364|184:328,1,90,2|2,0:0|0:0,0:0:0
172,216,31696,2,0,B|180:264,1,30,0|12,0:0|0:0,0:0:0
276,96,32248,2,0,B|248:16,1,60,2|0,0:0|0:0,0:0:0
336,40,32662,5,2,0:0:0
256,192,32800,12,0,34179,0:0:0
164,240,34317,6,0,B|176:292|180:316,1,60,6|0,0:0|0:0,0:0:0
116,364,34731,2,0,B|72:324|16:316,1,90,2|12,0:0|0:0,0:0:0
60,140,35558,86,0,B|32:184,1,30,2|2,0:0|0:0,0:0:0
60,112,35834,1,0,0:0:0
60,112,35972,2,0,B|52:48,1,60,2|0,0:0|0:0,0:0:0
136,72,36386,5,2,0:0:0
200,112,36524,2,0,B|228:160,1,30,2|0,0:0|0:0,0:0:0
204,212,36800,2,0,B|244:228|280:196|288:160,1,90,12|2,0:0|0:0,0:0:0
432,276,37627,6,0,B|400:280|348:288,1,60,2|0,0:0|0:0,0:0:0
364,360,38041,2,0,B|408:356|464:348,2,90,2|12|2,0:0|0:0|0:0,0:0:0
252,316,39145,1,0,0:0:0
196,368,39282,86,0,B|168:344|184:300,1,60,2|0,0:0|0:0,0:0:0
252,316,39696,1,2,0:0:0
192,280,39834,2,0,B|160:256,2,30,2|0|12,0:0|0:0|0:0,0:0:0
196,284,40524,38,0,B|196:288|196:288|200:284|200:284|200:288|200:288|204:284|204:284|204:288|204:288|208:284|208:284|208:288|208:288|212:284|212:284|212:288|212:288|216:284|216:284|216:288|216:288|236:292|272:296|284:248,1,120,2|2,0:0|0:0,0:0:0
248,200,40938,70,0,B|228:176|232:144,1,60,2|0,0:0|0:0,0:0:0
272,80,41351,1,2,0:0:0
272,80,41765,2,0,B|168:72,1,90,12|2,0:0|0:0,0:0:0
44,188,42593,1,2,0:0:0
44,188,43007,6,0,B|48:192|48:192|44:192|44:192|48:196|48:196|44:200|44:200|48:208|48:208|28:228|28:228|28:260|68:256,1,90,2|12,0:0|0:0,0:0:0
236,360,44110,101,0,0:0:0
236,360,44248,2,0,B|264:316|336:336,1,90,2|2,0:0|0:0,0:0:0
340,144,45076,1,12,0:0:0
192,28,45489,22,0,B|148:36|136:84|148:104,1,90,2|2,0:0|0:0,0:0:0
220,256,46317,2,0,B|248:290|296:276|307:256,1,90,2|12,0:0|0:0,0:0:0
372,100,47145,2,0,B|376:152,1,30,2|0,0:0|0:0,0:0:0
420,192,47420,1,2,0:0:0
420,192,47558,86,0,B|328:200,1,90,6|2,0:0|0:0,0:0:0
252,364,48386,2,0,B|236:280,1,60,12|0,0:0|0:0,0:0:0
196,240,48800,2,0,B|164:248|148:292|164:320,1,90,2|2,0:0|0:0,0:0:0
226,164,49627,2,0,B|250:164|281:200|272:232,1,90,2|12,0:0|0:0,0:0:0
240,305,50179,6,0,B|248:348,1,30,2|2,0:0|0:0,0:0:0
176,368,50455,2,0,B|144:372|64:356,1,90,2|2,0:0|0:0,0:0:0
28,192,51282,2,0,B|40:268,1,60,2|2,0:0|0:0,0:0:0
28,192,51696,2,0,B|80:200|108:144,1,90,12|2,0:0|0:0,0:0:0
100,72,52524,5,2,0:0:0
32,24,52800,86,0,B|4:56|16:84,1,60,2|0,0:0|0:0,0:0:0
100,72,53076,2,0,B|128:104|116:132,1,60,0|0,0:0|0:0,0:0:0
56,172,53351,2,0,B|120:188|172:116|108:52,1,180,12|2,0:0|0:0,0:0:0
60,176,54179,6,0,B|76:248,1,60,2|0,0:0|0:0,0:0:0
40,304,54593,2,0,B|72:324|132:304|132:272,1,90,2|12,0:0|0:0,0:0:0
244,180,55420,2,0,B|212:160|152:180|152:212,1,90,2|2,0:0|0:0,0:0:0
276,76,56110,1,0,0:0:0
276,76,56248,6,0,B|264:8,1,60,2|0,0:0|0:0,0:0:0
340,20,56662,1,12,0:0:0
344,24,57076,1,2,0:0:0
488,208,57489,85,8,0:0:0
448,308,57903,1,8,0:0:0
340,304,58317,1,12,0:0:0
268,384,58731,1,8,0:0:0
56,240,59145,5,8,0:0:0
92,224,59282,1,8,0:0:0
128,208,59420,1,8,0:0:0
88,144,59558,6,0,B|84:84,1,60,8|12,0:0|0:0,0:0:0
184,128,59834,2,0,B|171:69,1,60,8|12,0:0|0:0,0:0:0
272,104,60110,1,8,0:0:0
320,112,60248,1,2,0:0:0
368,124,60386,2,0,B|432:104,1,60,8|2,0:0|0:0,0:0:0
468,84,60662,1,12,0:0:0
468,84,60800,86,0,B|400:120|400:204|444:244,1,180,12|8,0:0|0:0,0:0:0
504,340,61489,1,8,0:0:0
504,340,61627,1,6,0:0:0
324,236,64110,6,0,B|296:280|244:288|184:252,1,120,12|8,0:0|0:0,0:0:0
188,148,64524,2,0,B|216:104|268:96|328:132,1,120,8|8,0:0|0:0,0:0:0
256,192,64938,1,6,0:0:0
64,276,67420,6,0,B|8:244|44:176|116:208|100:244,1,120,12|8,0:0|0:0,0:0:0
160,176,67834,2,0,B|136:140|80:128|80:128|128:60,1,180,8|6,0:0|0:0,0:0:0
80,312,70731,85,12,0:0:0
188,196,71007,1,8,0:0:0
212,268,71145,2,0,B|276:248|288:160|240:120|192:120,1,180,8|14,0:0|0:0,0:0:0
196,204,74041,70,2,B|104:220,1,90.0000034332277,6|8,0:0|0:0,0:0:0
80,292,74455,2,2,B|20:276|12:204|56:164,1,135.000005149842,10|6,0:0|0:0,0:0:0
192,360,75282,1,2,0:0:0
212,284,75420,1,0,0:0:0
156,336,75558,1,2,0:0:0
212,284,75696,2,2,B|260:292|276:336|268:372,1,90.0000034332277,2|0,0:0|0:0,0:0:0
192,360,76110,38,0,B|124:380,2,45.0000017166138,2|2|2,0:0|0:0|0:0,0:0:0
269,344,76524,1,2,0:0:0
488,368,76800,1,2,0:0:0
364,292,77076,1,2,0:0:0
512,252,77351,70,2,B|496:232|488:212|484:184|488:152,1,90.0000034332277,2|10,0:0|0:0,0:0:0
500,92,77765,1,10,0:0:0
500,92,78179,2,2,B|444:152|352:136,1,135.000005149842,10|2,0:0|0:0,0:0:0
316,96,78731,1,2,0:0:0
328,172,78869,1,2,0:0:0
340,248,79007,37,2,0:0:0
340,248,79420,1,2,0:0:0
268,220,79558,1,2,0:0:0
192,236,79696,1,2,0:0:0
228,304,79834,2,0,B|204:328|152:324|112:292|116:228,1,135.000005149842,2|2,0:0|0:0,0:0:0
112,188,80386,2,0,B|120:260,1,45.0000017166138,2|2,0:0|0:0,0:0:0
128,340,80662,70,2,B|80:376|80:376|-12:356,1,135.000005149842,14|14,0:0|0:0,0:0:0
136,168,81489,1,6,0:0:0
124,92,81627,1,8,0:0:0
112,16,81765,1,4,0:0:0
112,16,81903,2,2,B|72:8|32:48|48:92,1,90.0000034332277,14|8,0:0|0:0,0:0:0
56,140,82317,38,2,B|64:212|64:212|24:248|-4:208,1,135.000005149842,12|4,0:0|0:0,0:0:0
16,300,82869,1,4,0:0:0
28,376,83007,1,8,0:0:0
88,328,83145,2,2,B|132:328|160:368|160:368|220:344,1,135.000005149842,10|8,0:0|0:0,0:0:0
436,352,83972,70,2,B|492:288|424:224,2,135.000005149842,14|14|6,0:0|0:0|0:0,0:0:0
308,268,85076,1,4,0:0:0
332,340,85214,2,2,B|272:352|240:296|240:296|216:332,1,135.000005149842,8|2,0:0|0:0,0:0:0
256,192,85696,12,0,87145,0:0:0
256,192,87282,5,12,0:0:0
112,292,87696,1,8,0:0:0
104,68,88110,70,2,B|100:128|16:168|-36:120,1,150,6|2,0:0|0:0,0:0:0
4,212,88524,2,0,B|64:224|104:180,1,75,8|8,0:0|0:0,0:0:0
140,160,88800,1,8,0:0:0
152,236,88938,2,2,B|112:292|44:300|0:284,1,150,10|2,0:0|0:0,0:0:0
36,364,89351,1,8,0:0:0
112,356,89489,2,0,B|160:348|192:300,1,75,8|8,0:0|0:0,0:0:0
228,256,89765,6,2,B|269:293|310:287|310:287|283:324|283:324|317:367|392:353,1,225.000008583069,6|0,0:0|0:0,0:0:0
428,304,90593,1,8,0:0:0
432,292,91007,1,8,0:0:0
436,280,91420,102,2,B|392:192|480:136,1,150,6|0,0:0|0:0,0:0:0
396,176,91834,2,0,B|360:204|300:172,1,75,2|2,0:0|0:0,0:0:0
356,112,92110,1,2,0:0:0
280,116,92248,2,2,B|206:149|172:112|155:76|155:76|87:127|135:203,1,225,10|10,0:0|0:0,0:0:0
16,244,92938,1,8,0:0:0
16,244,93076,2,2,B|64:304|144:292|144:292|120:376,1,225,14|2,0:0|0:0,0:0:0
300,344,93903,38,2,B|348:304|348:304|416:344|488:296,1,180,10|2,0:0|0:0,0:0:0
248,236,94731,70,2,B|168:176|216:80,1,150,6|0,0:0|0:0,0:0:0
152,156,95145,2,0,B|132:272,2,75,10|8|10,0:0|0:0|0:0,0:0:0
48,220,95558,2,0,B|28:336,2,75,10|8|10,0:0|0:0|0:0,0:0:0
128,308,95972,2,0,B|108:424,2,75,10|8|10,0:0|0:0|0:0,0:0:0
228,316,96386,6,2,B|296:340|344:280|344:280|380:376,1,225.000008583069,12|0,0:0|0:0,0:0:0
440,296,97214,102,2,B|412:224|412:224|504:232,1,150,10|0,0:0|0:0,0:0:0
472,152,97627,2,2,B|384:144|384:144|388:68|320:8,1,225,10|12,0:0|0:0,0:0:0
128,116,98455,1,10,0:0:0
192,156,98593,1,8,0:0:0
124,192,98731,1,10,0:0:0
124,192,98869,6,0,B|76:200|36:140|56:92,1,135.000005149842,8|8,0:0|0:0,0:0:0
136,296,99696,2,0,B|188:288|216:236|216:236|272:260,1,135.000005149842,4|0,0:0|0:0,0:0:0
340,292,100317,1,0,0:0:0
364,192,100524,22,2,B|412:232|516:192|488:80,1,180,10|8,0:0|0:0,0:0:0
228,64,101351,1,2,0:0:0
228,64,101765,1,2,0:0:0
232,140,101903,1,0,0:0:0
184,200,102041,1,2,0:0:0
108,192,102179,6,0,B|96:112,1,60,2|2,0:0|0:0,0:0:0
20,140,102455,1,2,0:0:0
28,216,102593,2,0,B|40:264|96:272,1,60,2|2,0:0|0:0,0:0:0
140,264,102869,1,0,0:0:0
112,336,103007,102,0,B|48:368|-4:328|4:292,1,120,12|0,0:0|0:0,0:0:0
64,262,103420,2,0,B|85:124,1,120,6|0,0:0|0:0,0:0:0
160,100,103834,86,2,B|180:136|168:172|168:172|256:152,1,150,8|0,0:0|0:0,0:0:0
312,204,104662,2,2,B|288:240|248:240|248:240|272:316,1,150,14|0,0:0|0:0,0:0:0
344,348,105489,102,2,B|369:312|356:271|356:271|395:229|395:229|398:181|384:156|360:144,2,225,10|10|6,0:0|0:0|0:0,0:0:0
16,248,106731,1,2,0:0:0
80,312,106869,1,2,0:0:0
104,224,107007,1,2,0:0:0
104,224,107145,6,2,B|100:168|48:132|-16:152,1,135.000005149842,8|0,0:0|0:0,0:0:0
224,68,107972,102,2,B|268:80|268:80|308:56|308:56|388:80,2,150,10|8|10,0:0|0:0|0:0,0:0:0
208,216,108800,2,0,B|124:196,2,75,10|8|10,0:0|0:0|0:0,0:0:0
268,280,109214,2,0,B|352:300,2,75,10|8|10,0:0|0:0|0:0,0:0:0
176,312,109627,6,2,B|124:280|104:380|36:304,1,135.000005149842,14|10,0:0|0:0,0:0:0
132,108,110455,37,8,0:0:0
136,112,110593,1,8,0:0:0
140,116,110731,1,8,0:0:0
144,120,110869,2,2,B|226:185|288:139|280:48|212:40|200:108,1,225,10|14,0:0|0:0,0:0:0
400,212,111696,1,2,0:0:0
420,284,111834,1,2,0:0:0
436,356,111972,1,2,0:0:0
436,356,112110,70,0,B|392:372|360:344|352:312,1,90.0000034332277,8|0,0:0|0:0,0:0:0
364,228,112524,2,0,B|394:192|435:200|460:220,1,90.0000034332277,8|0,0:0|0:0,0:0:0
420,284,112938,22,2,B|356:312|272:288,1,120,14|8,0:0|0:0,0:0:0
232,328,113351,2,2,B|239:258|302:197,1,120,14|8,0:0|0:0,0:0:0
220,168,113765,86,2,B|192:192|172:232|172:232|112:200,2,135.000005149842,8|8|12,0:0|0:0|0:0,0:0:0
464,88,115007,37,2,0:0:0
472,132,115145,1,2,0:0:0
480,176,115282,1,0,0:0:0
424,244,115420,102,0,B|356:260,1,60,10|2,0:0|0:0,0:0:0
244,216,115696,2,0,B|280:275,1,60,2|2,0:0|0:0,0:0:0
444,340,115972,2,0,B|376:356,1,60,2|2,0:0|0:0,0:0:0
211,347,116248,1,12,0:0:0
211,347,116662,70,2,B|188:308,5,37.5
184,304,117076,6,2,B|160:316|160:316|152:352|152:352|104:356|88:320|88:320|44:344|44:344|8:312|40:264,1,270.000010299683,8|6,0:0|0:0,0:0:0
484,316,118731,102,2,B|416:256|448:176,1,150,10|0,0:0|0:0,0:0:0
500,128,119145,2,2,B|484:132|484:132|488:136|488:136|480:128|480:128|476:124|476:124|440:200|356:204|300:136,1,225,14|14,0:0|0:0,0:0:0
124,48,119972,2,0,B|152:88|152:148,1,75,2|2,0:0|0:0,0:0:0
76,112,120248,1,2,0:0:0
124,48,120386,6,2,B|172:80|172:80|208:24|208:24|248:44|296:20|296:20|260:-8,1,225.000008583069,10|0,0:0|0:0,0:0:0
348,80,121214,101,14,0:0:0
420,136,121351,2,2,B|392:168|332:168|320:152,1,75,8|10,0:0|0:0,0:0:0
272,120,121627,37,10,0:0:0
283,210,121765,2,2,B|240:212|198:170|200:150,1,75,8|10,0:0|0:0,0:0:0
192,92,122041,5,10,0:0:0
136,163,122178,2,2,B|104:135|104:75|120:63,1,75,8|10,0:0|0:0,0:0:0
128,4,122455,101,10,0:0:0
220,8,122593,1,8,0:0:0
192,92,122731,1,10,0:0:0
216,180,122869,86,2,B|228:196|228:196|212:196|212:196|244:172|288:244|212:272,1,135.000005149842,14|14,0:0|0:0,0:0:0
16,352,123696,21,12,0:0:0
88,340,123834,1,8,0:0:0
156,356,123972,1,8,0:0:0
224,344,124110,85,8,0:0:0
236,308,124248,1,8,0:0:0
244,272,124386,1,8,0:0:0
320,312,124524,102,2,B|356:268|312:192|260:188|260:188|284:124,1,215.999993408203,14|2,0:0|0:0,0:0:0
316,76,125076,2,0,B|348:96|364:140|340:152,1,71.9999978027344,2|2,0:0|0:0,0:0:0
356,140,125351,6,0,B|407:128|467:152|467:152|443:200,1,135.000005149842,8|12,0:0|0:0,0:0:0
344,344,126179,38,0,B|204:360,1,120,14|2,0:0|0:0,0:0:0
160,320,126593,2,0,B|148:188,1,120,6|2,0:0|0:0,0:0:0
88,160,127007,101,12,0:0:0
212,32,127420,2,0,B|264:48|264:48|328:32|328:32|416:68,1,180,8|6,0:0|0:0,0:0:0
100,300,130317,6,0,B|40:268|52:184|84:176,1,120,12|8,0:0|0:0,0:0:0
136,232,130731,1,8,0:0:0
108,44,131145,1,6,0:0:0
348,348,133627,101,12,0:0:0
388,224,133903,1,8,0:0:0
388,224,134041,2,0,B|472:210|548:199,1,120,8|0,0:0|0:0,0:0:0
452,168,134455,1,6,0:0:0
216,308,136938,6,0,B|155:323|155:323|89:305,1,120,12|8,0:0|0:0,0:0:0
40,264,137351,1,8,0:0:0
44,260,137765,1,14,0:0:0
48,256,138593,102,0,B|36:164,1,90,2|0,0:0|0:0,0:0:0
104,108,139420,102,0,B|132:112|188:96,2,60,2|0|2,0:0|0:0|0:0,0:0:0
104,108,140248,38,2,B|124:172|132:248,1,120,14|10,0:0|0:0,0:0:0
72,272,140662,1,8,0:0:0
72,272,141076,2,2,B|120:316|176:284|176:284|160:352,1,180,14|2,0:0|0:0,0:0:0
216,304,141627,2,0,B|200:232,1,60,2|0,0:0|0:0,0:0:0
188,176,141903,69,2,0:0:0
188,176,142317,1,2,0:0:0
244,220,142455,1,2,0:0:0
256,148,142593,1,2,0:0:0
188,176,142731,2,0,B|156:132|104:120|104:120|140:48,1,180,2|2,0:0|0:0,0:0:0
348,108,143558,38,2,B|380:128|428:112|428:112|440:64,1,120,14|10,0:0|0:0,0:0:0
500,112,143972,2,2,B|488:164|488:164|432:200|376:184,1,120,10|0,0:0|0:0,0:0:0
480,236,144386,1,2,0:0:0
480,236,144800,1,2,0:0:0
496,308,144938,1,0,0:0:0
428,288,145076,2,0,B|376:320,1,60,2|2,0:0|0:0,0:0:0
232,332,145489,69,2,0:0:0
160,348,145627,2,0,B|152:300|188:260|204:268,1,60
236,256,145903,1,0,0:0:0
296,292,146041,2,2,B|300:344|232:376|192:376|156:344,1,180
32,172,146869,38,2,B|84:144|84:144|40:136|20:96|8:68,1,120,14|8,0:0|0:0,0:0:0
92,72,147282,1,4,0:0:0
264,204,147696,1,6,0:0:0
264,204,147972,1,4,0:0:0
336,216,148110,1,6,0:0:0
396,180,148248,1,4,0:0:0
468,192,148386,1,4,0:0:0
468,192,148524,69,6,0:0:0
276,292,148938,2,0,B|260:328|256:348,1,60,4|4,0:0|0:0,0:0:0
192,380,149214,1,4,0:0:0
192,308,149351,2,2,B|136:300|108:252|108:252|32:271,1,180,2|10,0:0|0:0,0:0:0
88,136,150041,1,8,0:0:0
156,164,150179,38,2,B|172:120|148:84|124:76|124:76|176:52|128:0,1,180,6|4,0:0|0:0,0:0:0
332,116,151007,1,4,0:0:0
332,116,151282,2,0,B|396:96,1,60,4|4,0:0|0:0,0:0:0
388,172,151558,1,4,0:0:0
396,244,151696,1,4,0:0:0
444,300,151834,37,2,0:0:0
256,192,151903,12,0,153351,0:0:0
200,240,153489,38,0,B|176:200|200:140|200:140|144:136|112:176,1,180,8|12,0:0|0:0,0:0:0
124,340,154317,70,2,B|176:372|276:376|320:296|332:252,1,225,10|14,0:0|0:0,0:0:0
328,212,154869,2,0,B|328:164|296:120,1,75,8|8,0:0|0:0,0:0:0
252,192,155145,2,2,B|360:180|400:132|400:132|444:188,1,225,10|14,0:0|0:0,0:0:0
420,252,155696,2,0,B|460:264|504:228,1,75,8|8,0:0|0:0,0:0:0
512,320,155972,37,8,0:0:0
488,384,156110,1,8,0:0:0
412,384,156248,1,8,0:0:0
380,316,156386,5,8,0:0:0
324,264,156524,1,8,0:0:0
252,288,156662,1,8,0:0:0
244,364,156800,70,0,B|200:340|188:256|188:256|152:268|120:316,1,180,8|12,0:0|0:0,0:0:0
0,112,157627,102,2,B|32:128|32:128|72:112|72:112|100:152|180:144|160:72,1,225,2|6,0:0|0:0,0:0:0
232,48,158179,2,0,B|282:76|282:121,1,75,2|0,0:0|0:0,0:0:0
236,164,158455,2,2,B|288:80|424:116,1,150,10|0,0:0|0:0,0:0:0
440,120,158869,1,14,0:0:0
440,120,159282,2,2,B|472:300,1,150,10|8,0:0|0:0,0:0:0
456,360,159696,2,0,B|452:296,1,56.25,12|8,0:0|0:0,0:0:0
272,256,160110,6,2,B|226:233|170:244|170:244|136:199,1,135.000005149842,10|6,0:0|0:0,0:0:0
280,88,160938,102,0,B|328:96|364:72|364:72|424:84|436:144,1,150,10|2,0:0|0:0,0:0:0
388,172,161351,2,2,B|456:196|516:132|487:60,1,150,14|2,0:0|0:0,0:0:0
452,40,161765,2,2,B|384:16|324:80|352:151,1,150,14|2,0:0|0:0,0:0:0
316,180,162179,2,2,B|256:152|264:76|292:48,1,150,14|2,0:0|0:0,0:0:0
288,52,162593,5,8,0:0:0
148,108,163007,1,12,0:0:0
48,308,163420,102,2,B|104:284|152:320|152:384,1,150,10|2,0:0|0:0,0:0:0
160,300,163834,2,2,B|111:263|116:200|173:171,1,150,14|2,0:0|0:0,0:0:0
204,240,164248,2,2,B|240:232|268:264|268:264|304:292|376:252,1,150,10|2,0:0|0:0,0:0:0
416,288,164662,2,0,B|428:368,2,75,14|10|10,0:0|0:0|0:0,0:0:0
416,288,165076,5,8,0:0:0
124,248,166731,22,0,B|116:204|116:204|112:168|112:168|100:112,1,120,8|0,0:0|0:0,0:0:0
36,108,167145,2,0,B|48:52|128:36|156:80,1,120,8|0,0:0|0:0,0:0:0
176,116,167558,5,12,0:0:0
368,212,167972,2,0,B|352:272|328:304,1,60,2|2,0:0|0:0,0:0:0
376,336,168248,1,2,0:0:0
376,336,168386,2,0,B|315:258|224:271,1,120,2|2,0:0|0:0,0:0:0
204,272,168800,2,0,B|220:212|244:180,1,60
272,160,169076,1,2,0:0:0
272,160,169214,1,12,0:0:0
128,44,169627,54,2,B|142:114|142:114|96:204,1,150,10|0,0:0|0:0,0:0:0
48,240,170041,6,2,B|48:266|48:266|56:294|56:294|32:322|52:358|104:330,1,135.000005149842,8|0,0:0|0:0,0:0:0
86,337,170869,2,2,B|128:304|184:352,1,90,14|0,0:0|0:0,0:0:0
488,248,171696,102,2,B|444:236|444:236|404:208|404:208|344:196,1,150
276,184,172110,2,2,B|272:140|336:100|388:128,1,143.999995605469,10|2,0:0|0:0,0:0:0
408,48,172524,2,2,B|348:28|276:44|244:88,1,143.999995605469,14|0,0:0|0:0,0:0:0
212,120,172938,2,0,B|176:88|196:28,2,71.9999978027344,2|2|2,0:0|0:0|0:0,0:0:0
212,120,173351,6,2,B|204:124|204:124|200:120|200:120|196:124|196:124|192:120|192:120|188:124|188:124|184:120|184:120|180:124|180:124|176:120|176:120|172:124|172:124|168:120|168:120|164:124|164:124|160:120|160:120|156:124|156:124|152:120|152:120|148:124|148:124|144:120|144:120|128:112|112:108,1,107.999996704102,10|0,0:0|0:0,0:0:0
28,208,174179,101,10,0:0:0
144,316,174455,1,10,0:0:0
208,360,174593,2,2,B|240:308|208:240|160:240,1,143.999995605469,10|10,0:0|0:0,0:0:0
220,180,175007,2,2,B|280:208|304:272|292:328,1,143.999995605469,10|10,0:0|0:0,0:0:0
288,372,175420,2,0,B|328:376|352:348,1,71.9999978027344,10|10,0:0|0:0,0:0:0
388,276,175696,1,10,0:0:0
384,192,175834,5,6,0:0:0
384,192,176248,1,10,0:0:0
364,24,176662,101,8,0:0:0
364,24,176800,1,8,0:0:0
364,24,176938,1,8,0:0:0
364,24,177076,2,2,B|356:28|356:28|352:24|352:24|348:28|348:28|344:24|344:24|340:28|340:28|336:24|336:24|332:28|332:28|328:24|328:24|324:28|324:28|320:24|320:24|316:28|316:28|312:24|312:24|308:28|308:28|304:24|304:24|300:28|300:28|296:24|296:24|240:24|236:40,1,150,10|0,0:0|0:0,0:0:0
276,104,177489,2,2,B|284:108|284:108|288:104|288:104|292:108|292:108|296:104|296:104|300:108|300:108|304:104|304:104|308:108|308:108|312:104|312:104|316:108|316:108|320:104|320:104|324:108|324:108|328:104|328:104|332:108|332:108|336:104|336:104|340:108|340:108|344:104|344:104|400:104|404:120,1,150,10|0,0:0|0:0,0:0:0
384,192,177903,2,0,B|412:292,2,71.9999978027344,2|2|2,0:0|0:0|0:0,0:0:0
380,188,178317,38,0,B|336:244|380:328,1,120,8|0,0:0|0:0,0:0:0
408,364,178731,2,0,B|352:408|268:364,1,120,8|0,0:0|0:0,0:0:0
232,336,179145,6,0,B|248:300|304:296,2,60,12|8|8,0:0|0:0|0:0,0:0:0
188,268,179558,70,0,B|175:239|130:236,2,45.0000017166138,8|12|8,0:0|0:0|0:0,0:0:0
244,212,179972,21,2,0:0:0
