osu file format v10

[General]
AudioFilename: Skrillex.mp3
AudioLeadIn: 0
PreviewTime: 85214
Countdown: 0
SampleSet: Soft
StackLeniency: 0.7
Mode: 0
LetterboxInBreaks: 0
EpilepsyWarning: 1

[Editor]
DistanceSpacing: 1
BeatDivisor: 3
GridSize: 4

[Metadata]
Title:First Of The Year (Equinox)
TitleUnicode:First Of The Year (Equinox)
Artist:Skrillex
ArtistUnicode:Skrillex
Creator:nold_1702
Version:HNold
Source:
Tags:dubstep ghost witches magic noise noisy CALL 911 NOW Foreverend Pokie Flask Regou Hotdog wub more scary monsters and sprites
BeatmapID:189803
BeatmapSetID:56791

[Difficulty]
HPDrainRate:5
CircleSize:4
OverallDifficulty:5
ApproachRate:6
SliderMultiplier:1.6
SliderTickRate:1

[Events]
//Background and Video events
0,0,"skrillex_by_chollo-d378sfs.jpg"
//Break Periods
2,61827,63060
2,65137,66370
2,68447,69681
2,71758,72991
2,128034,129268
2,131345,132577
2,134654,135888
2,137966,139198
//Storyboard Layer 0 (Background)
//Storyboard Layer 1 (Fail)
//Storyboard Layer 2 (Pass)
//Storyboard Layer 3 (Foreground)
Sprite,Foreground,Centre,"Storyboard\Start07.png",320,240 F,0,17765,17972,0,1 M,0,17972,,464,412 F,0,17972,19420,1 F,0,19420,21076,1,0
Sprite,Foreground,Centre,"Storyboard\End02-a.png",320,240 M,0,180179,,454,415 F,0,180179,180593,0,1 F,0,180593,183282,1 F,0,183282,184110,1,0
//Storyboard Sound Samples
//Background Colour Transformations
3,100,163,162,255

[TimingPoints]
1214,413.793103448276,4,2,0,100,1,0
21076,-200,4,2,1,60,0,0
21489,-200,4,2,2,60,0,0
21627,-200,4,2,1,60,0,0
22317,-200,4,2,2,60,0,0
22455,-200,4,2,1,60,0,0
23145,-200,4,2,2,60,0,0
23282,-200,4,2,1,60,0,0
23972,-200,4,2,2,60,0,0
24110,-200,4,2,1,60,0,0
24800,-200,4,2,2,60,0,0
24938,-200,4,2,1,60,0,0
25351,-200,4,2,2,60,0,0
25765,-200,4,2,1,60,0,0
26455,-200,4,2,2,60,0,0
26593,-200,4,2,1,60,0,0
27282,-200,4,2,2,60,0,0
27420,-200,4,2,1,60,0,0
27972,-200,4,2,2,60,0,0
28386,-200,4,2,1,60,0,0
28938,-200,4,2,2,60,0,0
29076,-200,4,2,1,60,0,0
29627,-200,4,2,2,60,0,0
30041,-200,4,2,1,60,0,0
30593,-200,4,2,2,60,0,0
31007,-200,4,2,1,60,0,0
31420,-200,4,2,2,60,0,0
31696,-200,4,2,1,60,0,0
32110,-200,4,2,2,60,0,0
32386,-200,4,2,1,60,0,0
32800,-200,4,2,1,20,0,0
33076,-200,4,2,1,30,0,0
33351,-200,4,2,1,40,0,0
33627,-200,4,2,1,50,0,0
33903,-200,4,2,1,60,0,0
34179,-133.333333333333,4,2,1,70,0,0
35145,-133.333333333333,4,2,1,70,0,0
35558,-133.333333333333,4,2,2,70,0,0
35834,-133.333333333333,4,2,1,70,0,0
36386,-133.333333333333,4,2,2,70,0,0
36524,-133.333333333333,4,2,0,70,0,0
36662,-133.333333333333,4,2,1,70,0,0
37214,-133.333333333333,4,2,2,70,0,0
37489,-133.333333333333,4,2,1,70,0,0
38041,-133.333333333333,4,2,2,70,0,0
38317,-133.333333333333,4,2,1,70,0,0
38869,-133.333333333333,4,2,2,70,0,0
39145,-133.333333333333,4,2,1,70,0,0
39696,-133.333333333333,4,2,2,70,0,0
39972,-133.333333333333,4,2,1,70,0,0
40248,-133.333333333333,4,2,0,70,0,0
40386,-133.333333333333,4,2,2,70,0,0
40524,-133.333333333333,4,2,2,70,0,0
40662,-133.333333333333,4,2,0,70,0,0
40800,-133.333333333333,4,2,2,70,0,0
40938,-133.333333333333,4,2,1,70,0,0
41351,-133.333333333333,4,2,2,70,0,0
41627,-133.333333333333,4,2,1,70,0,0
41903,-133.333333333333,4,2,2,70,0,0
42593,-133.333333333333,4,2,1,70,0,0
43007,-133.333333333333,4,2,2,70,0,0
43282,-133.333333333333,4,2,1,70,0,0
43834,-133.333333333333,4,2,2,70,0,0
44248,-133.333333333333,4,2,1,70,0,0
44662,-133.333333333333,4,2,2,70,0,0
44938,-133.333333333333,4,2,1,70,0,0
45489,-133.333333333333,4,2,2,70,0,0
45903,-133.333333333333,4,2,1,70,0,0
46317,-133.333333333333,4,2,2,70,0,0
46731,-133.333333333333,4,2,1,70,0,0
47007,-133.333333333333,4,2,2,70,0,0
47558,-133.333333333333,4,2,1,70,0,0
47972,-133.333333333333,4,2,2,70,0,0
48386,-133.333333333333,4,2,1,70,0,0
48800,-133.333333333333,4,2,2,70,0,0
49076,-133.333333333333,4,2,2,70,0,0
49214,-133.333333333333,4,2,1,70,0,0
49627,-133.333333333333,4,2,2,70,0,0
50041,-133.333333333333,4,2,1,70,0,0
50179,-133.333333333333,4,2,0,70,0,0
50317,-133.333333333333,4,2,2,70,0,0
50869,-133.333333333333,4,2,1,70,0,0
51282,-133.333333333333,4,2,2,70,0,0
51696,-133.333333333333,4,2,1,70,0,0
52110,-133.333333333333,4,2,2,70,0,0
52248,-133.333333333333,4,2,1,70,0,0
52800,-133.333333333333,4,2,2,70,0,0
53351,-133.333333333333,4,2,1,70,0,0
53627,-133.333333333333,4,2,2,70,0,0
54179,-133.333333333333,4,2,1,70,0,0
54593,-133.333333333333,4,2,2,70,0,0
55007,-133.333333333333,4,2,1,70,0,0
55420,-133.333333333333,4,2,2,70,0,0
55834,-133.333333333333,4,2,1,70,0,0
56248,-133.333333333333,4,2,2,70,0,0
56524,-133.333333333333,4,2,1,70,0,0
57076,-133.333333333333,4,2,2,70,0,0
57489,-125,4,1,1,70,0,0
59007,-125,4,1,1,70,0,0
59696,-125,4,2,1,90,0,0
59972,-125,4,2,1,90,0,0
60386,-125,4,1,1,70,0,0
61627,-125,4,2,2,100,0,0
63696,-125,4,1,1,70,0,0
64938,-125,4,2,2,100,0,0
67145,-125,4,1,1,70,0,0
68248,-125,4,2,2,100,0,0
70455,-125,4,1,1,70,0,0
71558,-125,4,2,2,100,0,0
73214,-117.647058823529,4,1,1,70,0,0
75834,-117.647058823529,4,2,0,100,0,0
77351,-117.647058823529,4,1,1,70,0,0
79145,-117.647058823529,4,2,0,70,0,0
80662,-117.647058823529,4,1,1,70,0,0
81076,-117.647058823529,4,1,2,70,0,0
81489,-117.647058823529,4,1,1,70,0,0
82317,-117.647058823529,4,1,2,70,0,0
82731,-117.647058823529,4,1,1,70,0,0
84386,-117.647058823529,4,1,2,70,0,0
84800,-117.647058823529,4,1,1,70,0,0
85696,-111.111111111111,4,1,1,100,0,0
87282,-111.111111111111,4,1,2,70,0,1
87351,-111.111111111111,4,1,2,70,0,0
87558,-111.111111111111,4,1,1,70,0,0
101351,-111.111111111111,4,2,2,100,0,0
102179,-111.111111111111,4,2,1,80,0,0
102317,-111.111111111111,4,2,0,80,0,0
103007,-111.111111111111,4,2,1,80,0,0
103834,-111.111111111111,4,1,1,80,0,0
104662,-111.111111111111,4,1,1,100,0,0
104800,-111.111111111111,4,1,1,80,0,0
104938,-111.111111111111,4,1,1,70,0,0
105076,-111.111111111111,4,1,1,60,0,0
105489,-111.111111111111,4,1,1,80,0,0
110179,-111.111111111111,4,2,0,80,0,0
110317,-111.111111111111,4,1,1,80,0,0
126179,-111.111111111111,4,2,1,80,0,0
127007,-125,4,1,1,80,0,0
127007,-125,4,1,1,70,0,0
127834,-125,4,2,2,100,0,0
130041,-125,4,1,1,70,0,0
131145,-125,4,2,2,100,0,0
133627,-125,4,1,1,70,0,0
134455,-125,4,2,2,100,0,0
136938,-125,4,1,1,70,0,0
137765,-125,4,2,2,100,0,0
140248,-117.647058823529,4,1,1,70,0,0
142179,-117.647058823529,4,2,0,100,0,0
143558,-117.647058823529,4,1,1,70,0,0
147282,-117.647058823529,4,1,2,70,0,0
147420,-117.647058823529,4,1,1,70,0,0
148524,-117.647058823529,4,1,2,70,0,0
148662,-117.647058823529,4,1,1,70,0,0
150593,-117.647058823529,4,1,2,70,0,0
150731,-117.647058823529,4,1,1,70,0,0
153489,-111.111111111111,4,1,2,80,0,1
153558,-111.111111111111,4,1,1,80,0,0
167558,-111.111111111111,4,2,1,80,0,0
167696,-111.111111111111,4,2,2,80,0,0
169214,-111.111111111111,4,2,1,80,0,0
169489,-111.111111111111,4,1,1,80,0,0
179972,-111.111111111111,4,2,1,80,0,0

[Colours]
Combo1 : 128,0,128
Combo2 : 0,128,128
Combo3 : 0,128,64
Combo4 : 128,255,128
Combo5 : 0,128,255
Combo6 : 217,0,108

[HitObjects]
52,128,21076,6,0,P|44:88|76:44,2,80,6|2|12,0:0|0:0|0:0,0:0:0
164,176,22317,2,0,P|176:240,1,53.3333333333333,2|0,0:0|0:0,0:0:0
164,268,22731,5,2,0:0:0
260,340,23145,2,0,P|328:324,1,53.3333333333333,2|0,0:0|0:0,0:0:0
344,352,23558,2,0,P|356:300|340:260,1,80,12|2,0:0|0:0,0:0:0
264,188,24386,5,2,0:0:0
268,308,24800,1,2,0:0:0
372,252,25214,1,12,0:0:0
268,192,25627,2,0,P|240:200|200:196,1,53.3333333333333,2|0,0:0|0:0,0:0:0
180,184,26041,54,0,P|176:240|196:272,2,80,2|2|12,0:0|0:0|0:0,0:0:0
72,136,27282,2,0,P|84:72,1,53.3333333333333,2|0,0:0|0:0,0:0:0
68,44,27696,5,2,0:0:0
184,80,28110,1,2,0:0:0
96,160,28524,1,12,0:0:0
52,272,28938,2,0,P|88:276|116:276,1,53.3333333333333,2|0,0:0|0:0,0:0:0
144,268,29351,5,2,0:0:0
264,248,29765,2,0,P|252:208|248:160,1,80,2|12,0:0|0:0,0:0:0
304,64,30593,1,2,0:0:0
380,92,30869,1,0,0:0:0
380,92,31007,54,0,P|416:72|476:76,1,80,2|2,0:0|0:0,0:0:0
496,180,31834,2,0,P|428:200,1,53.3333333333333,12|0,0:0|0:0,0:0:0
416,224,32248,1,2,0:0:0
436,300,32524,2,0,P|452:348,1,26.6666666666667,0|2,0:0|0:0,0:0:0
256,192,32800,12,6,34317,0:0:0
160,312,35145,6,0,P|104:328|20:340,1,120.000004577637,12|2,0:0|0:0,0:0:0
16,220,35972,1,2,0:0:0
16,220,36386,2,0,P|0:176,2,40.000001525879,2|2|0,0:0|0:0|0:0,0:0:0
40,188,36800,2,0,P|64:144|56:108,1,80.0000030517579,12|0,0:0|0:0,0:0:0
36,84,37214,1,2,0:0:0
136,152,37627,70,0,P|156:284,1,120.000004577637,2|2,0:0|0:0,0:0:0
240,356,38455,1,12,0:0:0
244,360,38869,2,0,P|288:356|308:312,1,80.0000030517579,2|0,0:0|0:0,0:0:0
280,300,39282,22,0,P|336:296|380:344,1,120.000004577637,2|2,0:0|0:0,0:0:0
436,236,40110,1,12,0:0:0
472,164,40386,1,2,0:0:0
472,164,40524,2,0,P|492:120,2,40.000001525879,2|2|2,0:0|0:0|0:0,0:0:0
436,148,40938,54,0,P|392:104|424:36,1,120.000004577637,2|2,0:0|0:0,0:0:0
316,184,41765,1,12,0:0:0
308,188,42179,1,2,0:0:0
224,316,42593,5,2,0:0:0
232,320,43007,1,2,0:0:0
192,208,43420,2,0,P|184:92|184:72,1,120.000004577637,12|2,0:0|0:0,0:0:0
32,184,44248,5,2,0:0:0
32,184,44662,2,0,P|40:232|56:280,1,80.0000030517579,2|0,0:0|0:0,0:0:0
68,296,45076,1,12,0:0:0
164,368,45489,2,0,P|185:324|201:276,1,80.0000030517579,2|2,0:0|0:0,0:0:0
200,256,45903,53,2,0:0:0
304,92,46317,1,2,0:0:0
316,292,46731,1,12,0:0:0
192,136,47145,1,2,0:0:0
380,188,47558,6,0,P|448:180|516:168,1,120.000004577637,6|2,0:0|0:0,0:0:0
428,72,48386,1,12,0:0:0
312,108,48800,2,0,P|212:92,1,80.0000030517579,2|0,0:0|0:0,0:0:0
192,104,49214,5,2,0:0:0
240,216,49627,1,2,0:0:0
324,128,50041,2,0,P|336:176,2,40.000001525879,12|2|2,0:0|0:0|0:0,0:0:0
312,108,50455,1,2,0:0:0
472,224,50869,54,0,P|448:256|460:304,1,80.0000030517579,2|0,0:0|0:0,0:0:0
472,328,51282,2,0,P|420:344|384:280,1,120.000004577637,2|12,0:0|0:0,0:0:0
396,180,52110,2,0,P|432:144|476:148,1,80.0000030517579,2|0,0:0|0:0,0:0:0
496,156,52524,6,0,P|496:88|452:48,1,120.000004577637,2|2,0:0|0:0,0:0:0
344,40,53351,1,0,0:0:0
344,40,53765,1,2,0:0:0
356,80,53903,1,2,0:0:0
368,120,54041,1,0,0:0:0
340,152,54179,6,0,P|280:172|216:120,1,120.000004577637,2|2,0:0|0:0,0:0:0
112,268,55007,1,12,0:0:0
116,264,55420,1,2,0:0:0
216,300,55834,53,2,0:0:0
220,304,56248,2,0,P|256:324|312:312,1,80.0000030517579,2|0,0:0|0:0,0:0:0
320,352,56662,2,0,P|328:292|288:244,1,120.000004577637,12|2,0:0|0:0,0:0:0
412,96,57489,5,8,0:0:0
464,280,57903,1,8,0:0:0
404,100,58317,1,12,0:0:0
460,284,58731,1,8,0:0:0
288,196,59145,5,8,0:0:0
288,196,59282,2,0,P|232:208|176:160,1,128,8|12,0:0|0:0,0:0:0
116,256,59972,2,0,P|192:312|256:308,1,128,12|8,0:0|0:0,0:0:0
416,372,60800,53,12,0:0:0
480,260,61076,1,0,0:0:0
480,260,61214,2,0,P|424:236|340:268,1,128,8|6,0:0|0:0,0:0:0
392,168,64110,5,12,0:0:0
460,240,64386,1,0,0:0:0
460,240,64524,2,0,P|392:272|332:248,1,128,8|6,0:0|0:0,0:0:0
376,332,67420,5,12,0:0:0
440,220,67696,1,0,0:0:0
440,220,67834,2,0,P|380:192|296:232,1,128,8|6,0:0|0:0,0:0:0
348,116,70731,53,12,0:0:0
420,200,71007,1,0,0:0:0
420,200,71145,2,0,P|372:236|320:224|320:224|312:260,1,128,8|14,0:0|0:0,0:0:0
168,176,74041,38,0,P|208:120|200:52,1,136.000002593994,12|8,0:0|0:0,0:0:0
72,92,74869,1,10,0:0:0
80,224,75282,2,0,P|32:244,1,45.3333341979981,2|2,0:0|0:0,0:0:0
88,228,75558,2,0,P|108:276,1,45.3333341979981,0|2,0:0|0:0,0:0:0
232,320,76110,38,0,P|228:272,1,45.3333341979981,2|2,0:0|0:0,0:0:0
244,320,76386,2,0,P|296:324,1,45.3333341979981,0|2,0:0|0:0,0:0:0
360,268,76800,2,0,P|352:200,1,45.3333341979981,0|2,0:0|0:0,0:0:0
408,92,77351,38,0,P|344:104|344:104|260:68,1,136.000002593994,12|8,0:0|0:0,0:0:0
152,20,78179,1,10,0:0:0
44,100,78592,2,0,P|16:120|-4:120,1,45.3333341979981,2|0,0:0|0:0,0:0:0
48,92,78868,2,0,P|40:64|28:44,1,45.3333341979981,0|2,0:0|0:0,0:0:0
196,160,79420,38,0,P|168:152|148:140,1,45.3333341979981,2|2,0:0|0:0,0:0:0
200,168,79696,2,0,P|184:192|180:216,1,45.3333341979981,0|2,0:0|0:0,0:0:0
208,296,80110,2,0,P|212:328|204:368,1,45.3333341979981,0|2,0:0|0:0,0:0:0
372,328,80662,38,0,P|436:300|520:296,1,136.000002593994,12|12,0:0|0:0,0:0:0
436,176,81489,1,6,0:0:0
504,92,81765,1,4,0:0:0
504,92,81903,2,0,P|460:68|388:76,1,90.6666683959961,4|4,0:0|0:0,0:0:0
392,80,82317,37,12,0:0:0
228,80,82731,2,0,P|200:20,2,45.3333341979981,4|0|4,0:0|0:0|0:0,0:0:0
256,104,83145,2,2,P|252:156|200:196,1,90.6666683959961,10|0,0:0|0:0,0:0:0
196,200,83558,1,8,0:0:0
228,360,83972,37,6,0:0:0
360,264,84386,2,0,P|408:280|480:252,1,90.6666683959961,4|0,0:0|0:0,0:0:0
476,248,84800,37,4,0:0:0
444,144,85076,2,0,P|432:72,3,45.3333341979981,12|4|4|4,0:0|0:0|0:0|0:0,0:0:0
412,128,85627,37,2,0:0:0
408,136,87282,6,0,P|404:148|404:148|416:140|416:140|400:140|400:140|352:140|352:140|344:144|344:144|336:140|336:140|288:140,1,143.999995605469,8|8,0:0|0:0,0:0:0
196,184,88110,1,14,0:0:0
196,184,88524,2,0,P|180:240,2,47.9999985351563,8|8|8,0:0|0:0|0:0,0:0:0
208,236,88938,6,2,P|268:240|300:205,1,95.9999970703126,10|0,0:0|0:0,0:0:0
304,200,89351,1,8,0:0:0
396,316,89765,2,0,P|413:343|410:290,1,143.999995605469,12|0,0:0|0:0,0:0:0
376,136,90593,69,8,0:0:0
376,136,91007,1,8,0:0:0
376,136,91420,2,2,P|296:112|284:72,1,95.9999970703126,14|0,0:0|0:0,0:0:0
276,72,91834,1,2,0:0:0
276,72,91972,1,2,0:0:0
276,72,92110,1,2,0:0:0
276,72,92248,6,2,P|248:144|280:188,1,95.9999970703126,10|0,0:0|0:0,0:0:0
268,192,92662,2,0,P|248:252,2,47.9999985351563,2|0|2,0:0|0:0|0:0,0:0:0
288,228,93076,1,14,0:0:0
228,360,93489,1,2,0:0:0
84,344,93903,70,2,P|49:363|65:296,1,143.999995605469,10|10,0:0|0:0,0:0:0
108,164,94731,2,0,P|92:112,2,47.9999985351563,14|0|2,0:0|0:0|0:0,0:0:0
176,140,95145,2,0,P|160:88,2,47.9999985351563,2|0|2,0:0|0:0|0:0,0:0:0
244,116,95558,2,2,P|344:88,1,95.9999970703126
312,24,95972,2,2,P|219:49,1,95.9999970703126
152,36,96386,5,14,0:0:0
112,180,96800,1,8,0:0:0
228,264,97214,70,2,P|248:256|268:256|268:256|284:240|284:240|304:236|304:236|320:244|320:244|356:248|392:208,1,143.999995605469,10|10,0:0|0:0,0:0:0
476,320,98041,1,14,0:0:0
480,176,98455,1,2,0:0:0
480,176,98593,1,2,0:0:0
480,176,98731,1,2,0:0:0
480,176,98869,6,0,P|496:120|460:72,1,95.9999970703126,8|0,0:0|0:0,0:0:0
460,132,99282,2,0,P|413:126|394:64,1,95.9999970703126,8|0,0:0|0:0,0:0:0
388,56,99696,69,12,0:0:0
376,72,100524,6,0,P|372:84|372:84|384:76|384:76|368:76|368:76|320:76|320:76|300:100|256:76,1,143.999995605469,8|8,0:0|0:0,0:0:0
136,40,101351,1,2,0:0:0
168,180,101765,2,0,P|144:184|96:184,2,47.9999985351563,2|0|2,0:0|0:0|0:0,0:0:0
116,192,102179,70,0,P|106:248|140:277,1,95.9999970703126,2|0,0:0|0:0,0:0:0
172,296,102593,1,2,0:0:0
188,340,102731,1,2,0:0:0
160,384,102869,2,0,P|84:388,1,47.9999985351563,2|12,0:0|0:0,0:0:0
40,264,103420,1,4,0:0:0
44,120,103835,5,8,0:0:0
52,108,104249,1,0,0:0:0
60,96,104662,2,2,P|36:68|36:68|168:68|168:68,1,143.999995605469,14|0,0:0|0:0,0:0:0
288,68,105489,70,2,P|300:136|300:136|296:244,2,143.999995605469,2|10|6,0:0|0:0|0:0,0:0:0
188,172,106731,1,2,0:0:0
192,176,106869,1,2,0:0:0
196,180,107007,1,2,0:0:0
200,184,107145,6,0,P|192:200|192:200|128:200|128:200|88:148,1,143.999995605469,8|8,0:0|0:0,0:0:0
8,276,107972,2,0,P|4:212,2,47.9999985351563,14|0|2,0:0|0:0|0:0,0:0:0
76,292,108386,2,0,P|72:228,2,47.9999985351563,2|0|2,0:0|0:0|0:0,0:0:0
140,316,108800,70,0,P|137:363,2,47.9999985351563,2|0|2,0:0|0:0|0:0,0:0:0
208,300,109214,2,0,P|205:347,2,47.9999985351563,2|0|2,0:0|0:0|0:0,0:0:0
168,240,109628,5,14,0:0:0
320,156,110042,1,10,0:0:0
164,232,110455,70,0,P|164:180|164:180|156:176|156:176|164:172|164:172|164:140|164:140|172:136|172:136|164:132|164:132|164:80,1,143.999995605469,8|14,0:0|0:0,0:0:0
328,160,111283,1,14,0:0:0
436,292,111697,1,2,0:0:0
436,292,111835,1,2,0:0:0
436,292,111973,1,2,0:0:0
436,292,112111,6,0,P|392:316|392:316|344:308,1,95.9999970703126,8|0,0:0|0:0,0:0:0
324,256,112524,2,0,P|300:300|300:300|308:347,1,95.9999970703126,8|0,0:0|0:0,0:0:0
312,364,112938,69,12,0:0:0
212,260,113351,1,8,0:0:0
80,320,113765,6,0,P|72:312|72:312|76:320|76:320|92:268|92:268|68:252|76:200,1,143.999995605469,8|8,0:0|0:0,0:0:0
176,100,114593,1,14,0:0:0
180,104,115007,2,0,P|164:48,2,47.9999985351563,2|0|2,0:0|0:0|0:0,0:0:0
184,108,115421,70,2,P|240:104|276:77,1,95.9999970703126,10|0,0:0|0:0,0:0:0
288,60,115834,1,8,0:0:0
424,108,116248,2,0,P|455:100|415:136,1,143.999995605469,12|2,0:0|0:0,0:0:0
340,268,117076,5,8,0:0:0
296,132,117490,1,8,0:0:0
316,276,117903,2,2,P|412:256|428:184,1,143.999995605469,14|0,0:0|0:0,0:0:0
356,96,118731,70,2,P|284:68|240:100,1,95.9999970703126,10|0,0:0|0:0,0:0:0
236,140,119145,2,0,P|216:200,2,47.9999985351563,2|0|2,0:0|0:0|0:0,0:0:0
196,168,119559,1,14,0:0:0
208,312,119972,1,2,0:0:0
80,244,120386,6,2,P|45:263|61:196,1,143.999995605469,10|10,0:0|0:0,0:0:0
124,72,121214,2,0,P|104:4,2,47.9999985351563,2|0|2,0:0|0:0|0:0,0:0:0
196,68,121627,2,0,P|176:0,2,47.9999985351563,2|0|2,0:0|0:0|0:0,0:0:0
268,60,122041,2,2,P|348:80|348:80|384:148,1,143.999995605469
380,284,122869,69,14,0:0:0
384,288,123283,1,10,0:0:0
244,316,123696,6,0,P|208:336|208:336|152:348|152:348|84:332,1,143.999995605469,8|8,0:0|0:0,0:0:0
180,212,124524,1,14,0:0:0
68,120,124938,2,0,P|12:108,2,47.9999985351563,2|0|2,0:0|0:0|0:0,0:0:0
128,76,125352,70,0,P|244:92,1,95.9999970703126,8|0,0:0|0:0,0:0:0
272,140,125765,2,0,P|256:256,1,95.9999970703126,8|0,0:0|0:0,0:0:0
276,304,126179,5,12,0:0:0
444,280,126593,1,10,0:0:0
448,284,127007,69,12,0:0:0
424,184,127282,2,0,P|408:112,1,42.6666666666667,0|8,0:0|0:0,0:0:0
364,288,127834,1,4,0:0:0
368,292,130318,5,12,0:0:0
344,192,130593,2,0,P|328:120,1,42.6666666666667,0|8,0:0|0:0,0:0:0
284,296,131145,1,4,0:0:0
288,300,133627,69,12,0:0:0
264,200,133902,2,0,P|248:128,1,42.6666666666667,0|8,0:0|0:0,0:0:0
204,304,134454,1,4,0:0:0
208,308,136938,5,12,0:0:0
184,208,137214,2,0,P|168:136,1,42.6666666666667,0|8,0:0|0:0,0:0:0
68,56,137766,1,12,0:0:0
144,344,140248,54,0,P|88:304|88:304|20:312,1,136.000002593994,12|8,0:0|0:0,0:0:0
80,188,141076,1,10,0:0:0
104,56,141489,2,0,P|152:36,1,45.3333341979981,2|0,0:0|0:0,0:0:0
192,48,141765,2,0,P|144:68,1,45.3333341979981,0|2,0:0|0:0,0:0:0
228,176,142317,38,0,P|276:156,1,45.3333341979981,2|0,0:0|0:0,0:0:0
316,168,142593,2,0,P|268:188,1,45.3333341979981,0|2,0:0|0:0,0:0:0
216,264,143007,2,0,P|236:312,1,45.3333341979981,0|2,0:0|0:0,0:0:0
404,344,143558,38,0,P|438:288|438:288|434:197,1,136.000002593994,12|8,0:0|0:0,0:0:0
484,88,144386,1,10,0:0:0
348,80,144799,2,0,P|320:100|300:100,1,45.3333341979981,2|0,0:0|0:0,0:0:0
348,72,145075,2,0,P|340:44|328:24,1,45.3333341979981,0|2,0:0|0:0,0:0:0
192,84,145627,38,0,P|164:104|144:104,1,45.3333341979981,2|0,0:0|0:0,0:0:0
204,56,145903,2,0,P|196:28|184:8,1,45.3333341979981,0|2,0:0|0:0,0:0:0
96,28,146317,2,0,P|52:12|28:20,1,45.3333341979981,0|2,0:0|0:0,0:0:0
20,176,146869,38,0,P|84:204|84:204|164:192,1,136.000002593994,12|12,0:0|0:0,0:0:0
232,304,147696,1,6,0:0:0
292,372,147972,1,4,0:0:0
292,372,148110,2,0,P|316:328|308:256,1,90.6666683959961,4|4,0:0|0:0,0:0:0
308,264,148524,37,12,0:0:0
396,160,148938,2,0,P|428:112,2,45.3333341979981,4|0|4,0:0|0:0|0:0,0:0:0
372,120,149352,2,2,P|329:88|284:100,1,90.6666683959961,10|0,0:0|0:0,0:0:0
272,108,149765,1,8,0:0:0
156,36,150179,37,6,0:0:0
160,40,150593,2,0,P|117:65|61:37,1,90.6666683959961,4|0,0:0|0:0,0:0:0
60,40,151007,37,4,0:0:0
40,144,151283,2,0,P|28:216,3,45.3333341979981,12|4|4|4,0:0|0:0|0:0|0:0,0:0:0
68,176,151834,37,2,0:0:0
84,160,153489,6,0,P|88:200|88:200|100:248|100:248|108:320,1,143.999995605469,8|8,0:0|0:0,0:0:0
240,356,154317,1,14,0:0:0
248,212,154731,2,0,P|256:160,2,47.9999985351563,8|8|8,0:0|0:0|0:0,0:0:0
272,172,155145,6,2,P|316:168|360:216,1,95.9999970703126,10|0,0:0|0:0,0:0:0
364,228,155558,1,8,0:0:0
440,104,155972,2,0,P|471:111|431:75,1,143.999995605469,12|0,0:0|0:0,0:0:0
296,44,156800,69,8,0:0:0
296,44,157214,1,8,0:0:0
296,44,157627,2,2,P|188:56,1,95.9999970703126,14|0,0:0|0:0,0:0:0
148,104,158041,2,0,P|148:168,2,47.9999985351563,2|0|2,0:0|0:0|0:0,0:0:0
176,144,158455,6,2,P|248:168|279:138,1,95.9999970703126
312,208,158869,2,0,P|372:196,2,47.9999985351563,2|0|2,0:0|0:0|0:0,0:0:0
276,268,159283,1,14,0:0:0
152,336,159696,1,2,0:0:0
44,244,160110,70,2,P|5:232|64:196,1,143.999995605469,10|10,0:0|0:0,0:0:0
176,104,160938,2,0,P|240:92,2,47.9999985351563,10|0|2,0:0|0:0|0:0,0:0:0
192,172,161351,2,0,P|256:160,2,47.9999985351563,14|0|2,0:0|0:0|0:0,0:0:0
208,240,161765,2,2,P|324:220,1,95.9999970703126,10|2,0:0|0:0,0:0:0
348,280,162179,2,2,P|372:240|352:176,1,95.9999970703126,14|2,0:0|0:0,0:0:0
304,152,162593,5,14,0:0:0
444,28,163007,1,8,0:0:0
300,148,163420,70,2,P|140:132,1,143.999995605469,10|8,0:0|0:0,0:0:0
60,240,164248,1,14,0:0:0
172,332,164662,1,2,0:0:0
196,336,164800,1,2,0:0:0
220,340,164938,1,2,0:0:0
244,344,165076,6,0,P|336:360|336:360|316:296,1,143.999995605469,8|0,0:0|0:0,0:0:0
264,236,165696,2,12,P|284:144,1,71.9999978027344,0|12,0:0|0:0,0:0:0
80,64,166731,70,0,P|28:104|40:184,1,143.999995605469,8|8,0:0|0:0,0:0:0
20,348,167558,1,12,0:0:0
176,276,167972,2,0,P|248:280,2,47.9999985351563,2|2|2,0:0|0:0|0:0,0:0:0
176,204,168386,2,0,P|248:208,2,47.9999985351563,2|2|2,0:0|0:0|0:0,0:0:0
176,132,168800,2,0,P|156:76|176:28|176:28|120:48,1,143.999995605469,2|12,0:0|0:0,0:0:0
20,176,169627,1,10,0:0:0
88,336,170042,5,8,0:0:0
104,344,170456,1,0,0:0:0
120,352,170869,2,2,P|132:344|132:344|176:356|176:356|248:360|240:304,1,143.999995605469,10|2,0:0|0:0,0:0:0
348,184,171696,70,2,P|412:208|412:208|524:192,2,143.999995605469,2|10|6,0:0|0:0|0:0,0:0:0
260,36,172938,2,0,P|232:96,1,47.9999985351563,2|2,0:0|0:0,0:0:0
228,136,173214,1,2,0:0:0
228,136,173351,6,2,P|184:88|84:100,1,143.999995605469,8|0,0:0|0:0,0:0:0
24,236,174179,2,2,P|56:292|120:296,1,95.9999970703126,14|2,0:0|0:0,0:0:0
152,320,174593,2,0,P|160:376,2,47.9999985351563,2|0|2,0:0|0:0|0:0,0:0:0
224,304,175007,2,0,P|232:360,2,47.9999985351563,2|0|2,0:0|0:0|0:0,0:0:0
296,284,175420,2,2,P|396:272,1,95.9999970703126
464,252,175834,69,14,0:0:0
468,256,176248,1,2,0:0:0
496,84,176662,6,0,P|496:24|488:20,2,47.9999985351563,8|0|8,0:0|0:0|0:0,0:0:0
496,84,177076,2,2,P|408:92|372:36,1,143.999995605469,2|14,0:0|0:0,0:0:0
208,96,177903,2,0,P|140:88,2,47.9999985351563,2|0|2,0:0|0:0|0:0,0:0:0
172,120,178317,70,0,P|136:84|160:0,1,143.999995605469
28,116,179145,6,0,P|32:48,2,47.9999985351563,12|8|12,0:0|0:0|0:0,0:0:0
64,160,179558,2,0,P|112:164,2,47.9999985351563,8|8|12,0:0|0:0|0:0,0:0:0
32,208,179972,69,2,0:0:0
