osu file format v10

[General]
AudioFilename: Skrillex.mp3
AudioLeadIn: 0
PreviewTime: 85214
Countdown: 0
SampleSet: Normal
StackLeniency: 0.7
Mode: 0
LetterboxInBreaks: 0
EpilepsyWarning: 1

[Editor]
Bookmarks: 87420
DistanceSpacing: 1
BeatDivisor: 3
GridSize: 4

[Metadata]
Title:First Of The Year (Equinox)
TitleUnicode:First Of The Year (Equinox)
Artist:Skrillex
ArtistUnicode:Skrillex
Creator:nold_1702
Version:FL
Source:
Tags:dubstep ghost witches magic noise noisy CALL 911 NOW Foreverend Pokie Flask Regou Hotdog wub more scary monsters and sprites
BeatmapID:187637
BeatmapSetID:56791

[Difficulty]
HPDrainRate:2
CircleSize:3
OverallDifficulty:2
ApproachRate:2
SliderMultiplier:0.8
SliderTickRate:1

[Events]
//Background and Video events
0,0,"skrillex_by_chollo-d378sfs.jpg"
//Break Periods
2,61827,62550
2,65137,65860
2,68447,69171
2,128034,128757
2,131344,132067
2,134654,135378
//Storyboard Layer 0 (Background)
//Storyboard Layer 1 (Fail)
//Storyboard Layer 2 (Pass)
//Storyboard Layer 3 (Foreground)
Sprite,Foreground,Centre,"Storyboard\Start04.png",320,240 F,0,17765,17972,0,1 M,0,17972,,465,412 F,0,17972,19420,1 F,0,19420,21076,1,0
Sprite,Foreground,Centre,"Storyboard\End02-c.png",320,240 M,0,180179,,454,415 F,0,180179,180593,0,1 F,0,180593,183282,1 F,0,183282,184110,1,0
//Storyboard Sound Samples
//Background Colour Transformations
3,100,163,162,255

[TimingPoints]
1214,413.793103448276,4,2,0,100,1,0
21076,-100,4,2,1,60,0,0
33351,-100,4,2,1,40,0,0
33903,-100,4,2,2,60,0,0
34179,-100,4,2,1,70,0,0
35558,-100,4,2,2,70,0,0
35834,-100,4,2,1,70,0,0
37214,-100,4,2,2,70,0,0
37489,-100,4,2,1,70,0,0
38869,-100,4,2,2,70,0,0
39145,-100,4,2,1,70,0,0
39972,-100,4,2,1,70,0,0
40386,-100,4,2,2,70,0,0
40938,-100,4,2,1,70,0,0
41903,-100,4,2,2,70,0,0
42593,-100,4,2,1,70,0,0
43007,-100,4,2,2,70,0,0
43420,-100,4,2,1,70,0,0
43834,-100,4,2,2,70,0,0
44041,-100,4,2,1,70,0,0
45489,-100,4,2,2,70,0,0
45903,-100,4,2,1,70,0,0
47007,-100,4,2,2,70,0,0
47558,-100,4,2,1,70,0,0
49627,-100,4,2,2,70,0,0
50041,-100,4,2,1,70,0,0
50317,-100,4,2,2,70,0,0
50869,-100,4,2,1,70,0,0
52800,-100,4,2,2,70,0,0
53351,-100,4,2,1,70,0,0
55420,-100,4,2,2,70,0,0
55834,-100,4,2,1,70,0,0
56248,-100,4,2,2,70,0,0
56524,-100,4,2,1,70,0,0
57489,-100,4,1,1,70,0,0
59696,-100,4,2,1,90,0,0
60248,-100,4,1,1,90,0,0
60662,-100,4,1,1,70,0,0
61627,-100,4,2,2,100,0,0
63696,-100,4,1,1,70,0,0
64938,-100,4,2,2,100,0,0
67145,-100,4,1,1,70,0,0
68248,-100,4,2,2,100,0,0
70455,-100,4,1,1,70,0,0
71558,-100,4,2,2,100,0,0
72386,-100,4,2,0,100,0,0
73214,-100,4,1,1,70,0,0
75834,-100,4,2,0,100,0,0
77351,-100,4,1,1,70,0,0
79007,-100,4,2,0,70,0,0
80662,-100,4,1,1,70,0,0
82317,-100,4,1,2,70,0,0
82731,-100,4,1,1,70,0,0
85696,-100,4,1,1,100,0,0
87282,-100,4,1,2,70,0,1
87351,-100,4,1,2,70,0,0
100524,-100,4,1,1,70,0,0
101351,-100,4,2,1,100,0,0
103007,-100,4,2,1,80,0,0
103834,-100,4,1,1,80,0,0
104662,-100,4,1,1,100,0,0
105489,-100,4,1,1,80,0,0
126179,-100,4,2,1,80,0,0
127007,-100,4,1,1,70,0,0
127007,-100,4,1,1,80,0,0
127834,-100,4,2,2,100,0,0
130041,-100,4,1,1,70,0,0
131145,-100,4,2,2,100,0,0
133627,-100,4,1,1,70,0,0
134455,-100,4,2,2,100,0,0
136938,-100,4,1,1,70,0,0
137765,-100,4,2,2,100,0,0
138179,-100,4,2,0,70,0,0
140248,-100,4,1,1,70,0,0
142179,-100,4,2,0,100,0,0
143558,-100,4,1,1,70,0,0
148524,-100,4,1,2,70,0,0
148662,-100,4,1,1,70,0,0
150593,-100,4,1,2,70,0,0
150731,-100,4,1,1,70,0,0
151903,-100,4,1,1,100,0,0
153489,-100,4,1,2,80,0,1
153558,-100,4,1,1,80,0,0
167558,-100,4,2,1,100,0,0
169214,-100,4,1,1,80,0,0
179972,-100,4,2,1,80,0,0

[Colours]
Combo1 : 128,0,128
Combo2 : 0,128,128
Combo3 : 0,128,64
Combo4 : 128,255,128
Combo5 : 0,128,255
Combo6 : 217,0,108

[HitObjects]
256,60,21076,2,0,B|208:28|132:52|112:124,1,160,14|12,0:0|0:0,0:0:0
124,264,22731,2,0,B|143:310|211:338|259:306,1,160,2|12,0:0|0:0,0:0:0
384,204,24386,6,0,B|396:268|436:280|436:280|452:352,1,160,2|12,0:0|0:0,0:0:0
504,192,26041,2,0,B|492:128|452:116|452:116|436:44,1,160,2|12,0:0|0:0,0:0:0
340,180,27696,6,0,B|280:152|248:220|168:184,1,160,2|12,0:0|0:0,0:0:0
148,36,29351,2,0,B|84:16|24:68|36:132,1,160,2|12,0:0|0:0,0:0:0
36,276,31007,54,0,B|50:341|125:367|175:324,1,160,2|12,0:0|0:0,0:0:0
256,208,32662,2,0,B|296:187|368:199|384:275,1,160,2|12,0:0|0:0,0:0:0
352,340,33903,1,2,0:0:0
272,352,34317,6,0,B|104:352,1,160,6|12,0:0|0:0,0:0:0
36,328,35558,1,2,0:0:0
56,252,35972,2,0,B|76:240|76:240|104:268|168:272|204:232,1,160,2|12,0:0|0:0,0:0:0
136,180,37214,1,2,0:0:0
148,100,37627,6,0,B|192:100|192:100|196:140|232:180|280:172,1,160,2|12,0:0|0:0,0:0:0
272,92,38869,1,2,0:0:0
272,12,39282,2,0,B|313:12|345:44|353:84|353:84|397:84,1,160,2|12,0:0|0:0,0:0:0
444,148,40524,1,2,0:0:0
388,208,40938,54,0,B|308:208|308:208|316:256|284:300,1,160,2|12,0:0|0:0,0:0:0
340,352,42179,2,0,B|304:376|248:356,1,80,2|2,0:0|0:0,0:0:0
208,304,43007,2,0,B|174:331|184:376,2,80,2|12|2,0:0|0:0|0:0,0:0:0
284,280,44248,6,0,P|339:273|376:189|324:149,1,160,2|12,0:0|0:0,0:0:0
260,124,45489,1,2,0:0:0
244,204,45903,2,0,P|188:197|151:113|203:73,1,160,2|12,0:0|0:0,0:0:0
264,44,47145,1,2,0:0:0
260,124,47558,5,6,0:0:0
108,72,48386,1,12,0:0:0
16,200,49214,1,2,0:0:0
48,272,49627,1,2,0:0:0
124,304,50041,2,0,B|212:272,1,80,12|2,0:0|0:0,0:0:0
256,332,50869,54,0,B|308:332|308:332|356:308|356:308|432:308,1,160,2|12,0:0|0:0,0:0:0
452,152,52524,1,2,0:0:0
436,72,52938,1,2,0:0:0
372,124,53351,1,12,0:0:0
212,144,54179,6,0,B|168:144|168:144|152:220|72:216,1,160,2|12,0:0|0:0,0:0:0
88,136,55420,1,2,0:0:0
136,72,55834,1,2,0:0:0
216,64,56248,2,0,B|268:60|292:116,1,80,2|12,0:0|0:0,0:0:0
256,256,57489,5,8,0:0:0
200,312,57903,1,8,0:0:0
256,368,58317,1,12,0:0:0
312,312,58731,1,8,0:0:0
256,256,59145,2,0,B|256:136,2,106.666666666667,8|12|8,0:0|0:0|0:0,0:0:0
156,216,60800,54,0,B|156:128|156:128|64:104,1,160,12|6,0:0|0:0,0:0:0
200,204,64110,6,0,B|152:260|92:224|92:224|52:248,1,160,12|6,0:0|0:0,0:0:0
340,276,67420,6,0,B|348:216|324:164|268:132,1,160,12|6,0:0|0:0,0:0:0
160,244,70731,69,12,0:0:0
240,232,71145,1,8,0:0:0
192,168,71558,70,0,B|176:104|156:120|132:72|132:72|128:16,1,160,14|2,0:0|0:0,0:0:0
288,32,74041,38,2,B|324:64|324:64|384:52|416:116,1,160,14|8,0:0|0:0,0:0:0
340,140,75282,1,8,0:0:0
260,152,75696,1,4,0:0:0
180,152,76110,2,0,B|132:156|112:100,1,80,2|2,0:0|0:0,0:0:0
76,268,77351,38,2,B|92:332|144:368|208:356,1,160,14|8,0:0|0:0,0:0:0
352,352,79007,1,2,0:0:0
424,320,79420,2,0,B|496:284,1,80,2|2,0:0|0:0,0:0:0
468,128,80662,38,0,B|444:96|444:96|404:76|364:96|364:96|336:132,1,160,12|12,0:0|0:0,0:0:0
268,156,81903,1,4,0:0:0
192,180,82317,2,0,B|196:224|216:280,2,80,12|4|8,0:0|0:0|0:0,0:0:0
112,192,83558,1,12,0:0:0
56,248,83972,38,0,B|44:320|80:364|80:364|148:376|200:332,1,240,12|0,0:0|0:0,0:0:0
268,312,85627,1,2,0:0:0
188,152,87282,54,0,B|236:100|300:128|300:128|352:104,1,160,12|10,0:0|0:0,0:0:0
492,84,88938,1,10,0:0:0
440,236,89765,1,12,0:0:0
320,340,90593,6,0,B|268:352|244:368|244:368|220:352|168:340,1,160,12|10,0:0|0:0,0:0:0
28,268,92248,1,10,0:0:0
76,116,93076,1,14,0:0:0
232,156,93903,70,0,B|280:156|320:184,1,80,8|0,0:0|0:0,0:0:0
352,108,94731,2,2,B|432:100|428:136|504:156|504:156|436:188|456:216|360:236,1,320,10|12,0:0|0:0,0:0:0
208,216,97214,5,8,0:0:0
160,280,97627,2,2,B|128:304|104:304|64:284,2,80
232,316,98869,2,0,B|264:292|288:292|328:312,3,80,8|8|8|8,0:0|0:0|0:0|0:0,0:0:0
324,220,100524,70,0,B|368:224|368:224|416:200,1,80,8|8,0:0|0:0,0:0:0
480,232,101351,2,0,B|500:180|468:116|396:108|320:136|320:136|228:136,1,320,12|8,0:0|0:0,0:0:0
88,72,103834,5,8,0:0:0
112,148,104248,1,0,0:0:0
32,132,104662,2,2,B|52:188|52:188|40:244|40:244|56:292,2,160,10|8|10,0:0|0:0|0:0,0:0:0
56,56,106731,1,2,0:0:0
124,96,107145,70,2,B|160:76|220:76,1,80,8|2,0:0|0:0,0:0:0
280,64,107972,2,2,B|352:56|424:112|408:200|384:228|384:228|424:308|424:308,1,320,14|12,0:0|0:0,0:0:0
260,344,110455,5,8,0:0:0
180,332,110869,1,8,0:0:0
100,316,111282,2,2,B|44:304|24:272,1,80,14|2,0:0|0:0,0:0:0
28,200,112110,70,0,B|4:160|20:104,2,80,8|12|12,0:0|0:0|0:0,0:0:0
108,212,113351,1,4,0:0:0
184,232,113765,6,0,B|248:232|248:232|284:244|284:244|352:244|352:244,1,160,8|12,0:0|0:0,0:0:0
420,228,115007,1,0,0:0:0
492,192,115420,2,2,B|472:148|416:148,2,80,10|10|10,0:0|0:0|0:0,0:0:0
464,348,117076,70,0,B|360:348,1,80,8|0,0:0|0:0,0:0:0
304,348,117903,6,2,B|248:328|204:360|204:360|160:312,2,160,14|10|10,0:0|0:0|0:0,0:0:0
332,272,119972,1,2,0:0:0
328,192,120386,70,2,B|308:148|272:108,1,80,8|2,0:0|0:0,0:0:0
272,44,121214,2,2,B|200:68|208:144|208:144|152:188|152:188|100:164|40:208,1,320,14|14,0:0|0:0,0:0:0
128,344,123696,5,8,0:0:0
208,356,124110,1,8,0:0:0
288,352,124524,2,2,B|344:352|376:328,1,80,10|2,0:0|0:0,0:0:0
412,268,125351,2,0,B|432:212|424:160|388:108,1,160,14|4,0:0|0:0,0:0:0
344,52,126593,1,6,0:0:0
264,60,127007,69,12,0:0:0
192,88,127420,1,8,0:0:0
148,160,127834,1,6,0:0:0
356,308,130317,6,0,B|412:296|440:268|444:220|440:184,1,160,12|6,0:0|0:0,0:0:0
248,72,133627,70,0,B|264:136|332:132|332:132|332:184,1,160,12|6,0:0|0:0,0:0:0
248,312,136938,5,12,0:0:0
168,320,137351,1,8,0:0:0
88,308,137765,70,0,B|52:288|24:236|40:184|72:160,1,160,14|2,0:0|0:0,0:0:0
268,176,140248,69,14,0:0:0
284,256,140662,1,8,0:0:0
348,208,141076,2,10,B|424:184,1,80
504,200,141903,1,2,0:0:0
488,280,142317,2,0,B|496:376,1,80,2|2,0:0|0:0,0:0:0
336,348,143558,37,14,0:0:0
252,348,143972,1,8,0:0:0
172,348,144386,2,2,B|124:348|124:348|124:348|96:308,1,80,10|2,0:0|0:0,0:0:0
72,248,145214,1,2,0:0:0
72,168,145627,38,2,B|56:88,1,80
212,56,146869,38,0,B|300:60|356:136,1,160,12|4,0:0|0:0,0:0:0
396,196,148110,1,4,0:0:0
356,268,148524,2,0,B|306:335|218:339,1,160,12|8,0:0|0:0,0:0:0
64,296,150179,37,4,0:0:0
12,236,150593,1,4,0:0:0
36,160,151007,1,4,0:0:0
112,136,151420,1,4,0:0:0
172,188,151834,1,2,0:0:0
376,140,153489,6,0,B|392:220|412:296,1,160,12|2,0:0|0:0,0:0:0
256,336,155145,1,2,0:0:0
108,276,155972,1,8,0:0:0
32,136,156800,6,2,B|76:152|120:108,1,80,8|8,0:0|0:0,0:0:0
52,60,157627,1,6,0:0:0
20,216,158455,1,6,0:0:0
168,160,159282,1,10,0:0:0
256,296,160110,70,2,B|272:256|320:244,1,80,10|6,0:0|0:0,0:0:0
376,300,160938,2,2,B|347:264|338:224|366:181|366:181|315:164|254:86|297:6,1,320
432,96,163420,5,2,0:0:0
460,172,163834,1,14,0:0:0
476,252,164248,2,2,B|470:308|432:328,1,80,10|6,0:0|0:0,0:0:0
392,256,165076,70,0,B|372:204|312:176|240:216,1,160,10|12,0:0|0:0,0:0:0
168,344,166731,6,2,B|120:336|112:280,1,80,8|8,0:0|0:0,0:0:0
192,268,167558,1,12,0:0:0
80,156,168386,1,2,0:0:0
240,164,169214,1,12,0:0:0
396,132,170041,70,0,B|440:116|451:74,1,80,8|8,0:0|0:0,0:0:0
372,56,170869,2,2,B|288:72|192:44,2,160,14|10|14,0:0|0:0|0:0,0:0:0
396,132,172938,1,2,0:0:0
388,212,173351,6,2,B|360:244|360:244|320:244,1,80,2|2,0:0|0:0,0:0:0
244,244,174179,2,2,B|172:244|172:244|180:188|164:152|124:120|88:124|88:124|88:40,1,320,14|14,0:0|0:0,0:0:0
88,212,176662,69,8,0:0:0
44,280,177076,2,2,B|32:332|40:376,2,80,10|14|2,0:0|0:0|0:0,0:0:0
124,280,178317,2,0,B|136:332|128:376,2,80,8|8|8,0:0|0:0|0:0,0:0:0
88,212,179558,1,8,0:0:0
88,132,179972,5,2,0:0:0
