osu file format v9

[General]
AudioFilename: Skrillex - Bangarang (Ft. Sirah).mp3
AudioLeadIn: 2000
PreviewTime: 26606
Countdown: 0
SampleSet: Soft
StackLeniency: 0.7
Mode: 0
LetterboxInBreaks: 1

[Editor]
Bookmarks: 72410
DistanceSpacing: 1.3
BeatDivisor: 4
GridSize: 4

[Metadata]
Title:Bangarang (feat. Sirah) (Cut Ver.)
Artist:Skrillex
Creator:TicClick
Version:Normal
Source:
Tags:Rue La Cataline Backfire Mapper_31 Samiljul dubstep

[Difficulty]
HPDrainRate:4
CircleSize:4
OverallDifficulty:4
ApproachRate:5
SliderMultiplier:1.2
SliderTickRate:1

[Events]
//Background and Video events
0,0,"Background.jpg"
//Break Periods
2,61715,69043
//Storyboard Layer 0 (Background)
//Storyboard Layer 1 (Fail)
//Storyboard Layer 2 (Pass)
//Storyboard Layer 3 (Foreground)
//Storyboard Sound Samples
//Background Colour Transformations
3,100,163,162,255

[TimingPoints]
425,545.454545454546,4,2,1,90,1,0
493,-100,4,2,1,50,0,0
9084,-100,4,1,0,90,0,0
9220,-100,4,2,1,65,0,0
24356,-100,4,1,0,90,0,0
24493,-100,4,2,1,80,0,0
26606,-100,4,1,0,70,0,1
26675,-100,4,1,0,70,0,0
44061,-100,4,1,0,70,0,1
61447,-100,4,1,0,70,0,0
61515,-100,4,1,0,80,0,1
61584,-100,4,2,1,80,0,0
72356,-100,4,1,0,80,0,0
72493,-100,4,2,1,80,0,0
76720,-100,4,1,0,80,0,0
77811,-100,4,2,1,80,0,0
78902,-100,4,1,0,70,0,0
96425,-100,4,1,0,70,0,1
113129,-100,4,1,0,70,0,0
113197,-100,4,1,0,70,0,1
113265,-100,4,1,0,70,0,0

[Colours]
Combo1 : 231,121,1
Combo2 : 15,116,238
Combo3 : 173,19,232
Combo4 : 238,11,4

[HitObjects]
135,98,425,2,0,B|199:122|223:182,1,120,4|8
100,224,1515,2,0,B|131:290|189:294,1,120,0|8
322,294,2606,2,0,B|381:290|412:224,1,120,0|8
377,98,3697,2,0,B|313:122|289:182,1,120,0|8
172,120,4788,5,2
64,192,5334,1,8
184,248,5879,1,2
256,360,6425,1,8
328,248,6970,1,2
256,192,7515,12,4,9151
256,192,9697,37,8
352,100,10243,2,0,B|400:144|388:216,2,120,0|8|0
256,192,11879,1,0
160,100,12425,2,0,B|112:144|124:216,1,120,0|8
140,340,13515,6,0,B|256:296,1,120,0|8
332,192,14606,2,0,B|204:200,1,120,0|8
80,212,15697,2,0,B|72:148|116:103,1,120,0|8
244,64,16788,5,0
244,64,17061,1,0
244,64,17334,1,8
372,100,17879,5,2
356,232,18425,1,8
256,320,18970,1,0
156,232,19515,1,8
140,100,20061,6,0,B|253:139,1,120,2|8
312,256,21152,2,0,B|198:216,1,120,0|8
139,100,22243,6,0,B|68:96|40:161,1,120,0|8
52,288,23334,2,0,B|132:188,1,120
256,192,24425,5,4
256,192,24970,1,8
126,194,25515,2,0,B|128:268|185:312|236:324,1,180,2|0
312,312,26606,5,6
256,192,27152,1,8
280,116,27425,1,0
324,52,27697,1,0
456,48,28243,2,0,B|448:124|384:152,1,120,8|0
324,256,29334,1,8
196,288,29879,2,0,B|220:168,1,120,2|8
120,80,30970,6,0,B|96:197,1,120,6|8
172,192,31788,1,0
244,160,32061,2,0,B|263:226|323:246,1,120,0|8
372,124,33152,1,0
400,252,33697,1,8
268,284,34243,2,0,B|208:256,1,60
268,204,34788,2,0,B|246:148,1,60,8|0
176,112,35334,5,6
292,48,35879,1,8
292,48,36152,1,0
292,48,36425,2,0,B|410:63,1,120,0|8
328,164,37515,2,0,B|256:156|256:156|212:176,1,120,0|8
116,88,38606,2,0,B|168:60,2,60,2|0|8
84,216,39697,6,0,B|144:320,1,120,6|8
208,272,40515,1,0
268,224,40788,2,0,B|326:238,2,60,0|0|8
164,140,41879,2,0,B|104:172,2,60,0|0|8
284,84,42970,2,0,B|340:116,1,60
280,168,43515,2,0,B|383:229,1,120,8|6
384,360,44606,5,8
328,304,44879,1,0
268,352,45152,2,0,B|221:314,1,60
156,360,45697,1,8
128,228,46243,2,0,B|172:188|188:120,1,120,0|8
304,60,47334,2,0,B|280:116|285:178,1,120,2|8
388,260,48425,6,0,B|328:284|328:284|286:320,1,120,6|8
232,264,49243,1,0
180,208,49515,2,0,B|134:246,2,60,0|0|8
144,80,50606,2,0,B|187:119|254:119,1,120,0|8
304,56,51425,1,0
379,76,51697,2,0,B|343:131|346:189,1,120,0|8
296,248,52515,1,0
220,236,52788,5,6
244,108,53334,1,8
168,104,53606,1,0
104,148,53879,2,0,B|108:212|108:212|85:263,1,120,0|8
164,368,54970,2,0,B|168:308|168:308|192:250,1,120,0|8
256,296,55788,1,2
320,252,56061,2,0,B|344:308|344:308|348:368,1,120,2|8
444,276,57152,6,0,B|476:160,1,120,6|8
452,84,57970,1,0
372,84,58243,2,0,B|320:116,1,60
376,170,58788,2,0,B|324:201,1,60,8|2
380,256,59334,2,0,B|328:284|328:284|340:320|328:345,1,120,0|8
256,316,60152,1,0
183,343,60425,2,0,B|172:320|184:284|184:284|132:256,2,120,0|8|6
211,128,70243,6,0,B|173:151|164:196|164:196|164:232,2,120,4|8|0
256,212,71879,1,8
300,128,72425,2,0,B|338:151|348:196|348:196|348:232,1,120,4|8
312,308,73515,2,0,B|256:272|200:308,1,120,0|8
256,192,74606,12,10,76243
256,192,76788,5,6
256,192,77334,1,6
128,152,77879,2,0,B|96:56,2,90,6|0|2
96,224,78970,6,0,B|72:280|72:280|32:324,1,120,6|8
104,356,79788,1,0
156,296,80061,2,0,B|179:240,1,60
256,260,80606,1,8
332,240,80879,1,0
304,168,81152,2,0,B|256:140|256:140|233:79,1,120,2|8
100,92,82243,2,0,B|40:56,2,60,0|0|10
233,79,83334,6,0,B|188:120|188:120|176:184,1,120,2|8
256,192,84152,1,0
334,205,84425,2,0,B|324:264|324:264|279:305,1,120,0|8
256,192,85515,12,8,87152
256,192,87697,6,0,B|336:280,1,120,6|8
392,336,88515,1,0
440,276,88788,2,0,B|464:252|472:216,1,60
452,148,89334,2,0,B|428:128|392:120,1,60,8|0
324,144,89879,6,0,B|207:115,1,120,2|8
148,164,90697,2,2,B|172:224,1,60,2|0
120,280,91243,1,0
176,336,91515,2,2,B|236:324,1,60,10|0
312,331,92061,6,0,B|364:304|383:238,1,120,2|8
324,188,92879,1,0
252,216,93152,2,0,B|208:196|208:196|159:143,1,120,0|8
212,84,93970,1,0
288,68,94243,6,2,B|344:96,1,60,2|0
416,116,94788,2,2,B|432:176,1,60,8|2
356,196,95334,1,0
356,196,95606,1,0
344,120,95879,2,0,B|328:56,1,60,8|0
256,88,96425,5,6
204,148,96697,2,0,B|176:208,1,60,0|8
256,216,97243,1,2
308,272,97515,2,0,B|336:332,1,60,0|0
256,340,98060,1,8
132,320,98606,6,0,B|72:308|72:308|27:261,1,120,2|8
84,208,99425,1,2
108,132,99697,2,0,B|168:108,2,60,0|0|10
240,132,100788,6,0,B|350:179,1,120,2|8
295,234,101606,2,0,B|232:208,1,60,2|0
240,288,102152,1,0
240,288,102425,1,8
364,332,102970,5,2
424,284,103243,1,0
452,212,103515,2,2,B|464:188|472:148,1,60,8|2
392,156,104061,2,0,B|364:144|344:116,1,60
296,56,104606,2,0,B|264:64|240:92,1,60,8|0
260,164,105152,6,0,B|300:212|356:244,1,120,6|8
288,288,105970,1,2
211,312,106243,2,0,B|192:340|184:365,2,60,0|0|8
104,236,107334,6,0,B|84:108,1,120,2|8
164,104,108152,2,2,B|176:180,1,60,2|0
236,208,108697,2,0,B|256:152,1,60,0|10
336,44,109515,5,2
408,76,109788,1,0
428,152,110061,1,8
388,220,110334,1,2
328,272,110606,2,0,B|380:312,2,60,0|0|8
252,284,111425,1,0
204,224,111697,6,2,B|184:160,1,60,2|0
116,132,112243,2,0,B|100:192,1,60,8|0
24,200,112788,2,0,B|40:292,1,90,2|4
