osu file format v9

[General]
AudioFilename: Skrillex - Bangarang (Ft. Sirah).mp3
AudioLeadIn: 2000
PreviewTime: 26606
Countdown: 0
SampleSet: Soft
StackLeniency: 0.7
Mode: 0
LetterboxInBreaks: 1

[Editor]
Bookmarks: 87549
DistanceSpacing: 1.3
BeatDivisor: 4
GridSize: 8

[Metadata]
Title:Bangarang (feat. Sirah) (Cut Ver.)
Artist:Skrillex
Creator:TicClick
Version:LC
Source:
Tags:Rue La Cataline Backfire Mapper_31 Samiljul dubstep

[Difficulty]
HPDrainRate:6
CircleSize:4
OverallDifficulty:7
ApproachRate:9
SliderMultiplier:2.8
SliderTickRate:1

[Events]
//Background and Video events
0,0,"Background.jpg"
//Break Periods
//Storyboard Layer 0 (Background)
//Storyboard Layer 1 (Fail)
//Storyboard Layer 2 (Pass)
//Storyboard Layer 3 (Foreground)
//Storyboard Sound Samples
//Background Colour Transformations
3,100,163,162,255

[TimingPoints]
425,545.454545454546,4,2,0,90,1,0
493,-100,4,2,0,50,0,0
9084,-100,4,1,0,90,0,0
9220,-100,4,2,1,65,0,0
18356,-100,4,2,0,65,0,0
18697,-100,4,2,1,65,0,0
20538,-100,4,2,0,65,0,0
20811,-100,4,2,1,65,0,0
24356,-100,4,1,0,70,0,0
24493,-100,4,2,1,80,0,0
26538,-80,4,1,0,70,0,0
26606,-80,4,1,0,70,0,1
26675,-80,4,1,0,70,0,0
30629,-66.6666666666667,4,1,0,70,0,0
31106,-80,4,1,0,70,0,0
39356,-66.6666666666667,4,1,0,70,0,0
39765,-80,4,1,0,70,0,0
44061,-80,4,1,0,70,0,1
44197,-80,4,2,0,70,0,1
44470,-80,4,1,0,70,0,1
45220,-80,4,2,0,70,0,1
45356,-80,4,1,0,70,0,1
45834,-80,4,2,0,70,0,1
46243,-80,4,1,0,70,0,1
48084,-66.6666666666667,4,1,0,70,0,1
48493,-80,4,2,0,70,0,1
48834,-80,4,1,0,70,0,1
50197,-80,4,2,0,70,0,1
50606,-80,4,1,0,70,0,1
52925,-80,4,2,0,70,0,1
53197,-80,4,1,0,70,0,1
53947,-80,4,2,0,70,0,1
54084,-80,4,1,0,70,0,1
54561,-80,4,2,0,70,0,1
54970,-80,4,1,0,70,0,1
56811,-66.6666666666667,4,1,0,70,0,1
57288,-80,4,2,0,70,0,1
57561,-80,4,1,0,70,0,1
58925,-80,4,2,0,70,0,1
59334,-80,4,1,0,70,0,1
61447,-80,4,1,0,70,0,0
61515,-80,4,1,0,80,0,1
61584,-80,4,1,0,70,0,0
62197,-133.333333333333,4,2,1,70,0,0
69902,-133.333333333333,4,1,0,70,0,0
70652,-100,4,2,1,70,0,0
75629,-133.333333333333,4,2,1,70,0,0
76720,-66.6666666666667,4,1,0,80,0,0
77197,-66.6666666666667,4,1,0,80,0,0
77811,-80,4,2,1,80,0,0
78697,-80,4,1,1,80,0,0
78902,-80,4,1,0,70,0,0
96425,-80,4,1,0,70,0,1
96561,-80,4,2,0,70,0,1
96902,-80,4,1,0,70,0,1
98879,-80,4,2,0,70,0,1
99152,-80,4,1,0,70,0,1
100925,-80,4,2,0,70,0,1
101334,-80,4,1,0,70,0,1
105288,-80,4,2,0,70,0,1
105629,-80,4,1,0,70,0,1
107606,-80,4,2,0,70,0,1
107879,-80,4,1,0,70,0,1
109652,-80,4,2,0,70,0,1
109993,-80,4,1,0,70,0,1
112788,-80,4,1,0,70,0,0
113606,-80,4,2,0,50,0,0

[Colours]
Combo1 : 231,121,1
Combo2 : 15,116,238
Combo3 : 173,19,232
Combo4 : 238,11,4

[HitObjects]
88,128,425,2,0,B|104:196,1,70,4|0
144,344,697,1,2
144,344,970,2,0,B|160:276,1,70,8|0
184,184,1243,2,0,B|252:200,1,70
252,200,1515,1,0
336,160,1652,1,0
328,256,1788,1,0
328,256,2061,2,0,B|384:272|456:272,1,105,8|0
431,271,2334,1,0
472,344,2470,1,0
448,192,2606,6,0,B|456:152|456:96,1,70,0|0
382,36,2879,2,2,B|382:92|376:176,1,140,0|8
288,160,3288,1,0
196,168,3425,1,0
104,148,3561,1,0
16,160,3697,2,0,B|8:192|3:228,1,70
168,80,3970,2,0,B|104:40|24:72,1,140,0|8
136,232,4379,1,0
136,232,4515,2,0,B|168:240|208:240,1,70
296,240,4788,6,0,B|392:240,1,70
296,144,5061,2,0,B|384:128,1,70,2|0
280,40,5334,2,0,B|376:24,1,70,8|0
349,28,5606,1,0
432,72,5743,1,0
296,240,5879,2,0,B|136:224,2,140,0|8|8
400,192,6561,1,0
392,320,6697,1,0
280,360,6834,1,0
296,240,6970,6,0,B|224:232,1,70
64,328,7243,2,0,B|136:320,1,70,2|0
226,232,7515,2,0,B|264:152|224:64,1,140,8|0
312,72,7925,1,0
160,120,8061,1,0
256,16,8197,1,0
176,40,8334,2,0,B|8:24,1,140,8|8
64,144,8743,2,0,B|80:224,1,70,2|4
40,296,9015,1,2
48,320,9084,1,0
56,344,9152,6,0,B|280:360,1,210,4|2
240,272,9697,2,0,B|400:280,1,140,8|0
424,200,10106,1,0
368,88,10243,2,0,B|280:80,1,70,12|0
224,56,10515,5,2
144,40,10652,1,10
80,88,10788,1,2
128,152,10925,1,2
208,168,11061,1,10
272,120,11197,1,2
344,168,11334,6,0,B|240:152|144:224,1,210,8|2
0,200,11879,2,0,B|40:192|88:192,1,70,8|0
120,304,12152,2,0,B|80:311|50:311,1,70
232,280,12425,2,0,B|352:272,1,105,2|0
336,273,12697,2,0,B|351:215|351:175,1,70,4|0
218,32,12970,2,0,B|200:80|216:136,1,105,0|0
216,136,13242,2,0,B|344:128,1,105,10|8
464,88,13515,6,0,B|424:312,1,210,8|0
323,340,14061,2,0,B|336:272,1,70,10|0
336,64,14334,2,0,B|323:132,1,70
232,280,14606,1,12
232,280,14879,5,2
144,320,15015,1,10
64,264,15152,1,2
72,176,15288,1,2
152,128,15425,1,10
232,184,15561,1,2
232,280,15697,6,0,B|280:344|376:344|416:264,1,210,8|0
456,128,16243,2,0,B|408:112|352:136,1,105,10|0
312,200,16515,2,0,B|352:216|392:200,1,70,0|2
150,128,16788,6,0,B|96:152|48:136,1,105,12|0
10,62,17060,2,0,B|32:56|80:64,1,70,0|10
344,312,17334,2,0,B|289:335|241:319,1,105
200,240,17606,2,0,B|248:232|280:240,1,70,10|0
270,238,17811,1,0
270,238,17879,5,10
424,144,18015,2,0,B|352:120|272:160,1,140,0|2
136,112,18425,2,0,B|176:104|205:113,1,70,8|0
216,312,18697,2,0,B|176:320|146:310,1,70,0|0
360,232,18970,2,0,B|498:251,1,140,12|2
416,328,19379,5,10
360,232,19515,1,2
272,296,19652,1,2
224,200,19788,1,2
128,264,19925,1,2
128,264,19993,1,0
128,264,20061,6,0,B|88:200|120:120,1,140,8|0
152,48,20470,1,2
248,80,20606,2,0,B|336:96,1,70,8|0
424,216,20879,2,0,B|336:200,1,70,0|0
304,328,21152,6,0,B|408:344,1,105,10|0
407,343,21425,2,0,B|504:320,1,70,4|8
224,248,21697,2,0,B|120:264,1,105
120,264,21970,2,0,B|23:240,1,70,12|0
52,247,22175,1,0
52,247,22243,5,2
120,144,22379,2,0,B|288:112,1,140
368,88,22788,2,0,B|440:128,1,70,2|0
432,232,23061,2,0,B|360:272,1,70,0|0
208,184,23334,2,0,B|280:224,1,70,2|0
272,328,23606,1,2
272,328,23743,1,0
144,328,23879,1,2
144,328,24015,1,0
56,240,24152,1,2
56,240,24288,1,0
88,112,24425,5,4
88,112,24561,2,2,B|152:72|232:80,1,140,0|0
332,72,24970,2,0,B|336:112|328:144,1,70
228,256,25243,2,0,B|228:208|244:168,1,70,2|0
440,48,25515,2,2,B|464:160|416:264,1,210,4|4
420,253,26334,1,2
420,253,26606,6,0,B|320:272,1,87.4999986961484,6|2
112,328,26879,2,2,B|212:309,1,87.4999986961484,0|2
224,224,27152,2,0,B|208:136,1,87.4999986961484,10|0
336,56,27425,2,0,B|320:142,1,87.4999986961484,2|0
464,128,27697,2,0,B|448:40,1,87.4999986961484,2|0
200,48,27970,1,0
72,144,28106,1,0
224,224,28243,2,2,B|296:256|296:256|400:256,1,174.999997392297,8|2
392,256,28788,6,0,B|392:304|376:344,1,87.4999986961484
256,320,29061,1,0
304,176,29197,2,0,B|288:138|288:90,1,87.4999986961484,0|8
408,72,29470,1,0
208,144,29606,2,2,B|144:176|48:152,1,131.249998044223,2|0
79,158,29879,6,2,B|80:240|96:344,1,174.999997392297,0|2
256,320,30288,2,0,B|352:312,1,87.4999986961484,2|8
424,240,30561,1,8
512,192,30697,2,2,B|481:121|392:104|336:168,1,209.999993741512,0|4
168,112,31243,6,0,B|256:136,1,87.4999986961484
224,224,31515,2,2,B|208:288|192:368,1,131.249998044223,8|0
288,320,31788,2,2,B|352:332|416:348,1,131.249998044223,2|0
304,232,32061,2,2,B|320:168|336:88,1,131.249998044223,2|0
252,135,32334,2,2,B|168:112,1,87.4999986961484,0|0
51,219,32606,2,2,B|134:196|224:224,2,174.999997392297,8|0|0
88,296,33288,5,0
168,328,33425,1,0
248,304,33561,1,0
304,232,33697,2,0,B|336:256|336:256|408:256,1,87.4999986961484,8|0
480,208,33970,2,2,B|432:168|432:168|360:168,1,131.249998044223,2|0
363,168,34243,6,0,B|304:96,1,87.4999986961484,4|0
208,32,34515,2,2,B|136:8|48:56,1,131.249998044223,0|0
79,40,34788,2,0,B|144:112,1,87.4999986961484,12|0
216,176,35060,2,2,B|200:240|139:282,1,131.249998044223,2|0
128,304,35334,6,2,B|256:360|256:360|384:304,1,262.499996088445,4|0
384,208,35879,2,2,B|395:172|400:96,1,87.4999986961484,8|0
464,264,36152,2,0,B|466:314|478:350,1,87.4999986961484,2|0
496,160,36425,2,2,B|484:124|480:48,1,87.4999986961484,2|0
272,128,36697,1,0
384,208,36834,1,0
400,56,36970,2,2,B|328:0|224:24,2,174.999997392297,8|2|0
384,208,37652,5,0
264,264,37788,1,0
272,128,37925,1,0
384,208,38061,2,0,B|480:224,1,87.4999986961484,8|0
264,264,38334,2,2,B|112:240,1,131.249998044223,2|0
134,243,38606,6,2,B|111:151|103:63,1,174.999997392297
216,40,39015,1,2
328,8,39152,1,8
360,120,39288,1,8
248,152,39425,2,2,B|264:248|288:376,1,209.999993741512,0|4
384,208,39970,6,0,B|472:192,1,87.4999986961484
432,48,40243,2,2,B|368:40|296:72,1,131.249998044223,8|0
248,152,40515,2,2,B|112:176,1,131.249998044223,2|0
96,288,40788,2,2,B|160:296|232:264,1,131.249998044223,2|0
297,223,41061,2,0,B|384:208,1,87.4999986961484
448,336,41334,2,2,B|368:304|248:344,2,174.999997392297,8|0|0
448,240,42015,5,0
456,136,42152,1,0
472,32,42288,1,0
376,72,42425,2,0,B|336:80|280:72,1,87.4999986961484,8|0
64,64,42697,2,2,B|128:32|224:48,1,131.249998044223,2|0
192,43,42970,6,0,B|183:151,1,87.4999986961484,4|0
184,264,43243,2,2,B|315:271,1,131.249998044223,2|0
315,271,43515,2,2,B|360:248|368:192,1,87.4999986961484,12|0
400,104,43788,1,2
400,104,44061,6,0,B|352:88|312:112,1,87.4999986961484,4|2
240,296,44334,2,0,B|262:341|307:352,1,87.4999986961484,2|0
208,168,44606,2,2,B|103:181|55:101,2,174.999997392297,8|0|0
216,64,45288,1,2
160,280,45425,2,0,B|153:324|177:364,1,87.4999986961484,0|0
280,224,45697,2,0,B|304:184|296:120,1,87.4999986961484,8|2
216,64,45970,2,2,B|303:24|386:54,1,174.999997392297,0|0
488,56,46379,5,0
504,160,46515,1,0
432,216,46652,1,0
360,144,46788,2,0,B|312:136|264:152,1,87.4999986961484,8|0
160,224,47061,2,2,B|192:288|288:288,1,131.249998044223,2|0
267,287,47334,6,2,B|358:284|456:304,1,174.999997392297,0|2
432,216,47743,1,0
448,112,47879,1,8
360,144,48015,1,8
296,72,48152,2,2,B|199:150|111:54,1,209.999993741512,0|4
160,224,48697,6,0,B|168:272|144:320,1,87.4999986961484,2|0
64,256,48970,2,2,B|68:172|40:112,1,131.249998044223,8|0
48,24,49243,2,2,B|103:85|151:102,1,131.249998044223,0|0
240,128,49515,2,2,B|323:132|384:104,1,131.249998044223,0|0
369,110,49788,1,0
464,32,49925,1,0
480,152,50061,2,0,B|464:192|456:240,1,87.4999986961484,8|2
360,352,50334,2,0,B|360:280|376:200,1,131.249998044223
371,221,50606,5,0
280,248,50743,1,0
176,264,50879,1,0
80,280,51015,1,0
152,360,51152,2,0,B|200:344|256:352,1,87.4999986961484,8|0
224,136,51425,2,2,B|157:135|93:151,1,131.249998044223,0|0
94,151,51697,6,0,B|72:104|72:64,1,87.4999986961484,4|0
176,264,51970,2,2,B|242:264|306:248,1,131.249998044223,2|0
305,248,52242,2,2,B|327:295|327:335,1,87.4999986961484,12|0
336,160,52515,2,2,B|320:96|321:29,1,131.249998044223,2|0
320,29,52788,6,0,B|368:16|416:24,1,87.4999986961484,4|2
243,189,53061,2,0,B|227:149|236:104,1,87.4999986961484,2|0
488,136,53333,2,2,B|466:239|376:256,2,174.999997392297,8|0|0
368,352,54015,1,2
296,304,54152,2,0,B|252:297|212:321,1,87.4999986961484
27,254,54424,2,0,B|72:248|112:272,1,87.4999986961484,8|0
56,344,54697,2,0,B|96:257|66:174,1,174.999997392297
16,80,55106,5,0
104,16,55242,1,0
152,120,55379,1,0
240,48,55515,2,0,B|278:34|326:42,1,87.4999986961484,8|0
400,208,55788,2,2,B|368:144|272:144,1,131.249998044223,0|0
292,144,56061,6,0,B|289:235|309:333,1,174.999997392297,4|0
408,312,56470,1,0
400,208,56606,1,8
400,96,56742,1,8
304,256,56879,2,2,B|224:288|88:272,1,209.999993741512,0|4
97,273,57424,6,0,B|49:265|1:289,1,87.4999986961484,2|0
40,192,57697,2,2,B|124:196|184:168,1,131.249998044223,8|0
254,132,57970,2,2,B|317:73|334:25,1,131.249998044223,0|0
232,40,58243,2,2,B|151:60|101:105,1,131.249998044223,0|0
113,93,58515,1,0
40,192,58652,1,0
251,216,58788,2,2,B|295:224|335:239,1,87.4999986961484,8|2
464,72,59061,2,2,B|392:72|312:88,1,131.249998044223,0|0
333,83,59333,5,0
431,177,59470,2,0,B|424:216|416:264,2,87.4999986961484
352,328,59879,1,8
256,320,60015,1,2
160,296,60152,1,2
56,296,60288,1,2
64,176,60424,6,0,B|42:129|42:89,1,87.4999986961484,6|0
136,80,60697,2,0,B|202:80|266:64,1,131.249998044223,6|0
265,64,60969,2,0,B|287:111|287:151,1,87.4999986961484,12|0
336,280,61242,2,0,B|403:281|467:266,1,131.249998044223,6|0
456,240,61515,6,0,B|444:154,1,87.4999986961484,4|0
424,24,61788,2,0,B|338:37,1,87.4999986961484,4|0
136,80,62061,1,12
368,120,62606,1,8
304,176,63015,1,8
216,208,63425,2,0,B|144:216,1,52.4999984353781,8|0
56,224,63697,5,8
288,272,64243,1,8
56,224,64788,1,8
120,288,65197,1,8
208,296,65606,2,0,B|304:280,1,78.7499976530672,8|0
285,283,65879,6,0,B|400:296,1,104.999996870756,8|0
456,216,66425,2,0,B|480:160|471:112,1,104.999996870756,8|0
224,120,66970,2,0,B|288:152|384:136,2,157.499995306134
88,208,68061,5,8
256,312,68606,1,8
440,208,69152,2,2,B|368:192|272:200,2,157.499995306134,4|0|8
200,64,70243,6,0,B|128:136|192:224,1,157.499995306134,4|2
256,264,70788,2,0,B|264:224|256:176,1,70,8|0
104,248,71061,2,0,B|126:281|166:310,1,70
224,344,71334,2,0,B|296:352|368:328,1,140,8|0
394,249,71743,2,0,B|322:241|256:264,1,140,8|0
184,216,72152,1,8
184,216,72425,6,0,B|130:109|210:21,1,210,8|2
392,120,72970,2,0,B|320:88|240:136,1,140,8|0
296,320,73515,2,0,B|352:272|320:160,1,140,8|0
224,232,73925,2,0,B|81:272,1,140,8|0
0,304,74334,1,0
0,304,74606,6,0,B|-8:224|16:80,1,210,0|2
96,112,75152,2,0,B|232:144,1,140,8|0
328,184,75561,1,0
360,88,75697,1,0
360,88,75970,6,0,B|368:32,1,52.4999984353781,0|8
248,96,76243,2,0,B|240:40,1,52.4999984353781
128,144,76515,2,0,B|120:88,1,52.4999984353781,8|0
48,224,76788,6,2,B|155:274|243:194,1,209.999993741512,4|8
360,88,77197,1,0
328,216,77334,2,2,B|284:325|166:331,1,209.999993741512,4|8
80,336,77743,5,0
432,336,77879,1,4
256,192,77947,12,0,78697
256,192,78970,6,2,B|304:192|360:176,1,87.4999986961484,6|0
328,48,79243,2,2,B|280:48|224:64,1,87.4999986961484,2|0
384,288,79515,2,0,B|456:224|432:112,1,174.999997392297,8|2
88,120,80061,2,0,B|56:216,1,87.4999986961484,0|2
128,272,80334,1,2
160,184,80470,1,0
248,184,80606,2,2,B|225:268,1,87.4999986961484,8|2
320,248,80879,2,0,B|288:344,1,87.4999986961484,2|2
352,72,81152,6,2,B|312:56|248:88,1,87.4999986961484,4|0
320,248,81425,2,2,B|368:264|424:232,1,87.4999986961484,2|0
248,184,81697,2,0,B|144:152|64:208,1,174.999997392297,8|2
152,336,82106,1,2
296,331,82243,6,2,B|320:283|320:248,1,87.4999986961484,0|0
280,48,82515,2,0,B|232:24|176:24,1,87.4999986961484,0|2
51,88,82788,2,2,B|-45:160|11:341|152:336,1,349.999994784594,0|4
280,184,83606,6,0,B|312:144|304:72,1,87.4999986961484,2|0
184,24,83879,2,0,B|133:29|87:86,1,87.4999986961484,8|0
80,216,84152,2,2,B|180:224|200:112,1,174.999997392297
304,24,84561,1,2
280,184,84697,2,0,B|368:200,1,87.4999986961484
208,272,84970,2,0,B|120:288,1,87.4999986961484,8|2
288,344,85243,2,0,B|376:360,1,87.4999986961484,2|2
40,304,85515,6,2,B|-16:232|8:128,1,174.999997392297
5,138,85925,1,0
152,192,86061,2,2,B|208:120|184:16,1,174.999997392297,8|2
186,26,86471,1,0
32,64,86606,6,0,B|72:88|128:80,1,87.4999986961484,4|0
368,168,86879,2,2,B|392:88|352:24,1,131.249998044223,0|0
360,40,87152,2,0,B|247:71,1,87.4999986961484,12|0
208,304,87425,2,2,B|416:256,1,174.999997392297,0|6
136,248,87970,6,0,B|32:272,1,87.4999986961484,2|0
184,152,88243,2,2,B|288:176,1,87.4999986961484,8|0
424,360,88515,6,2,B|488:296|456:168,1,174.999997392297,2|6
440,96,88925,1,2
368,160,89061,2,0,B|368:216|376:256,1,87.4999986961484,2|2
312,368,89334,1,8
280,280,89470,1,2
125,270,89606,2,0,B|165:310|192:328,1,87.4999986961484,2|2
104,146,89879,6,0,B|64:152|32:192,1,87.4999986961484,6|0
223,109,90152,2,0,B|264:104|296:64,1,87.4999986961484,2|0
368,224,90425,2,2,B|272:256|184:200,1,174.999997392297,8|2
216,24,90834,1,0
352,112,90970,6,0,B|392:136|448:128,1,87.4999986961484,2|2
368,224,91243,2,0,B|328:248|272:232,1,87.4999986961484,2|2
464,208,91515,2,2,B|468:349|287:405|215:309,1,349.999994784594,0|6
40,160,92334,6,0,B|34:206|50:246,1,87.4999986961484,2|0
200,88,92606,2,2,B|160:72|114:77,1,87.4999986961484,8|0
160,304,92879,2,2,B|264:280|264:168,1,174.999997392297
263,180,93288,1,2
312,72,93425,2,2,B|416:64,1,87.4999986961484,2|0
464,208,93697,2,0,B|376:214,1,87.4999986961484,8|0
288,304,93970,1,2
263,180,94106,1,2
376,214,94243,6,2,B|432:312|360:384,1,174.999997392297,2|0
367,376,94652,1,0
184,256,94788,2,2,B|128:158|200:86,1,174.999997392297,8|2
193,95,95197,1,0
80,224,95334,6,0,B|88:256|93:323,1,87.4999986961484,4|0
376,208,95606,2,2,B|360:64,1,131.249998044223,2|0
361,77,95879,2,0,B|272:88,1,87.4999986961484,8|0
192,344,96152,2,2,B|280:328|384:320,1,174.999997392297,2|6
208,208,96697,5,2
112,232,96834,1,2
16,232,96970,2,0,B|4:165|4:101,1,131.249998044223,8|0
4,101,97243,2,2,B|112:88,1,87.4999986961484
192,48,97515,5,0
288,96,97652,1,2
384,56,97788,1,0
464,112,97925,1,0
464,112,97993,1,0
464,112,98061,2,2,B|456:160|456:208,1,87.4999986961484,10|0
392,336,98334,2,0,B|392:296|384:248,1,87.4999986961484,2|0
272,168,98606,6,2,B|288:232|304:312,1,131.249998044223,6|0
208,264,98879,2,2,B|144:276|80:292,1,131.249998044223,2|2
192,176,99152,2,2,B|176:112|160:32,1,131.249998044223,10|0
256,80,99425,2,2,B|340:57,1,87.4999986961484,2|0
432,32,99697,5,0
384,176,99834,1,2
256,80,99970,1,2
432,32,100106,1,2
432,32,100175,1,0
432,32,100243,2,2,B|552:160|472:368,1,349.999994784594,0|6
288,344,101061,5,2
320,240,101197,1,2
208,264,101334,2,0,B|160:280|96:280,1,87.4999986961484,8|2
18,143,101606,2,0,B|66:127|104:128,1,87.4999986961484,2|0
216,168,101879,5,0
288,96,102015,1,2
376,144,102152,1,2
448,72,102288,1,0
448,72,102356,1,0
448,72,102425,2,2,B|408:56|352:40,1,87.4999986961484,8|2
216,168,102697,2,0,B|256:184|312:200,1,87.4999986961484
440,344,102970,6,2,B|496:304|472:200,1,131.249998044223,6|0
476,225,103243,2,2,B|432:232|384:224,1,87.4999986961484
141,122,103515,2,2,B|85:162|109:266,1,131.249998044223,8|0
104,240,103788,2,2,B|120:288|160:320,1,87.4999986961484
344,96,104061,6,2,B|304:40|200:64,1,131.249998044223,4|0
225,59,104334,2,0,B|231:103|223:151,1,87.4999986961484
312,368,104606,2,0,B|368:328|344:224,1,131.249998044223,12|0
349,250,104879,2,0,B|320:216|304:160,1,87.4999986961484
136,40,105152,5,6
200,240,105425,1,2
272,296,105562,1,2
349,250,105697,2,0,B|496:264,1,131.249998044223,8|0
479,262,105970,2,2,B|496:216|496:176,1,87.4999986961484,2|0
480,80,106243,5,2
336,80,106380,1,0
192,104,106516,1,0
40,112,106653,1,2
40,112,106721,1,0
40,112,106789,2,0,B|68:151|102:185,1,87.4999986961484,8|2
104,352,107062,2,0,B|103:312|111:264,1,87.4999986961484,2|0
296,232,107334,6,2,B|232:216|152:200,1,131.249998044223,2|0
208,304,107607,2,2,B|272:316|336:332,1,131.249998044223,2|2
504,280,107880,2,2,B|440:264|360:248,1,131.249998044223,8|0
272,144,108153,2,2,B|376:168,1,87.4999986961484,2|0
440,120,108425,5,0
344,64,108561,1,2
272,144,108697,1,0
176,88,108834,1,2
112,168,108971,2,2,B|248:344|448:208,1,349.999994784594,0|6
16,216,109789,5,2
56,88,109925,1,2
176,88,110062,2,0,B|224:72|288:72,1,87.4999986961484,8|2
472,136,110334,2,0,B|434:136|386:120,1,87.4999986961484,2|0
360,40,110607,5,2
304,152,110743,1,2
168,176,110880,1,0
56,88,111016,1,2
56,88,111084,1,0
56,88,111153,2,0,B|64:128|80:184,1,87.4999986961484,8|2
160,344,111425,2,0,B|147:301|131:261,1,87.4999986961484,2|2
400,312,111698,6,2,B|360:368|256:344,1,131.249998044223,4|0
281,348,111971,2,0,B|259:312|242:252,1,87.4999986961484
256,160,112243,1,8
344,88,112379,1,0
344,88,112447,1,0
344,88,112515,1,4
448,96,112652,1,0
448,96,112720,1,0
448,96,112788,1,4
256,192,112856,12,4,113606
