osu file format v9

[General]
AudioFilename: Skrillex - Bangarang (Ft. Sirah).mp3
AudioLeadIn: 2000
PreviewTime: 26606
Countdown: 0
SampleSet: Soft
StackLeniency: 0.7
Mode: 0
LetterboxInBreaks: 1

[Editor]
DistanceSpacing: 1.2
BeatDivisor: 8
GridSize: 4

[Metadata]
Title:Bangarang (feat. Sirah) (Cut Ver.)
Artist:Skrillex
Creator:TicClick
Version:Hard
Source:
Tags:Rue La Cataline Backfire Mapper_31 Samiljul dubstep

[Difficulty]
HPDrainRate:6
CircleSize:4
OverallDifficulty:6
ApproachRate:8
SliderMultiplier:2
SliderTickRate:1

[Events]
//Background and Video events
0,0,"Background.jpg"
//Break Periods
2,61715,69493
//Storyboard Layer 0 (Background)
//Storyboard Layer 1 (Fail)
//Storyboard Layer 2 (Pass)
//Storyboard Layer 3 (Foreground)
//Storyboard Sound Samples
//Background Colour Transformations
3,100,163,162,255

[TimingPoints]
425,545.454545454546,4,2,1,90,1,0
493,-100,4,2,1,50,0,0
9084,-100,4,1,0,90,0,0
9220,-100,4,2,1,75,0,0
24356,-100,4,1,0,90,0,0
24493,-100,4,2,1,80,0,0
26606,-100,4,1,0,70,0,1
26675,-100,4,1,0,70,0,0
44061,-100,4,1,0,70,0,1
61447,-100,4,1,0,70,0,0
61515,-100,4,1,0,80,0,1
61584,-100,4,2,1,80,0,0
72356,-100,4,1,0,80,0,0
72493,-100,4,2,1,80,0,0
76720,-100,4,1,0,80,0,0
77193,-80,4,1,0,80,0,0
77811,-100,4,2,1,80,0,0
78902,-100,4,1,0,70,0,0
96425,-100,4,1,0,70,0,1
113129,-100,4,1,0,70,0,0
113197,-100,4,1,0,70,0,1
113265,-100,4,1,0,70,0,0

[Colours]
Combo1 : 231,121,1
Combo2 : 15,116,238
Combo3 : 173,19,232
Combo4 : 238,11,4

[HitObjects]
79,256,425,2,0,B|172:216|172:216|240:145,1,200,4|8
432,128,1515,2,0,B|340:164|340:164|304:204,2,150,0|8|0
420,228,2606,2,0,B|376:248|376:248|348:296|292:304|248:276|240:248,1,200,0|8
248,64,3697,2,0,B|300:120|304:200,2,150,0|8|0
168,124,4788,6,0,B|204:152|212:212|212:212|164:304,1,200,0|10
352,240,5879,2,0,B|312:240|280:259|280:259|240:336,2,150,0|10|2
452,232,6970,2,0,B|444:172|384:144|384:144|348:64,1,200,0|10
144,80,8061,2,0,B|234:120|234:120|256:168,2,150,0|10|2
68,144,9152,6,0,B|160:182,1,100,4|0
255,166,9697,1,8
351,182,9970,2,0,B|393:155,2,50
404,268,10515,2,0,B|451:282,2,50,0|0|8
372,280,10925,1,0
340,292,11061,2,0,B|360:337,2,50,0|0|8
240,276,11606,5,0
148,232,11879,1,8
192,144,12152,1,0
292,144,12425,2,0,B|320:192|376:197,1,100,0|2
468,164,12970,2,0,B|440:116|383:110,1,100,8|2
292,144,13515,6,0,B|272:180|272:180|223:212,1,100,0|0
192,228,13925,1,0
160,244,14061,2,0,B|110:276|110:276|90:312,1,100,8|0
184,348,14606,1,0
280,320,14879,2,0,B|300:364,2,50,0|0|8
300,292,15288,1,0
320,264,15425,2,0,B|288:200,2,50,0|0|8
220,256,15970,5,0
200,156,16243,1,8
124,92,16515,1,0
52,164,16788,2,0,B|100:256,1,100,0|2
180,312,17334,2,0,B|221:221,1,100,8|2
256,128,17879,6,0,B|220:88|162:93,2,100,2|0|8
180,192,18697,2,0,B|152:232|152:232|140:282,1,100
228,332,19243,1,0
260,340,19379,1,0
296,340,19515,1,8
332,332,19652,1,0
364,320,19788,1,0
396,304,19925,1,0
420,280,20061,1,10
456,192,20334,5,0
420,100,20606,1,8
324,68,20879,1,0
360,184,21152,2,0,B|295:215|295:215|278:237,1,100
152,200,21697,2,0,B|216:168|216:168|233:146,1,100,8|0
256,192,22243,12,4,24425
427,214,24970,5,8
427,214,25515,2,0,B|411:266|363:294,1,100,2|0
367,291,25925,2,0,B|363:199|279:179,1,150,2|6
268,279,26606,6,2,B|212:312|212:312|176:304|147:258,1,150,6|0
148,260,27152,1,8
36,208,27425,1,0
88,100,27697,1,0
196,152,27970,1,0
196,152,28106,1,0
196,152,28243,1,8
316,152,28515,1,2
420,212,28788,5,0
397,239,28925,1,0
370,261,29061,1,0
339,278,29197,1,0
305,289,29334,2,0,B|297:349,2,50,8|0|2
159,323,29879,2,0,B|168:264|168:264|132:240|114:192,1,150,2|0
115,193,30425,2,0,B|131:93,1,100,8|0
232,163,30970,6,2,B|243:94|243:94|268:64|307:47,1,150,2|0
306,47,31515,1,8
416,96,31788,1,0
400,216,32061,1,0
332,316,32334,1,0
296,320,32470,1,0
260,324,32606,2,0,B|240:324|240:324|168:292,1,100,8|2
68,224,33152,6,0,B|12:184,2,50
180,180,33697,2,0,B|183:130,2,50,8|0|2
300,156,34243,1,0
460,104,34515,1,0
352,48,34788,1,8
408,208,35061,1,0
300,156,35334,6,2,B|152:196,1,150,2|0
155,195,35879,2,0,B|68:256,1,100,8|0
52,132,36425,1,0
155,195,36697,1,0
155,195,36834,1,0
155,195,36970,2,0,B|184:236|184:236|226:262,1,100,8|2
344,240,37515,6,0,B|360:300,2,50
356,208,37925,1,0
368,176,38061,2,0,B|388:130,2,50,8|0|2
260,124,38606,2,0,B|163:149,1,100,2|0
148,180,39015,1,0
132,212,39152,2,0,B|33:230,1,100,8|0
124,312,39697,6,2,B|200:324|271:286,1,150,2|0
269,287,40243,2,0,B|360:336,2,100,8|0|0
380,240,41061,2,0,B|424:263,2,50,0|0|8
488,192,41606,1,2
404,104,41879,6,0,B|364:132|308:136,1,100
256,28,42425,1,8
256,28,42697,1,2
201,135,42970,2,0,B|164:176|160:228,1,100
216,332,43515,2,0,B|253:291|257:239,1,100,8|0
311,135,44061,6,2,B|360:188|356:288,1,150,6|0
356,274,44606,1,8
256,208,44879,1,0
256,208,45152,1,0
140,236,45425,1,0
140,236,45561,1,0
140,236,45697,2,0,B|42:215,1,100,8|2
108,112,46243,5,0
146,112,46379,1,0
179,102,46515,1,0
204,80,46652,1,0
233,59,46788,1,8
268,52,46925,1,0
302,59,47061,1,2
452,150,47334,2,0,B|432:196|432:196|392:232|338:217,1,150,2|0
339,217,47879,2,0,B|299:309,1,100,8|0
180,316,48425,6,2,B|240:176,1,150,6|0
239,178,48970,2,0,B|196:140|200:84,1,100,8|0
320,88,49515,2,0,B|360:124|352:180,1,100
352,178,49925,1,0
352,178,50061,1,8
428,272,50334,1,2
316,308,50606,6,0,B|344:352,2,50
280,308,51015,1,0
244,308,51152,2,0,B|212:260,2,50,8|0|2
180,156,51697,1,0
24,100,51970,1,0
132,52,52243,1,8
68,204,52515,1,0
180,156,52788,6,2,B|228:184|228:184|322:187,1,150,6|0
322,187,53334,2,0,B|292:228|296:284,1,100,8|0
416,272,53879,1,0
424,152,54152,1,0
412,120,54288,1,0
388,92,54425,1,8
280,44,54697,1,2
164,68,54970,6,0,B|104:76,2,50
188,92,55379,1,0
212,116,55515,2,0,B|268:112,2,50,8|0|2
236,236,56061,2,0,B|288:300|252:384,1,150,2|0
255,376,56606,2,0,B|297:347|357:355,1,100,8|0
400,244,57152,6,2,B|320:212|296:128,1,150,6|0
299,139,57697,2,0,B|348:51,1,100,8|0
228,76,58243,2,0,B|177:162,1,100
141,162,58652,1,0
106,162,58788,2,0,B|54:250,1,100,8|2
168,288,59334,6,0,B|180:340,2,50
280,248,59879,1,8
308,228,60015,1,0
334,204,60152,1,0
353,175,60288,1,0
370,144,60425,1,0
256,104,60697,1,0
142,144,60970,1,8
188,256,61243,1,0
300,216,61515,1,6
136,339,70243,22,0,B|187:319|197:266,1,100,4|0
100,244,70788,2,0,B|155:160,1,100,8|0
208,76,71334,1,0
304,104,71606,1,0
316,136,71743,1,0
328,168,71879,1,0
340,200,72015,1,0
352,232,72152,2,0,B|372:284,2,50,0|0|4
448,256,72697,6,0,B|488:356,1,100,0|8
384,356,73243,1,0
304,296,73515,1,0
304,296,73788,1,2
208,296,74061,1,8
128,356,74333,1,2
30,331,74606,6,0,B|32:280|60:236,1,100,8|0
92,124,75152,2,0,B|40:124|0:156,2,100,8|0|0
160,200,75970,2,0,B|200:168|207:113,2,100,0|8|0
246,238,76788,22,2,B|168:300,1,100,6|0
279,311,77334,2,2,B|380:236,1,124.999998137355,6|0
468,188,77879,22,0,B|440:140|380:136,1,100,2|0
388,136,78288,2,0,B|336:135|303:171|303:171|288:148|256:140,1,150,2|4
156,76,78970,5,6
48,132,79243,1,0
20,248,79515,1,8
96,340,79788,1,0
216,344,80061,6,0,B|236:292,2,50,0|0|0
328,300,80606,1,8
341,267,80743,1,0
354,234,80879,1,0
367,201,81015,1,0
381,169,81152,5,2
356,52,81425,1,2
256,120,81697,1,8
156,52,81970,1,0
131,169,82242,5,0
145,201,82379,1,0
158,234,82515,1,0
171,267,82651,1,0
184,299,82788,2,2,B|232:232|314:239,1,150,10|0
348,252,83334,6,0,B|385:159,1,100,2|2
268,140,83879,2,0,B|232:46,1,100,8|0
124,100,84425,2,0,B|104:148,2,50
188,204,84970,1,8
204,236,85106,1,0
220,268,85243,1,0
236,300,85379,1,0
252,332,85515,5,2
308,224,85788,2,0,B|332:176,1,50
330,179,86061,2,2,B|388:176|428:144,1,100,10|0
352,52,86606,1,0
248,112,86879,1,0
180,212,87152,1,8
176,332,87425,1,0
292,304,87697,6,0,B|348:284|364:232,1,100,6|0
352,120,88243,2,0,B|316:72|262:72,1,100,8|0
156,124,88788,2,0,B|136:144|136:176,2,50
268,72,89334,2,0,B|268:136|244:168,1,100,8|0
219,192,89743,1,0
194,216,89879,6,0,B|194:279|218:311,1,100,2|2
336,328,90425,1,8
428,252,90697,1,0
416,132,90970,1,0
384,120,91106,1,0
348,120,91243,1,0
316,132,91379,1,0
292,156,91515,2,2,B|224:128|175:61,1,150,10|0
176,64,92061,6,0,B|126:150,1,100,2|2
200,248,92606,1,8
256,352,92879,1,0
312,248,93152,2,0,B|357:226,2,50
322,131,93697,1,8
288,140,93834,1,0
256,148,93970,1,0
224,140,94106,1,0
190,131,94243,5,2
75,104,94515,2,0,B|94:150,1,50,0|0
95,150,94788,2,2,B|88:201|103:249,1,100,10|0
208,312,95334,2,0,B|228:264|216:212,1,100
288,116,95879,2,0,B|324:156|324:206,1,100,8|0
216,213,96425,6,0,B|172:240|119:237,1,100,4|2
124,96,96970,1,8
256,52,97243,1,2
364,140,97515,1,0
364,140,97652,1,0
364,140,97788,1,2
296,264,98061,1,8
296,264,98197,1,0
296,264,98334,1,2
296,264,98470,1,2
296,264,98606,6,0,B|225:334,1,100,0|2
212,196,99152,2,0,B|253:105,1,100,8|2
120,144,99697,1,0
116,178,99834,1,0
110,212,99970,1,0
104,246,100106,1,0
99,280,100243,2,2,B|188:264|227:337,1,150,10|0
252,312,100788,6,0,B|322:241,1,100,0|2
444,172,101334,1,8
384,44,101606,1,2
256,104,101879,1,0
256,104,102015,1,0
256,104,102152,1,2
168,212,102425,1,8
168,212,102561,1,0
168,212,102697,1,2
164,68,102970,6,2,B|257:105,1,100,2|0
264,140,103379,1,0
271,175,103515,2,2,B|364:212,1,100,8|2
324,348,104061,5,0
188,348,104334,1,0
336,348,104606,1,8
176,348,104879,1,0
348,347,105152,6,0,B|368:304|406:268,1,100,4|2
392,128,105697,2,0,B|372:171|334:207,1,100,8|2
256,88,106243,1,0
256,122,106379,1,0
256,156,106515,1,2
256,296,106788,1,8
248,261,106925,1,0
228,231,107061,1,2
200,209,107197,1,2
167,195,107334,6,0,B|144:248|100:268,1,100,0|2
92,128,107879,2,0,B|127:88|183:96,1,100,8|2
320,128,108425,2,0,B|368:120,3,50
402,113,108970,2,2,B|368:192|365:257,1,150,8|0
332,268,109515,6,0,B|235:293,1,100,0|2
112,228,110061,2,0,B|208:202,1,100,8|2
184,64,110606,1,0
184,64,110743,1,0
184,64,110879,1,2
328,64,111152,1,8
352,88,111288,1,0
376,116,111425,1,2
400,144,111561,1,2
424,168,111697,6,2,B|369:176|343:219,1,100,2|0
333,252,112106,1,0
325,284,112243,2,0,B|309:340,2,50,8|0|0
200,332,112788,2,0,B|174:235,1,100,2|0
164,200,113197,1,4
