osu file format v9

[General]
AudioFilename: Skrillex - Bangarang (Ft. Sirah).mp3
AudioLeadIn: 2000
PreviewTime: 26606
Countdown: 0
SampleSet: Normal
StackLeniency: 0.7
Mode: 0
LetterboxInBreaks: 1

[Editor]
DistanceSpacing: 1
BeatDivisor: 4
GridSize: 4

[Metadata]
Title:Bangarang (feat. Sirah) (Cut Ver.)
Artist:Skrillex
Creator:TicClick
Version:Easy
Source:
Tags:Rue La Cataline Backfire Mapper_31 Samiljul dubstep

[Difficulty]
HPDrainRate:2
CircleSize:3
OverallDifficulty:2
ApproachRate:3
SliderMultiplier:1.1
SliderTickRate:1

[Events]
//Background and Video events
0,0,"Background.jpg"
//Break Periods
2,61715,68803
//Storyboard Layer 0 (Background)
//Storyboard Layer 1 (Fail)
//Storyboard Layer 2 (Pass)
//Storyboard Layer 3 (Foreground)
//Storyboard Sound Samples
//Background Colour Transformations
3,100,163,162,255

[TimingPoints]
425,545.454545454546,4,1,0,90,1,0
493,-100,4,2,1,50,0,0
4720,-100,4,1,0,60,0,0
5811,-100,4,2,1,50,0,0
9084,-100,4,1,0,75,0,0
10106,-100,4,1,0,45,0,0
10379,-100,4,2,1,65,0,0
17811,-100,4,1,0,65,0,0
18902,-100,4,2,1,65,0,0
22243,-100,4,1,0,65,0,0
23197,-100,4,2,1,65,0,0
24493,-100,4,2,1,80,0,0
26606,-100,4,1,0,70,0,1
26675,-100,4,1,0,80,0,0
44061,-100,4,1,0,70,0,1
61447,-100,4,1,0,70,0,0
61515,-100,4,1,0,80,0,1
61584,-100,4,1,0,70,0,0
70311,-100,4,2,1,80,0,0
76720,-100,4,1,0,80,0,0
77879,-100,4,2,0,80,0,0
78902,-100,4,1,0,70,0,0
96425,-100,4,1,0,70,0,1
113129,-100,4,1,0,70,0,0
113197,-100,4,1,0,70,0,1
113265,-100,4,1,0,70,0,0

[Colours]
Combo1 : 231,121,1
Combo2 : 15,116,238
Combo3 : 173,19,232
Combo4 : 238,11,4

[HitObjects]
88,276,425,2,0,B|148:284|212:256|252:204|260:144,1,220,4|8
108,120,2606,1,10
256,64,3697,1,8
416,68,4788,6,0,B|448:112|420:136|408:168|368:176|368:176|320:248,1,220,4|8
256,376,6970,1,10
256,192,7515,12,4,9151
60,144,10243,6,0,B|136:132|136:132|176:64|264:64,2,220,4|8|8
80,296,13515,5,8
240,304,14606,2,0,B|304:256|316:156|260:96,1,220,8|8
140,188,16788,1,8
44,68,17879,6,0,B|144:28|272:52,1,220,4|8
400,112,20061,2,0,B|360:136|304:116,2,82.5,8|8|8
436,96,21152,1,8
400,244,22243,6,0,B|376:312|376:312|340:276|280:276|240:316,1,220,4|8
164,180,24425,2,0,B|188:224|160:272,2,82.5,8|8|8
148,128,25515,2,0,B|196:164|260:164,1,110,4|2
360,172,26606,5,6
404,272,27152,2,0,B|344:292|288:252,1,110,8|0
188,276,28243,2,0,B|132:296,1,55,8|0
84,308,28788,6,0,B|76:204|172:104|300:88,1,330,0|8
380,24,30970,5,6
400,132,31515,2,0,B|444:180,2,55,8|0|0
296,88,32606,2,0,B|224:76,1,55,8|0
188,72,33152,2,0,B|148:100|148:100|236:140|236:236,1,220
236,288,34515,2,0,B|244:320|272:336,2,55,0|8|0
184,268,35334,5,6
80,300,35879,2,0,B|96:248|88:192,1,110,8|0
72,80,36970,2,0,B|116:44,1,55,8|0
156,8,37515,6,0,B|196:56|196:56|256:8|356:16|416:92|396:160,1,330,0|8
276,160,39697,5,6
160,172,40243,2,0,B|136:120,2,55,8|0|0
220,264,41334,2,0,B|160:296,1,55,8|0
120,316,41879,6,0,B|84:256|84:256|80:168|144:116,1,220
184,84,43243,2,0,B|224:132,2,55,0|8|0
232,44,44061,6,0,B|340:44|340:44|404:152|320:264,1,330,6|8
296,296,45970,1,0
256,332,46243,2,0,B|144:384|16:312|12:188,1,330,0|8
24,84,48425,5,6
120,140,48970,2,0,B|184:36|328:44,1,220,8|8
360,48,50334,1,0
412,60,50606,2,0,B|440:76|440:76|448:120|416:152,1,110,0|8
388,192,51425,1,0
356,236,51697,2,0,B|308:296,2,55,0|0|8
304,144,52788,5,6
284,36,53334,2,0,B|250:31|176:80|176:168|220:216,1,220,8|8
300,140,54970,2,0,B|344:176|336:256|296:308|236:316,1,220
220,208,56606,1,8
132,140,57152,6,0,B|216:60|360:64,1,220,6|0
368,108,58515,2,0,B|424:128,2,55,0|8|0
256,192,59334,12,6,61515
52,32,70243,6,0,B|284:68,1,220,4|8
424,88,72425,2,0,B|468:96|468:96|400:168|412:260,1,220,8|8
276,324,74606,6,0,B|152:304,1,110,8|8
72,252,75697,2,0,B|44:300|64:352,2,82.5,8|8|8
92,200,76788,5,6
124,156,77061,1,0
156,112,77334,2,0,B|156:84|140:56,2,55,6|0|4
448,52,78970,6,0,B|220:76,1,220,4|0
176,84,80334,2,0,B|112:92,2,55,0|8|0
208,128,81152,6,0,B|200:188|120:220|116:324,1,220
44,240,82788,1,10
92,140,83334,6,0,B|24:120,2,55,0|0|8
144,120,84152,2,0,B|180:80,2,55
136,176,84970,2,0,B|164:244,1,55,8|0
184,276,85515,6,2,B|232:220|232:220|308:244|396:200,1,220,2|0
432,208,86879,2,0,B|468:256,2,55,0|8|0
400,164,87697,6,0,B|372:120|372:120|304:156|248:136,1,165,4|8
208,128,88788,2,0,B|148:124|104:80,1,110,0|8
72,44,89606,1,0
60,96,89879,6,0,B|72:200|12:316,1,220
124,336,91515,1,10
196,252,92061,6,0,B|128:228,2,55,0|0|8
236,148,93152,2,0,B|248:88|308:52,1,110,0|8
340,28,93970,1,0
392,52,94243,6,2,B|424:68|456:40|456:40|504:112|440:184,1,220,2|0
380,268,95879,1,8
272,260,96425,6,0,B|296:160|236:96,1,165,4|8
188,100,97515,2,0,B|120:100,2,55,0|0|8
256,192,98606,5,4
324,344,99425,2,0,B|260:368,2,55,8|0|0
376,320,100243,2,2,B|424:296|424:296|448:228,1,110,10|4
444,76,101606,6,0,B|480:28,2,55,8|0|0
404,112,102425,2,0,B|408:172,1,55,8|0
380,212,102970,2,2,B|360:280|292:340|216:344,1,220,2|0
116,328,104606,1,8
40,248,105152,6,0,B|4:164|40:32,1,220,4|0
116,112,106788,2,0,B|132:176,1,55,8|0
140,220,107334,6,0,B|156:284|156:284|232:252|308:284,1,220,4|0
396,220,108970,1,10
392,112,109515,6,0,B|392:48,2,55,4|0|0
412,164,110334,2,0,B|460:196,2,55,8|0|0
356,160,111152,2,0,B|300:160,1,55,8|0
256,192,111697,12,4,113197
