osu file format v5

[General]
AudioFilename: Bleach - Ending Theme 4 - Happy People.mp3
AudioLeadIn: 0
PreviewTime: -1
Countdown: 2
SampleSet: Normal
StackLeniency: 0.7
Mode: 0
LetterboxInBreaks: 1
EditorBookmarks: 11452,15815,19360,28358,29449,33818,37084,40083,45809,49900,50990,56444,56853,57262,58216,63261,80439,86711,89438,94891,95437,96800,97209,115615,124363,127086,143973

[Metadata]
Title:Happy People
Artist:Skoop on Somebody
Creator:cesc
Version:Happy Normal
Source:Bleach Ending
Tags:

[Difficulty]
HPDrainRate:5
CircleSize:4
OverallDifficulty:5
SliderMultiplier:1.5
SliderTickRate:2

[Events]
//Background and Video events
0,0,"Bleach Wallpaper.jpg"
//Break Periods
2,12742,14615
2,17105,18160
2,21468,23340
2,34017,35891
2,73822,79239
2,147446,162406
2,202526,204398
2,206927,208800
2,211251,213124
2,215633,216960
//Storyboard Layer 0 (Background)
//Storyboard Layer 1 (Failing)
//Storyboard Layer 2 (Passing)
//Storyboard Layer 3 (Foreground)
//Storyboard Sound Samples
//Background Colour Transformations
3,100,163,162,255

[TimingPoints]
2182,545.454545454545,4,1,0,62,1,0

[Colours]
Combo1 : 0,249,249
Combo2 : 255,0,0
Combo3 : 244,183,53

[HitObjects]
256,272,11454,1,0
216,200,11727,1,0
296,200,12000,2,0,B|384:200,2,75
256,112,15818,5,0
216,184,16091,1,0
296,184,16363,2,0,B|384:184,2,75
256,192,19363,6,0,B|256:104,2,75
256,272,20181,1,0
216,344,20454,1,0
296,344,20727,2,0,B|384:344,2,75
80,40,24545,5,0
40,112,24818,1,0
120,112,25091,2,0,B|208:112,2,75
280,112,26181,5,8
320,40,26454,1,8
360,112,26727,1,8
400,40,27000,2,0,B|480:40,2,75
40,304,28363,6,2,B|208:304|208:72,1,300
208,99,29863,1,8
400,104,30545,5,8
400,184,30818,5,8
400,264,31091,5,8
320,264,31363,6,0,B|240:264,3,75
160,264,32454,1,0
80,264,32727,2,0,B|64:264|48:264|40:264|16:248|16:232|16:216|16:136|16:104|16:48|40:32|48:32|64:32|80:32,1,300
464,192,37091,5,0
384,192,37363,1,0
304,192,37636,2,0,B|216:192,2,75
304,64,38591,5,0
96,64,39272,5,8
96,144,39545,5,8
96,224,39818,5,8
96,304,40091,6,0,B|176:304,1,75
240,256,40636,2,0,B|336:256,1,75,0|0
368,192,41182,2,0,B|448:192,3,75
256,40,43636,5,8
256,112,43909,5,8
256,184,44182,5,8
256,264,44454,6,2,B|256:344,2,75
200,64,45818,6,0,B|320:64,1,112.5
384,64,46500,1,8
384,64,46636,1,8
312,192,47182,2,2,B|216:192,1,75
160,192,47727,5,0
88,192,48000,2,0,B|88:312,1,112.5
160,304,48682,1,8
160,304,48818,1,8
312,304,49363,2,2,B|408:304,1,75
472,304,49909,5,0
472,224,50182,2,0,B|336:224,1,112.5
240,216,50863,1,8
240,216,51000,1,8
88,216,51545,2,2,B|88:328,1,75
256,192,52363,12,0,54000
448,64,54545,6,0,B|400:16|360:88|296:40,1,150
136,48,55636,2,0,B|136:176,1,112.5
136,280,56454,2,0,B|256:280,1,112.5
368,280,57272,2,0,B|368:200,2,75
176,64,58909,5,8
256,64,59182,1,8
336,64,59454,1,8
336,144,59727,1,8
256,144,60000,2,0,B|232:168|208:192|184:168|160:144|136:168|112:192,2,150
64,64,63272,6,0,B|112:16|152:88|216:40,1,150
376,48,64363,2,0,B|376:176,1,112.5
376,280,65182,2,0,B|256:280,1,112.5
144,280,66000,2,0,B|144:200,2,75
336,64,67636,5,8
256,64,67909,1,8
176,64,68182,1,8
176,144,68454,1,8
256,144,68727,2,0,B|280:168|304:192|328:168|352:144|376:168|400:192,2,150
256,112,71182,6,0,B|256:24,2,75
256,336,72545,1,0
216,272,72818,1,0
296,272,73091,2,0,B|376:272,2,75,0|0|0
432,192,80454,5,0
432,112,80727,1,0
352,112,81000,1,0
352,192,81272,1,0
272,192,81545,1,0
272,112,81818,2,0,B|232:72|200:144|176:160|152:136|136:96,1,150
48,264,83727,5,0
48,264,83863,1,0
48,264,84000,2,0,B|48:168|112:272|104:192,1,112.5
104,112,84682,2,0,B|192:112,1,75
184,232,85363,2,0,B|232:288|248:208,1,75
440,152,86182,2,0,B|384:224|472:256|432:312,1,150
272,296,87272,5,8
272,216,87545,5,8
272,136,87818,5,8
104,136,88363,5,8
104,216,88636,5,8
104,296,88909,5,8
400,296,89454,6,0,B|336:240|296:344|232:280,1,150
259,299,90545,1,0
260,299,90954,1,0
88,296,91636,5,8
88,216,91909,5,8
88,136,92181,5,8
168,136,92454,5,0
168,136,92591,1,0
168,136,92727,2,0,B|224:104|288:152|328:128,1,150
401,139,93545,1,0
480,136,93818,2,0,B|432:200|440:224|448:200|392:128,1,150
88,128,94909,6,0,B|64:200|112:264|80:312,1,150
256,280,96000,5,8
256,200,96272,5,8
256,120,96545,5,8
336,120,96818,2,8,B|392:120,2,37.5
96,48,97909,6,0,B|184:48,1,75
256,48,98454,2,0,B|296:48,1,37.5
376,48,98863,2,0,B|416:48,1,37.5
416,216,99545,2,2,B|320:216,1,75
256,216,100091,5,0
176,216,100363,2,0,B|176:88,1,112.5
256,104,101045,1,8
256,104,101181,1,8
416,104,101727,2,2,B|416:192,1,75
416,264,102272,5,0
336,264,102545,2,0,B|200:264,1,112.5
136,264,103227,1,8
136,264,103363,1,8
136,96,103909,2,2,B|216:96,1,75
256,192,104727,12,0,106363
448,64,106909,6,0,B|400:16|360:88|296:40,1,150
136,48,108000,2,0,B|136:176,1,112.5
136,280,108818,2,0,B|256:280,1,112.5
368,280,109636,2,0,B|368:200,2,75
176,64,111272,5,8
256,64,111545,1,8
336,64,111818,1,8
336,144,112091,1,8
256,144,112363,2,0,B|232:168|208:192|184:168|160:144|136:168|112:192,2,150
64,64,115636,6,0,B|112:16|152:88|216:40,1,150
376,48,116727,2,0,B|376:176,1,112.5
376,280,117545,2,0,B|256:280,1,112.5
144,280,118363,2,0,B|144:200,2,75
336,64,120000,5,8
256,64,120272,1,8
176,64,120545,1,8
176,144,120818,1,8
256,144,121091,2,0,B|280:168|304:192|328:168|352:144|376:168|400:192,2,150
424,72,124363,5,0
256,72,124909,1,0
88,72,125454,2,0,B|72:120|112:128|80:184,1,112.5
80,304,126272,2,0,B|128:320|136:280|192:312,1,112.5
312,312,127091,1,4
80,56,128727,6,0,B|80:144,1,75
168,136,129273,2,0,B|168:232,1,75
256,208,129818,2,0,B|256:224|256:240|256:248|264:256|272:264|296:264|320:264|328:256|336:248|336:240|336:224|336:200,2,150
424,72,133091,5,0
256,72,133637,1,0
88,72,134182,2,0,B|72:120|112:128|80:184,1,112.5
80,304,135000,2,0,B|128:320|136:280|192:312,1,112.5
312,312,135819,1,4
80,56,137454,6,8,B|80:144,1,75
168,136,138000,2,8,B|168:232,1,75
256,216,138545,2,8,B|256:320,2,75
384,32,139636,6,0,B|304:72|240:16|216:32,1,150
72,40,140727,2,0,B|40:120|104:160|72:200,1,150
232,248,141818,2,0,B|304:216|352:272|392:240,1,150
380,245,142636,1,8
379,246,142909,1,8
384,32,144000,6,0,B|304:72|240:16|216:32,1,150
72,40,145091,2,0,B|40:120|104:160|72:200,1,150
232,248,146182,2,0,B|304:216|352:272|392:240,1,150
380,245,147000,1,8
379,246,147272,1,8
256,192,163636,12,0,165272
448,64,165818,6,0,B|400:16|360:88|296:40,1,150
136,48,166909,2,0,B|136:176,1,112.5
136,280,167727,2,0,B|272:280,1,112.5
368,280,168545,2,0,B|368:200,2,75
176,64,170182,5,8
256,64,170454,1,8
336,64,170727,1,8
336,144,171000,1,8
256,144,171272,2,0,B|232:168|208:192|184:168|160:144|136:168|112:192,2,150
64,64,174545,6,0,B|112:16|152:88|216:40,1,150
376,48,175636,2,0,B|376:176,1,112.5
376,280,176454,2,0,B|248:280,1,112.5
144,280,177272,2,0,B|144:200,2,75
336,64,178909,5,8
256,64,179182,1,8
176,64,179454,1,8
176,144,179727,1,8
256,144,180000,2,0,B|280:168|304:192|328:168|352:144|376:168|400:192,2,150
448,320,183272,6,0,B|400:368|360:296|296:344,1,150
136,336,184363,2,0,B|136:208,1,112.5
136,104,185182,2,0,B|272:104,1,112.5
368,104,186000,2,0,B|368:184,2,75
176,320,187636,5,8
256,320,187909,1,8
336,320,188182,1,8
336,240,188454,1,8
256,240,188727,2,0,B|232:216|208:192|184:216|160:240|136:216|112:192,2,150
64,320,192000,6,0,B|112:368|152:296|216:344,1,150
376,336,193091,2,0,B|376:208,1,112.5
376,104,193909,2,0,B|240:104,1,112.5
144,104,194727,2,0,B|144:184,2,75
336,320,196363,5,8
256,320,196636,1,8
176,320,196909,1,8
176,240,197182,1,8
256,240,197454,2,0,B|280:216|304:192|328:216|352:240|376:216|400:192,2,150
256,272,201272,5,0
216,200,201545,1,0
296,200,201818,2,0,B|384:200,2,75
176,192,205636,5,0
248,152,205909,1,0
248,232,206182,2,0,B|248:320,2,75
256,112,210000,5,0
296,184,210273,1,0
216,184,210546,2,0,B|128:184,2,75
336,192,214363,5,0
264,232,214636,1,0
264,152,214909,2,0,B|264:64,2,75
256,192,218045,12,4,221045
