osu file format v5

[General]
AudioFilename: Bleach - Ending Theme 4 - Happy People.mp3
AudioLeadIn: 0
PreviewTime: -1
Countdown: 2
SampleSet: Normal
StackLeniency: 0.7
Mode: 0
LetterboxInBreaks: 1
EditorBookmarks: 11452,15815,19360,28358,29449,33818,37084,40083,45809,49900,50990,56444,56853,57262,58216,63261,80439,86711,89438,94891,95437,96800,97209,115615,124363,127086,143973

[Metadata]
Title:Happy People
Artist:Skoop on Somebody
Creator:cesc
Version:Happy Kyo
Source:Bleach Ending
Tags:

[Difficulty]
HPDrainRate:10
CircleSize:5
OverallDifficulty:6
SliderMultiplier:2
SliderTickRate:2

[Events]
//Background and Video events
0,0,"Bleach Wallpaper.jpg"
//Break Periods
2,12745,14768
2,17105,18160
2,21468,23340
2,114199,114586
2,131108,138586
2,152381,156041
2,190017,190950
//Storyboard Layer 0 (Background)
//Storyboard Layer 1 (Failing)
//Storyboard Layer 2 (Passing)
//Storyboard Layer 3 (Foreground)
//Storyboard Sound Samples
//Background Colour Transformations
3,100,163,162,255

[TimingPoints]
2182,545.454545454545,4,1,0,62,1,0
3272,-100,4,2,0,62,0,0
7091,-100,4,1,0,62,0,0

[Colours]
Combo1 : 0,249,249
Combo2 : 255,0,0
Combo3 : 244,183,53

[HitObjects]
256,32,3272,1,0
256,192,3545,1,0
256,352,3818,2,8,B|256:280,1,66.6666666666667
56,192,4363,6,8,B|128:192,1,66.6666666666667
256,192,4772,1,0
416,40,5454,5,0
256,40,6000,1,0
136,40,6409,1,8
96,40,6545,1,8
96,192,7091,5,0
256,192,7637,1,0
416,192,8182,1,0
256,192,8727,5,0
256,192,8863,5,0
256,192,9000,5,0
256,192,9272,5,10
256,312,9681,5,8
256,312,9818,1,8
176,312,10091,1,0
96,312,10363,1,8
96,232,10636,1,0
176,232,10909,1,12
96,96,11454,5,8
176,96,11727,5,8
256,96,12000,5,8
336,96,12272,5,8
416,96,12545,5,12
416,288,15818,5,8
336,288,16091,5,8
256,288,16364,5,8
176,288,16636,5,8
96,288,16909,5,12
160,208,19363,6,0,B|200:336|256:240|256:240|312:336|352:184,1,300
288,72,20454,2,8,B|288:192,1,100
216,168,21000,2,8,B|216:56,1,100
64,192,24545,5,8
256,72,24818,5,8
448,192,25091,5,8
256,312,25363,5,8
256,312,25636,5,12
256,192,26181,5,8
256,192,26318,5,8
256,192,26454,5,8
256,192,26591,5,8
256,192,26727,5,8
256,192,27000,6,14,B|328:192,2,50,0|0|0
256,352,28363,5,0
184,320,28636,1,0
128,264,28909,1,0
96,192,29181,1,0
128,120,29454,1,8
256,32,29863,1,8
456,32,30545,5,8
456,32,30818,1,8
456,32,31091,1,8
456,112,31363,5,0
456,192,31636,1,8
456,192,31772,1,8
376,192,32045,1,0
296,192,32318,1,8
216,192,32591,1,0
96,192,33000,2,8,B|96:376|168:296|128:144|272:312,1,300
424,304,34363,5,0
424,144,34909,5,8
424,64,35181,1,8
344,64,35454,1,8
184,64,36000,5,0
24,64,36545,1,0
184,64,37091,5,8
184,144,37363,1,0
264,144,37636,1,8
264,224,37909,1,0
264,304,38181,2,8,B|392:328|376:224,1,150
376,40,39272,5,8
296,40,39545,1,8
216,40,39818,1,8
136,40,40091,5,8
136,80,40227,5,8
136,120,40363,5,8
136,152,40500,5,8
136,232,40772,5,0
216,232,41045,1,0
216,312,41318,2,8,B|404:352|368:144,1,250
368,112,42272,5,8
296,72,42545,1,8
216,72,42818,1,8
144,112,43091,1,8
144,272,43636,5,8
216,312,43909,1,8
296,312,44181,1,8
368,272,44454,5,0
368,232,44591,5,0
368,192,44727,5,0
256,72,45272,5,0
256,104,45409,5,0
256,136,45545,5,0
208,200,45818,6,2,B|256:160|312:208,1,100,0|0
296,200,46227,6,2,B|312:248|256:288,1,100,0|0
264,280,46636,6,2,B|208:256|208:184,1,100
208,120,47181,5,8
288,120,47454,1,8
368,120,47727,5,0
368,200,48000,1,0
368,280,48272,1,8
328,280,48409,1,8
248,280,48681,5,8
248,240,48818,1,8
248,80,49363,1,8
168,80,49636,1,8
248,80,49909,5,0
328,80,50181,1,0
328,160,50454,5,8
288,176,50591,1,8
208,176,50863,5,8
168,160,51000,1,8
168,320,51545,5,8
248,320,51818,1,8
328,320,52091,5,0
248,320,52363,1,8
168,320,52636,1,0
88,320,52909,1,8
88,240,53181,1,0
88,160,53454,2,10,B|176:80|192:232|280:136,1,200
472,192,54545,5,8
256,24,55091,5,8
32,192,55636,5,8
256,192,56045,5,8
376,192,56454,1,8
256,192,56863,1,8
136,192,57272,2,8,B|72:152|0:200|48:416|448:416|488:224|448:136|368:200,1,600
368,104,59181,5,0
296,64,59454,1,8
216,64,59727,1,0
144,104,60000,1,8
256,192,60409,1,0
136,200,60818,2,8,B|256:376|376:192,1,300
336,48,62181,5,8
256,48,62454,1,8
176,48,62727,1,8
24,192,63272,6,10,B|72:152|128:200,1,100
112,192,63818,6,10,B|168:240|216:176,1,100
200,192,64363,6,10,B|272:144|360:200,2,150
200,192,65454,6,10,B|152:248|200:296,1,100
192,288,66000,6,10,B|320:376|504:344|496:0|184:104,1,600
120,96,67909,1,0
120,96,68181,1,8
40,96,68454,1,0
40,96,68727,1,8
40,216,69136,1,0
40,336,69545,2,8,B|168:320|80:216|200:192|200:352|304:232,1,300
256,192,70636,12,4,72000
256,48,72545,5,8
256,336,72818,1,8
256,48,73091,2,8,B|256:160,2,100,12|8|14
416,32,74181,5,8
416,112,74454,1,0
416,192,74727,1,8
336,192,75000,1,0
256,192,75272,1,8
256,192,75545,5,8
256,192,75681,5,8
256,192,75818,5,8
256,192,76091,12,4,77454
256,192,78000,5,0
96,192,78545,5,8
176,192,78818,1,8
176,112,79091,1,8
176,112,79227,5,8
256,112,79500,5,8
256,112,79636,5,8
336,112,79909,5,8
368,128,80045,5,8
400,152,80181,5,8
424,184,80318,5,8
432,224,80454,5,8
432,304,80727,5,0
352,304,81000,1,8
272,304,81272,1,0
192,304,81545,1,8
192,224,81818,1,0
192,224,82227,1,12
256,32,82909,5,8
256,112,83181,1,8
256,192,83454,1,8
256,272,83727,5,8
256,272,83863,5,8
256,272,84000,5,8
256,272,84136,5,8
344,272,84409,5,8
432,272,84727,1,8
256,192,85022,12,0,86727
256,192,87000,12,0,87818
256,224,88363,5,8
216,160,88636,1,8
296,160,88909,1,8
256,312,89454,5,0
176,312,89727,1,8
176,232,90000,1,0
256,232,90272,1,8
256,152,90545,1,0
136,152,90954,1,8
336,152,91636,5,8
416,152,91909,1,8
416,232,92181,1,8
336,232,92454,5,8
296,232,92591,5,8
256,232,92727,5,8
216,232,92863,5,8
136,232,93136,5,0
56,232,93409,1,0
56,112,93681,2,8,B|136:40|152:200|296:104,1,250
368,112,94636,5,8
368,192,94909,1,8
368,272,95181,2,8,B|248:272,1,100
72,272,96000,5,8
72,192,96272,1,8
72,112,96545,1,8
72,112,96818,5,8
72,112,96954,5,8
72,112,97091,5,8
192,112,97500,5,8
232,112,97636,5,8
272,112,97772,5,8
312,112,97909,5,8
312,152,98045,5,8
312,192,98181,5,8
192,192,98591,1,8
72,192,99000,1,8
72,352,99545,5,8
144,352,99818,1,8
144,272,100091,5,0
144,192,100363,1,0
264,192,100772,1,0
384,192,101181,1,0
384,32,101727,5,8
304,32,102000,1,8
224,32,102272,5,0
144,32,102545,1,0
144,152,102954,1,0
144,272,103363,1,0
304,272,103909,5,8
304,192,104181,1,8
464,192,104727,5,8
384,192,105000,5,0
384,192,105136,5,0
384,192,105272,5,0
384,192,105409,5,0
256,192,105818,5,0
256,192,105954,5,0
256,192,106091,5,0
256,192,106227,5,0
256,192,106363,5,0
256,192,106636,5,8
256,192,106909,5,8
24,32,107454,1,8
480,32,108000,1,8
360,32,108409,1,8
360,152,108818,5,8
240,152,109227,1,8
120,152,109636,2,8,B|112:296|240:288,1,200
32,32,111272,5,8
112,32,111545,1,0
112,112,111818,1,8
192,112,112091,1,0
112,112,112363,1,8
112,192,112636,2,0,B|112:312,1,100
192,296,113181,2,8,B|376:352|448:192,1,300
8,192,115636,5,8
504,192,116181,5,8
256,16,116727,5,8
256,136,117136,5,8
256,264,117545,5,8
216,200,117818,1,8
296,200,118091,1,8
256,136,118363,2,8,B|352:80|360:216|464:136,1,200
440,288,119454,5,8
280,288,120000,5,0
200,288,120272,1,8
200,208,120545,1,0
120,208,120818,1,8
120,208,121091,2,0,B|120:96,1,100
120,112,121636,2,8,B|208:48|208:184|320:96,1,200
256,192,122454,12,4,123818
56,32,124363,5,8
456,352,124909,5,8
56,32,125454,6,8,B|56:208,1,150
176,184,126272,5,0
256,184,126545,1,8
256,104,126818,1,0
336,104,127091,2,8,B|456:176|328:272,2,200
152,48,128727,6,8,B|48:48,1,100
104,112,129272,6,8,B|216:112,1,100
152,176,129818,6,8,B|32:176,1,100
104,240,130363,6,8,B|216:240,2,100
256,192,139636,5,8
256,112,139909,1,8
256,72,140045,1,8
256,192,140727,5,8
256,272,141000,1,8
256,312,141136,1,8
256,192,141818,5,8
176,192,142091,1,8
136,192,142227,1,8
216,192,142500,1,8
296,192,142772,1,8
256,192,144000,5,8
176,192,144273,1,8
136,192,144409,1,8
256,192,145091,5,8
336,192,145364,1,8
376,192,145500,1,8
256,192,146182,5,8
256,112,146455,1,8
256,72,146591,1,8
256,152,146864,1,8
256,232,147136,1,8
256,312,147409,2,0,B|256:232,3,50
256,104,148363,5,8
176,104,148636,1,8
136,104,148772,2,8,B|-8:192|144:320,1,250
208,312,149727,5,8
248,312,149863,2,8,B|408:320|456:192,1,250
456,120,150818,5,8
416,120,150954,1,8
336,120,151227,1,8
256,120,151500,6,8,B|160:24|152:256|16:88,1,250,0|0
256,192,157091,12,4,160909
256,192,161454,5,8
336,192,161727,1,8
376,192,161863,1,8
376,312,162272,5,8
376,312,162409,5,8
376,312,162545,6,8,B|152:312,1,200
64,192,163636,6,8,B|176:192,1,100
224,80,164181,6,8,B|104:80,1,100
64,192,164727,6,8,B|176:192,2,100
256,192,165818,5,8
256,24,166363,5,8
256,360,166909,5,8
336,272,167318,5,8
336,152,167727,5,8
256,152,168000,1,8
176,152,168272,1,8
96,152,168545,2,8,B|112:-8|496:-24|512:280|224:240,1,600
176,240,170454,5,0
96,240,170727,1,8
176,240,171000,1,0
256,240,171272,6,8,B|376:240,1,100
352,160,171818,6,8,B|248:160,1,100
168,160,172363,6,8,B|152:24|304:48,1,200
256,192,173454,5,8
336,192,173727,1,8
416,192,174000,1,8
416,192,174272,5,8
416,192,174409,5,8
416,192,174545,5,8
256,192,175091,5,8
96,192,175636,5,8
96,72,176045,5,8
96,192,176454,5,8
96,272,176727,5,8
256,192,177000,12,8,178909
256,192,179181,5,8
336,192,179454,1,8
256,192,179727,1,8
176,192,180000,6,8,B|176:80,1,100
256,88,180545,2,8,B|256:200,1,100
304,248,181091,2,8,B|216:352|120:232,1,200
256,192,181909,12,8,183000
32,328,183272,5,8
480,56,183818,5,8
256,192,184363,5,8
256,192,184772,5,8
256,192,185181,12,8,186545
488,32,187636,5,8
464,104,187909,1,0
416,168,188181,1,8
352,216,188454,1,0
272,240,188727,2,8,B|224:296|168:224,1,100
112,208,189272,1,0
184,168,189545,2,8,B|232:128|288:184,1,100
488,352,192000,5,8
256,32,192545,5,8
24,352,193091,5,8
256,192,193500,5,8
136,192,193909,5,8
136,112,194181,5,8
136,32,194454,1,8
216,32,194727,2,8,B|456:184|192:344,1,400
136,192,196363,5,8
216,192,196636,1,0
296,192,196909,1,8
376,192,197181,1,0
376,112,197454,1,8
256,112,197863,1,0
136,112,198272,1,8
256,192,199363,12,12,200727
