osu file format v5

[General]
AudioFilename: Bleach - Ending Theme 4 - Happy People.mp3
AudioLeadIn: 0
PreviewTime: -1
Countdown: 2
SampleSet: Normal
StackLeniency: 0.7
Mode: 0
LetterboxInBreaks: 1
EditorBookmarks: 11452,15815,19360,28358,29449,37084,40083,42401,45809,49900,50990,56444,56853,57262,58216,63261,72545

[Metadata]
Title:Happy People
Artist:Skoop on Somebody
Creator:cesc
Version:Happy Easy
Source:Bleach Ending
Tags:

[Difficulty]
HPDrainRate:4
CircleSize:3
OverallDifficulty:3
SliderMultiplier:1.5
SliderTickRate:2

[Events]
//Background and Video events
0,0,"Bleach Wallpaper.jpg"
//Break Periods
2,12742,14615
2,17105,18160
2,21468,23340
2,33466,36020
//Storyboard Layer 0 (Background)
//Storyboard Layer 1 (Failing)
//Storyboard Layer 2 (Passing)
//Storyboard Layer 3 (Foreground)
//Storyboard Sound Samples
//Background Colour Transformations
3,100,163,162,255

[TimingPoints]
2182,545.454545454545,4,1,0,62,1,0

[Colours]
Combo1 : 0,249,249
Combo2 : 255,0,0
Combo3 : 244,183,53

[HitObjects]
64,192,11454,2,0,B|64:120|64:88|64:40|112:40|152:40|176:40|200:40,1,300
448,192,15818,6,0,B|448:264|448:296|448:344|400:344|360:344|336:344|312:344,1,300
248,40,20181,6,0,B|320:40|352:40|400:40|400:88|400:128|400:152|400:176,1,300
264,344,24545,6,0,B|192:344|160:344|112:344|112:296|112:256|112:232|112:208,1,300
432,160,27000,6,8,B|528:160|526:158|520:160,2,75,8|8|8
64,168,28363,5,0
192,168,28909,1,0
320,168,29454,1,0
448,168,30000,1,0
128,256,31636,5,0
128,128,32181,1,0
256,128,32727,2,2,B|240:144|224:160|240:176|256:192|272:208|288:224|272:240|256:256|248:264,1,150
448,168,37091,5,0
320,168,37637,1,0
192,168,38182,1,0
64,168,38728,1,0
384,256,40363,5,0
384,128,40908,1,0
256,128,41454,2,2,B|272:144|288:160|272:176|256:192|240:208|224:224|240:240|256:256|264:264,1,150
128,256,42545,5,8
128,128,43091,5,8
256,264,44454,6,2,B|256:344,2,75
88,192,45818,5,0
88,96,46227,1,0
88,96,46500,2,8,B|144:96,1,37.5
256,96,47182,2,2,B|256:176,1,75
256,232,47727,5,0
320,232,48000,1,0
384,232,48272,2,0,B|384:192,1,37.5
448,200,48681,2,8,B|448:248,1,37.5
456,368,49363,2,2,B|352:368,1,75
384,304,49909,5,0
320,304,50181,1,0
256,304,50453,2,0,B|256:264,1,37.5
192,264,50862,2,8,B|192:312,1,37.5
192,168,51545,2,2,B|304:168,1,75
256,192,52363,12,0,54000
448,48,54545,5,0
320,48,55091,1,0
192,48,55636,2,0,B|56:48,1,112.5
80,144,56454,2,0,B|200:144,1,112.5
288,144,57272,1,4
192,64,58909,5,8
320,64,59454,1,8
320,192,60000,2,0,B|168:192,2,150
64,48,63272,5,0
192,48,63818,1,0
320,48,64363,2,0,B|456:48,1,112.5
432,144,65181,2,0,B|312:144,1,112.5
224,144,65999,1,4
320,64,67636,5,8
192,64,68181,1,8
192,192,68727,2,0,B|344:192,2,150
256,112,71182,6,0,B|256:24,2,75
256,320,72545,2,0,B|256:168,1,150
256,32,73636,1,8
