osu file format v6

[General]
AudioFilename: Skillet-Whispers%20in%20the%20Dark.mp3
AudioLeadIn: 0
PreviewTime: 51470
Countdown: 0
SampleSet: Normal
StackLeniency: 0.4
Mode: 0
LetterboxInBreaks: 1
SkinPreference:XiStyle

[Editor]
DistanceSpacing: 1.20000004768372
BeatDivisor: 4
GridSize: 8

[Metadata]
Title:Whispers in the Dark
Artist:Skillet
Creator:rust45
Version:Insane
Source:Comatose
Tags:Skillet Comatose

[Difficulty]
HPDrainRate:6
CircleSize:5
OverallDifficulty:7
SliderMultiplier:1.4
SliderTickRate:1

[Events]
//Background and Video events
0,0,"comatose.jpg"
//Break Periods
2,30182,40252
2,74065,83656
2,143161,152273
//Storyboard Layer 0 (Background)
Sprite,Background,TopLeft,"white.png",0,0 L,53599,1 F,1,0,1276,1,0 L,107216,1 F,1,0,1276,1,0 L,158918,1 F,1,0,638,1,0 L,56152,1 F,1,0,1276,1,0 L,66356,1 F,1,0,1276,1,0 L,109769,1 F,1,0,1276,1,0 L,132748,5 F,1,0,638,1,0 L,160833,1 F,1,0,1276,1,0 L,168333,1 F,1,0,1276,1,0 L,171046,1 F,1,0,1276,1,0
//Storyboard Layer 1 (Fail)
//Storyboard Layer 2 (Pass)
//Storyboard Layer 3 (Foreground)
Sprite,Foreground,Centre,"DS.png",320,240 F,0,157402,157482,0,1 F,0,157482,157562,1,0 M,0,157612,,316,119 F,0,157562,157642,0,1 F,0,157642,157721,1,0 F,0,157721,157801,0,1
//Storyboard Sound Samples
//Background Colour Transformations
3,100,163,162,255

[TimingPoints]
20408,319.148936170213,4,1,0,100,1,0
152854,-100,4,2,0,100,0,0
155647,-100,4,1,0,70,0,0
158280,-50,4,1,0,100,0,0
158918,-100,4,1,0,100,0,1
169091,-100,4,1,0,100,0,0
169131,-100,4,1,0,100,0,1

[Colours]
Combo1 : 110,110,110
Combo2 : 78,124,78

[HitObjects]
256,32,20407,1,0
216,104,20567,1,0
296,104,20727,1,0
256,176,20886,1,0
256,256,21046,2,0,B|256:328,3,70,0|0|0|8
256,326,21684,5,0
216,256,21844,1,0
296,256,22003,1,0
256,176,22163,1,0
256,104,22322,2,0,B|256:32,3,70,0|0|0|8
256,34,22961,6,0,B|337:34,2,70
256,34,23439,1,0
256,34,23599,2,0,B|183:34,2,70
256,34,24078,1,8
256,34,24237,2,0,B|256:320,2,280,4|4|0
176,72,25673,5,0
128,144,25833,1,0
80,208,25993,1,0
64,288,26152,1,0
144,288,26312,1,0
224,288,26471,1,0
224,288,26631,1,8
304,288,26790,5,0
384,288,26950,1,0
464,288,27110,1,0
464,288,27269,1,0
464,200,27429,1,0
464,112,27588,1,0
464,24,27748,1,0
464,24,27907,1,8
384,48,28067,5,0
304,72,28227,1,0
360,136,28386,1,0
280,152,28546,1,0
256,232,28705,1,0
256,232,28865,1,0
256,232,29025,1,0
256,232,29184,1,8
256,312,29344,2,0,B|112:312,2,140,4|0|4
32,192,41152,5,0
112,192,41312,1,0
192,192,41471,1,0
360,192,41790,1,8
440,192,41950,1,8
440,24,42269,1,0
352,24,42429,1,0
280,64,42588,1,0
256,144,42748,2,2,B|256:288,1,140
32,32,43705,5,0
56,112,43865,1,0
112,48,44025,1,0
224,168,44344,1,0
280,224,44503,1,8
416,320,44822,1,0
488,368,44982,1,8
352,272,45301,1,2
352,272,45620,1,2
280,192,46259,6,2,B|128:192,1,140
140,192,46897,1,8
448,72,47535,2,2,B|296:72,1,140
308,72,48173,1,8
256,192,48812,1,0
256,24,49131,1,8
256,104,49290,1,8
256,24,49450,1,8
200,184,49769,6,2,L|184:296|184:296|256:352|256:352|344:296|344:296|312:184,1,420,2|2
256,192,51046,12,4,52961
88,192,53599,6,2,B|248:224|312:208|352:176|384:184,1,280
456,40,54556,5,0
364,181,54876,1,0
456,40,55195,1,0
363,180,55514,1,0
200,192,55833,1,8
256,32,56152,6,2,B|184:72|288:88|256:144|320:192|248:304,1,280
88,320,57110,5,0
224,224,57429,1,0
392,192,57748,1,0
472,40,58067,2,0,B|344:128,1,140,0|8
488,352,58705,5,2
24,360,59344,1,0
24,16,59982,1,2
488,16,60620,1,0
384,144,60939,1,4
256,264,61259,1,4
24,16,61897,5,2
24,184,62216,1,2
24,16,62535,1,2
152,120,62854,1,2
152,288,63173,1,2
312,312,63493,1,8
312,312,63652,6,6,B|80:392|424:120|208:112,1,350,6|2
360,192,64769,5,0
192,192,65088,1,0
280,48,65407,1,0
280,216,65727,1,0
256,384,66046,1,8
256,384,66365,6,2,B|376:368|80:296|336:240|256:144,1,280
416,192,67322,5,0
376,24,67642,1,0
256,144,67961,1,0
416,192,68280,1,0
256,240,68599,2,0,B|304:296|304:296|360:232,1,140,8|2
32,32,69556,5,0
488,24,70195,1,2
256,32,70833,1,0
256,212,71152,1,0
256,352,71471,2,8,B|256:192,1,140,4|0
128,88,72110,5,2
128,256,72429,1,2
280,176,72748,1,2
128,88,73067,1,0
128,256,73386,1,0
256,144,73705,1,0
256,224,73865,1,4
24,360,84556,5,0
152,248,84876,1,0
112,176,85035,1,0
192,176,85195,1,8
152,248,85354,1,8
320,256,85673,1,0
320,168,85833,1,8
256,16,86152,1,2
256,184,86471,1,2
24,192,87110,5,0
192,192,87429,1,0
360,192,87748,1,8
440,192,87907,1,8
440,192,88227,1,0
360,192,88386,1,8
192,192,88705,1,2
192,192,89025,1,2
480,24,89663,6,2,B|376:136,1,140
384,126,90301,1,8
24,360,90939,1,2
24,360,91259,2,2,B|144:240,1,140,2|8
24,24,92056,5,0
80,88,92216,1,2
208,192,92535,1,2
256,32,92854,1,2
256,200,93173,2,2,B|256:224|256:352,1,140
256,168,93812,1,8
256,32,94131,1,4
440,320,94769,5,0
352,312,94929,1,0
400,240,95088,1,0
232,200,95407,1,8
152,168,95567,1,8
256,32,95886,1,0
256,112,96046,1,2
296,184,96205,1,2
344,112,96365,1,2
488,192,96684,1,2
152,192,97322,5,0
64,192,97482,1,0
152,192,97642,1,0
320,192,97961,1,8
232,192,98120,1,8
400,192,98439,1,0
400,104,98599,1,2
400,192,98759,1,2
400,104,98918,1,2
256,192,99237,1,2
96,320,99876,5,0
96,64,100195,1,0
256,192,100514,1,8
416,320,101152,5,0
416,64,101471,1,0
256,192,101790,1,8
256,360,102429,5,0
176,216,102748,1,8
256,192,102907,1,8
336,216,103067,1,8
256,80,103386,2,2,L|168:48|368:32|240:-16,1,420
256,192,104663,12,4,106578
256,8,107216,6,2,L|200:48|304:88|256:184,1,280
120,272,108173,5,0
128,104,108493,1,0
264,192,108812,1,0
120,272,109131,1,0
128,104,109450,1,8
8,192,109769,6,2,B|304:192,1,280
256,24,110727,5,0
288,192,111046,2,0,B|440:192,2,140,0|0|0
120,192,112003,1,8
256,96,112322,6,0,B|256:392,2,280,2|0|2
24,352,114237,1,0
256,192,114556,1,4
488,24,114876,1,4
488,360,115514,6,2,B|512:272|392:264,1,140,0|0
248,256,116152,2,2,B|152:312|256:368,1,140,0|0
256,192,116790,1,2
256,360,117110,1,8
256,360,117269,6,6,B|320:312|280:296|40:264|384:144|248:48,1,350,6|2
360,192,118386,5,0
360,24,118705,1,0
504,104,119025,1,0
360,192,119344,1,0
192,192,119663,1,8
256,344,119982,6,2,B|256:56,1,280
144,192,120939,5,0
144,24,121259,1,0
0,112,121578,1,0
144,192,121897,1,0
256,296,122216,1,8
488,24,122535,5,2
24,360,123173,1,0
24,24,123812,1,2
488,352,124450,1,0
488,192,124769,1,0
488,24,125088,1,4
192,96,125727,5,2
328,192,126046,1,2
160,192,126365,1,2
256,48,126684,1,0
256,216,127003,1,0
256,368,127322,1,0
256,368,127482,1,4
256,368,127642,5,0
216,296,127801,1,0
296,296,127961,1,0
256,216,128120,1,8
256,128,128280,1,0
256,40,128439,1,0
256,40,128599,1,0
256,40,128759,1,8
320,88,128918,5,0
320,168,129078,1,0
320,248,129237,1,0
400,248,129397,1,8
400,168,129556,1,2
400,168,129663,1,2
400,168,129769,1,2
400,112,129876,1,0
400,56,129982,1,8
400,56,130088,1,8
400,0,130195,6,0,B|304:0,1,70
256,40,130514,2,0,B|256:128,1,70,0|8
208,176,130833,2,0,B|160:256,1,70,0|0
312,176,131152,2,0,B|360:248,1,70,0|8
256,344,131471,6,2,B|256:248,1,93.3333333333333
256,192,131790,2,2,B|256:96,1,93.3333333333333,2|8
216,56,132110,2,0,B|256:104|296:48,1,93.3333333333333,0|8
344,56,132429,1,2
344,56,132535,1,2
344,56,132642,1,2
360,120,132748,6,4,B|256:296|152:120,5,280
40,216,136259,5,0
40,216,136365,1,0
40,216,136471,1,0
40,216,136578,1,0
64,264,136684,1,0
112,288,136790,1,0
160,264,136897,2,0,B|160:192,2,46.6666666666667,0|0|8
208,288,137216,1,0
256,264,137322,1,0
296,224,137429,1,0
344,192,137535,2,0,B|424:192,2,46.6666666666667,0|0|8
328,136,137854,6,0,B|384:96,2,46.6666666666667
272,120,138173,2,0,B|280:64,2,46.6666666666667
216,120,138493,2,0,B|184:72,2,46.6666666666667
176,160,138812,2,0,B|120:136,2,46.6666666666667
160,216,139131,5,0
184,264,139237,1,0
224,304,139344,1,0
272,328,139450,2,0,B|232:368,2,46.6666666666667
328,320,139769,1,0
376,288,139876,1,0
400,240,139982,1,0
400,184,140088,1,0
400,128,140195,1,0
376,80,140301,1,0
328,40,140408,6,0,B|264:-16|8:32|248:104|216:152|304:184|272:216|392:256|176:272|88:248,1,560
72,296,141790,5,0
72,296,141897,1,0
72,296,142003,1,0
72,296,142110,1,0
72,296,142216,1,0
72,296,142322,1,0
72,296,142429,1,0
72,296,142535,1,0
72,296,142642,1,0
72,296,142748,1,0
72,296,142854,1,0
72,296,142961,1,0
128,192,153173,5,0
128,192,153333,1,0
208,192,153493,5,0
208,192,153652,1,2
288,192,153812,5,0
288,192,153971,1,0
368,192,154131,5,0
368,192,154290,1,0
344,112,154450,5,0
256,96,154610,1,0
176,120,154769,5,0
128,192,154929,1,2
208,192,155088,5,0
288,192,155248,1,0
368,192,155408,5,0
368,192,155567,1,0
448,192,155727,6,0,B|464:160|416:136,15,70
360,192,158280,6,2,B|520:80|240:16|40:440|0:192,1,560,8|4
8,368,159237,5,0
176,368,159556,1,0
344,368,159876,1,0
504,320,160195,1,0
504,152,160514,1,8
336,192,160833,6,2,B|40:192,1,280
56,24,161790,5,0
56,192,162110,1,2
56,24,162429,1,0
56,192,162748,2,0,B|208:192,1,140,0|8
512,192,163386,5,2
256,0,164025,1,0
0,192,164663,1,2
256,368,165301,1,0
256,192,165620,1,0
256,192,165939,1,4
256,88,166578,5,2
128,192,166897,1,2
256,296,167216,1,2
384,192,167535,1,2
256,88,167854,1,2
128,192,168173,1,8
208,192,168333,6,2,B|264:360|408:56|496:200,1,350,6|2
496,368,169450,5,0
495,197,169769,1,0
496,32,170088,1,0
360,128,170408,1,0
256,0,170727,1,8
255,0,171046,6,2,B|334:94|78:150|374:222|254:238,1,280
88,192,172003,5,0
88,360,172322,1,0
88,192,172642,1,0
88,360,172961,1,0
88,192,173280,2,8,B|152:192|232:192,1,140,8|2
512,368,174237,5,0
0,368,174876,1,2
256,0,175514,1,0
256,196,175833,1,0
256,336,176152,2,8,B|256:176,1,140,4|0
480,192,176790,5,2
32,192,177110,1,2
384,192,177429,1,2
128,192,177748,1,0
256,192,178067,1,0
256,24,178386,1,0
256,24,178546,1,4
