osu file format v6

[General]
AudioFilename: Skillet-Whispers%20in%20the%20Dark.mp3
AudioLeadIn: 0
PreviewTime: 53606
Countdown: 0
SampleSet: Normal
StackLeniency: 0.7
Mode: 0
LetterboxInBreaks: 1
SkinPreference:XiStyle

[Editor]
DistanceSpacing: 0.800000011920929
BeatDivisor: 4
GridSize: 8

[Metadata]
Title:Whispers in the Dark
Artist:Skillet
Creator:rust45
Version:Hard
Source:Comatose
Tags:Skillet Comatose

[Difficulty]
HPDrainRate:5
CircleSize:5
OverallDifficulty:6
SliderMultiplier:1
SliderTickRate:1

[Events]
//Background and Video events
0,0,"comatose.jpg"
//Break Periods
2,30182,40102
2,74065,83506
//Storyboard Layer 0 (Background)
//Storyboard Layer 1 (Fail)
//Storyboard Layer 2 (Pass)
//Storyboard Layer 3 (Foreground)
//Storyboard Sound Samples
//Background Colour Transformations
3,100,163,162,255

[TimingPoints]
20408,319.148936170213,4,1,0,100,1,0
107216,-100,4,1,0,100,0,1
118027,-100,4,1,0,100,0,0
118067,-100,4,1,0,100,0,1

[Colours]
Combo1 : 110,110,110
Combo2 : 78,124,78

[HitObjects]
32,192,20407,2,0,B|64:272|192:312|288:264|256:184,1,300
256,128,21684,2,0,B|224:48|144:32|72:64|24:112|16:144,1,300
48,216,22961,2,0,B|104:216,1,50
128,192,23280,1,0
168,184,23439,1,0
208,184,23599,2,0,B|272:184,3,50,0|0|0|8
256,224,24237,2,4,B|229:283|326:331|454:291|486:211,1,300
495,141,25514,6,0,B|463:221|375:333|279:253|271:189,1,300
256,128,26790,2,0,B|288:48|368:32|440:64|488:112|496:144,1,300
432,192,28067,6,0,B|368:192,1,50
344,192,28386,1,0
304,192,28546,1,0
264,192,28705,2,0,B|200:192,3,50,0|0|0|8
216,232,29344,2,4,B|144:232|-8:232,1,200
256,352,41152,5,0
256,312,41312,1,0
256,272,41471,1,0
256,192,41790,1,8
256,152,41950,1,8
256,72,42269,1,0
256,72,42429,2,0,B|256:16,2,50,0|0|2
256,152,43067,1,2
104,192,43705,5,0
136,168,43865,1,0
168,144,44025,1,0
224,216,44344,1,0
256,192,44503,1,8
336,192,44822,1,0
368,168,44982,1,8
440,192,45301,1,2
440,192,45620,1,2
280,192,46259,6,2,B|168:192,1,100
180,192,46897,1,8
176,32,47535,2,2,B|280:32,1,100
276,32,48173,1,8
296,192,48812,5,0
296,192,49131,2,8,B|240:192,2,50
176,192,49769,2,2,B|208:264|280:312|320:296|392:248|392:176,1,300
256,192,51046,12,4,52961
184,192,53599,6,2,B|248:224|312:208|352:176|384:184,1,200
456,192,54556,5,0
456,112,54876,1,0
376,112,55195,1,0
296,112,55514,1,0
256,184,55833,1,8
256,184,56152,6,2,B|200:224|288:240|256:296|320:344|232:368,1,200
253,359,57110,5,0
328,360,57429,1,0
328,280,57748,1,0
248,280,58067,2,0,B|200:304|136:272,1,100,0|8
152,192,58705,5,2
64,328,59344,1,0
224,336,59982,1,2
152,192,60620,1,0
152,192,61259,1,4
256,88,61897,5,2
216,160,62216,1,2
296,160,62535,1,2
256,232,62854,1,2
256,312,63173,1,2
256,312,63493,1,8
256,312,63652,6,6,B|256:32,1,250,6|2
336,8,64769,5,0
256,8,65088,1,0
176,8,65407,1,0
256,8,65727,1,0
256,88,66046,1,8
256,88,66365,6,2,B|256:296,1,200
320,328,67322,5,0
240,328,67642,2,0,B|184:344|128:320,1,100
136,248,68280,1,0
216,248,68599,2,0,B|264:272|320:248,1,100,8|2
464,192,69556,5,0
304,192,70195,1,2
144,192,70833,1,0
256,72,71471,2,8,B|280:128|232:136|256:184,1,100,4|0
256,248,72110,5,2
216,312,72429,1,2
296,312,72748,1,2
256,248,73067,1,0
256,168,73386,1,0
256,88,73705,1,0
256,88,73865,1,4
32,192,84556,5,0
112,168,84876,1,0
144,184,85035,1,0
184,192,85195,1,8
224,192,85354,1,8
304,192,85673,1,0
344,192,85833,1,8
424,192,86152,1,2
424,192,86471,1,2
480,344,87110,5,0
416,288,87429,1,0
416,288,87748,1,8
384,264,87907,1,8
320,216,88227,1,0
320,216,88386,1,8
248,176,88705,2,2,B|144:96,1,100
256,8,89663,6,2,B|256:120,1,100
256,108,90301,1,8
256,264,90939,1,2
256,264,91259,2,2,B|256:160,1,100,2|8
136,192,92056,6,0,B|192:192,1,50,0|2
186,192,92535,1,2
264,192,92854,1,2
344,192,93173,2,2,B|392:216|456:184,1,100
440,190,93812,1,8
440,190,94131,1,4
280,192,94769,5,0
280,192,94929,1,0
280,192,95088,1,0
200,192,95407,1,8
200,192,95567,1,8
120,192,95886,1,0
80,192,96046,1,2
80,192,96205,1,2
80,192,96365,1,2
0,192,96684,1,2
40,32,97322,5,0
40,32,97482,1,0
40,32,97642,1,0
104,80,97961,1,8
104,80,98120,1,8
168,128,98439,1,0
192,152,98599,1,2
192,152,98759,1,2
192,152,98918,1,2
256,192,99237,1,2
256,352,99876,5,0
256,272,100195,1,0
256,192,100514,1,8
256,32,101152,5,0
256,112,101471,1,0
256,192,101790,1,8
256,352,102429,5,0
256,272,102748,1,8
256,232,102907,1,8
256,192,103067,1,8
256,112,103386,2,2,L|176:80|304:56|224:16|264:0,1,300
256,192,104822,12,4,106578
256,8,107216,6,2,L|224:64|288:88|240:176,1,200
192,192,108173,5,0
272,192,108493,1,0
352,192,108812,1,0
304,256,109131,1,0
256,320,109450,1,8
256,320,109769,6,2,B|224:280|280:272|248:224|304:168|256:128,1,200
256,48,110727,5,0
336,48,111046,2,0,B|440:48,2,100,2|2|0
256,48,112003,1,8
256,128,112322,6,0,B|256:336,2,200,2|0|2
104,192,114237,1,0
264,192,114876,1,4
424,192,115514,6,2,B|424:136|344:128,1,100,0|8
280,120,116152,2,2,B|232:128|216:200,1,100,0|8
256,264,116790,1,2
256,344,117110,1,8
256,344,117269,6,6,B|256:72,1,250,6|2
256,96,118386,5,0
256,24,118705,1,0
256,24,119024,1,0
256,96,119343,1,0
256,184,119663,1,8
256,264,119982,6,2,B|256:56,1,200
328,96,120939,5,0
256,56,121258,1,0
184,96,121578,1,0
256,128,121897,1,0
256,208,122216,1,8
256,288,122535,5,2
96,296,123173,1,0
216,192,123811,1,2
376,192,124450,1,0
256,88,125088,1,4
256,248,125726,5,2
256,168,126046,1,2
256,88,126365,1,2
256,88,126684,1,0
256,168,127003,1,2
256,248,127322,1,8
256,288,127482,1,4
