osu file format v5

[General]
AudioFilename: 02 The Last Night.mp3
AudioLeadIn: 0
AudioHash: b0bd56ab2d9a04729e8d88652bca7878
PreviewTime: 35947
Countdown: 1
SampleSet: Normal
EditorBookmarks: 86417

[Metadata]
Title:The Last Night
Artist:Skillet
Creator:GuardianHX
Version:Normal

[Difficulty]
HPDrainRate:4
CircleSize:5
OverallDifficulty:6
SliderMultiplier: 2
SliderTickRate: 2

[Events]
//Background and Video events
0,-100000,"background.jpg"
//Break Periods
2,27675,35099
2,61557,67014
2,78499,85720
2,117323,125602
2,146617,150308
//Storyboard Layer 0 (Background)
//Storyboard Layer 1 (Failing)
//Storyboard Layer 2 (Passing)
//Storyboard Layer 3 (Foreground)
//Storyboard Sound Samples
//Background Colour Transformations
3,100,163,162,255

[TimingPoints]
6380,705.882352941176,4,1,0,100

[Colours]
Combo1 : 54,18,120
Combo2 : 183,223,21
Combo3 : 5,95,192
Combo4 : 157,28,28

[HitObjects]
96,64,17674,1,0
160,192,18379,1,0
256,64,19085,1,0
352,192,19791,1,0
448,64,20497,2,0,B|448:64|454:152|448:288,1,200
288,320,21909,5,0
128,320,22615,1,0
128,160,23321,1,0
288,160,24027,1,0
288,0,24732,2,0,B|288:0|193:-14|32:0,1,200
96,160,26144,1,0
96,224,26497,2,0,B|96:224|244:247|416:224,1,300
160,96,36027,6,0,B|160:96|255:84|384:96,1,200
352,256,37438,2,0,B|352:256|248:269|128:256,1,200
256,160,38497,1,4
256,160,38850,1,4
256,160,39203,1,4
320,96,39556,2,4,B|320:96|230:75|96:96,1,200
96,256,40968,5,0
256,256,41674,1,0
416,256,42379,1,0
352,128,43085,1,0
192,128,43791,1,0
96,256,44497,1,0
256,256,45203,6,4,B|256:256|312:274|397:238|480:256,3,200
416,96,48027,5,0
256,96,48732,1,4
160,96,49085,2,4,B|160:96|152:328|416:256,1,300
256,224,50497,5,4
320,288,50850,2,4,B|320:288|230:309|96:288,1,200
96,128,52262,5,0
256,128,52968,1,0
416,128,53674,1,0
352,256,54379,1,0
192,256,55085,1,0
96,128,55791,1,0
256,128,56497,6,4,B|256:128|312:110|397:146|480:128,3,200
416,288,59321,5,0
256,288,60027,1,4
160,288,60379,2,4,B|160:288|152:56|416:128,1,300
96,192,68144,5,0
96,192,68497,1,0
96,192,68850,1,0
96,192,69203,1,0
416,192,70615,5,0
416,192,70968,1,0
416,192,71321,1,0
416,192,71674,1,0
96,192,73085,5,0
96,192,73438,1,0
96,192,73791,1,0
96,192,74144,1,0
256,192,75556,5,0
256,192,75909,1,0
256,192,76262,1,0
256,192,76615,1,0
256,192,76968,12,0,78379
352,96,86850,6,0,B|352:96|257:84|128:96,1,200
160,256,88262,2,0,B|160:256|264:269|384:256,1,200
256,160,89321,1,4
256,160,89674,1,4
256,160,90027,1,4
192,96,90379,2,4,B|192:96|282:75|416:96,1,200
416,256,91791,5,0
256,256,92497,1,0
96,256,93203,1,0
160,128,93909,1,0
320,128,94615,1,0
416,256,95321,1,0
256,256,96027,6,4,B|256:256|200:274|115:238|32:256,3,200
96,96,98850,5,0
256,96,99556,1,4
352,96,99909,2,4,B|352:96|360:328|96:256,1,300
256,224,101321,5,4
192,288,101674,2,4,B|192:288|282:309|416:288,1,200
416,128,103085,5,0
256,128,103791,1,0
96,128,104497,1,0
160,256,105203,1,0
320,256,105909,1,0
416,128,106615,1,0
256,128,107321,6,4,B|256:128|200:110|115:146|32:128,3,200
96,288,110144,5,0
256,288,110850,1,4
352,288,111203,2,4,B|352:288|360:56|96:128,1,300
256,192,112968,12,4,117203
128,32,126732,5,0
192,32,127085,1,0
256,32,127438,1,0
320,32,127791,1,0
384,32,128144,1,4
256,224,129203,5,4
160,352,129909,5,0
224,352,130262,1,0
288,352,130615,1,0
352,352,130968,1,4
256,128,132027,5,4
160,32,132732,5,0
224,32,133085,1,0
288,32,133438,1,0
352,32,133791,1,4
256,256,134850,5,0
256,256,135203,1,0
256,256,135556,1,0
256,256,135909,1,0
256,256,136262,1,0
256,256,136615,1,4
96,32,138027,5,0
96,192,138732,1,0
256,192,139438,1,0
256,352,140144,1,0
416,352,140850,1,0
416,192,141556,1,0
416,32,142262,1,0
256,32,142968,1,0
96,32,143674,5,0
96,192,144380,1,0
256,192,145085,1,0
256,352,145791,1,0
416,352,146497,1,0
256,160,151438,5,4
256,160,151791,1,4
256,160,152144,1,4
320,96,152497,2,4,B|320:96|230:75|96:96,1,200
96,256,153909,5,0
256,256,154615,1,0
416,256,155321,1,0
352,128,156027,1,0
192,128,156732,1,0
96,256,157438,1,0
256,256,158144,6,4,B|256:256|312:274|397:238|480:256,3,200
416,96,160968,5,0
256,96,161674,1,4
160,96,162027,2,4,B|160:96|152:328|416:256,1,300
256,224,163438,5,4
320,288,163791,2,4,B|320:288|230:309|96:288,1,200
96,128,165203,5,0
256,128,165909,1,0
416,128,166615,1,0
352,256,167321,1,0
192,256,168027,1,0
96,128,168732,1,0
256,128,169438,6,4,B|256:128|312:110|397:146|480:128,3,200
416,288,172262,5,0
256,288,172968,1,4
160,288,173321,2,4,B|160:288|152:56|416:128,1,300
256,192,175085,12,4,183556
