osu file format v12

[General]
AudioFilename: Skrillet - Rise.mp3
AudioLeadIn: 0
PreviewTime: 52563
Countdown: 0
SampleSet: Soft
StackLeniency: 0.7
Mode: 3
LetterboxInBreaks: 0
SpecialStyle: 0
WidescreenStoryboard: 0

[Editor]
DistanceSpacing: 0.9
BeatDivisor: 8
GridSize: 32

[Metadata]
Title:Rise
TitleUnicode:Rise
Artist:Skillet
ArtistUnicode:Skillet
Creator:AngelFlaw
Version:Normal
Source:Rise (Deluxe Edition)
Tags:Skillet , Rise , Pop Rock ,
BeatmapID:326350
BeatmapSetID:128784

[Difficulty]
HPDrainRate:5
CircleSize:4
OverallDifficulty:7
ApproachRate:5
SliderMultiplier:1.4
SliderTickRate:1

[Events]
//Background and Video events
0,0,"Skillet - Rise.jpg",0,0
//Break Periods
//Storyboard Layer 0 (Background)
//Storyboard Layer 1 (Fail)
//Storyboard Layer 2 (Pass)
//Storyboard Layer 3 (Foreground)
//Storyboard Sound Samples
//Background Colour Transformations
3,100,163,162,255

[TimingPoints]
675,681.818181818182,4,2,0,30,1,0

[HitObjects]
192,192,675,1,0,0:0:0:0:
320,192,846,1,0,0:0:0:0:
192,192,1016,1,0,0:0:0:0:
320,192,1357,1,0,0:0:0:0:
192,192,1528,1,0,0:0:0:0:
320,192,1698,1,0,0:0:0:0:
64,192,2039,1,0,0:0:0:0:
320,192,2209,1,0,0:0:0:0:
64,192,2380,1,0,0:0:0:0:
448,192,2721,1,0,0:0:0:0:
192,192,2891,1,0,0:0:0:0:
448,192,3062,1,0,0:0:0:0:
192,192,3403,1,0,0:0:0:0:
320,192,3573,1,0,0:0:0:0:
192,192,3744,1,0,0:0:0:0:
320,192,4084,1,0,0:0:0:0:
192,192,4255,1,0,0:0:0:0:
320,192,4425,1,0,0:0:0:0:
64,192,4766,1,0,0:0:0:0:
320,192,4937,1,0,0:0:0:0:
64,192,5107,1,0,0:0:0:0:
320,192,5448,128,0,6130:0:0:0:0:
192,192,5789,128,0,6130:0:0:0:0:
320,192,6812,1,0,0:0:0:0:
192,192,6982,1,0,0:0:0:0:
320,192,7153,1,0,0:0:0:0:
64,192,7494,1,0,0:0:0:0:
320,192,7664,1,0,0:0:0:0:
64,192,7834,1,0,0:0:0:0:
448,192,8175,1,0,0:0:0:0:
192,192,8346,1,0,0:0:0:0:
448,192,8516,1,0,0:0:0:0:
64,192,8687,1,0,0:0:0:0:
192,192,8857,1,0,0:0:0:0:
320,192,9028,1,0,0:0:0:0:
192,192,9198,1,0,0:0:0:0:
320,192,9539,1,0,0:0:0:0:
192,192,9709,1,0,0:0:0:0:
320,192,9880,1,0,0:0:0:0:
64,192,10221,1,0,0:0:0:0:
192,192,10391,1,0,0:0:0:0:
64,192,10562,1,0,0:0:0:0:
320,192,10903,1,0,0:0:0:0:
448,192,10903,1,0,0:0:0:0:
448,192,11073,1,0,0:0:0:0:
320,192,11073,1,0,0:0:0:0:
320,192,11414,1,0,0:0:0:0:
448,192,11414,1,0,0:0:0:0:
192,192,11584,1,0,0:0:0:0:
64,192,11584,1,0,0:0:0:0:
320,192,11755,1,0,0:0:0:0:
192,192,11925,1,0,0:0:0:0:
448,192,12266,1,0,0:0:0:0:
320,192,12266,1,0,0:0:0:0:
64,192,12437,1,0,0:0:0:0:
192,192,12437,1,0,0:0:0:0:
64,192,12778,1,0,0:0:0:0:
192,192,12948,1,0,0:0:0:0:
320,192,13119,1,0,0:0:0:0:
192,192,13289,1,0,0:0:0:0:
448,192,13630,1,0,0:0:0:0:
320,192,13630,1,0,0:0:0:0:
64,192,13800,1,0,0:0:0:0:
192,192,13800,1,0,0:0:0:0:
64,192,14141,1,0,0:0:0:0:
320,192,14312,1,0,0:0:0:0:
192,192,14482,1,0,0:0:0:0:
320,192,14653,1,0,0:0:0:0:
448,192,14994,1,0,0:0:0:0:
320,192,14994,1,0,0:0:0:0:
64,192,15164,1,0,0:0:0:0:
192,192,15164,1,0,0:0:0:0:
64,192,15505,1,0,0:0:0:0:
320,192,15675,1,0,0:0:0:0:
192,192,15846,1,0,0:0:0:0:
320,192,16016,1,0,0:0:0:0:
448,192,16357,1,0,0:0:0:0:
320,192,16357,1,0,0:0:0:0:
64,192,16528,1,0,0:0:0:0:
192,192,16528,1,0,0:0:0:0:
64,192,16869,1,0,0:0:0:0:
192,192,17039,1,0,0:0:0:0:
320,192,17209,1,0,0:0:0:0:
192,192,17380,1,0,0:0:0:0:
448,192,17721,1,0,0:0:0:0:
320,192,17721,1,0,0:0:0:0:
64,192,17891,1,0,0:0:0:0:
192,192,17891,1,0,0:0:0:0:
64,192,18232,1,0,0:0:0:0:
192,192,18403,1,0,0:0:0:0:
320,192,18573,1,0,0:0:0:0:
192,192,18744,1,0,0:0:0:0:
448,192,19084,1,0,0:0:0:0:
320,192,19084,1,0,0:0:0:0:
64,192,19255,1,0,0:0:0:0:
192,192,19255,1,0,0:0:0:0:
64,192,19596,1,0,0:0:0:0:
320,192,19766,1,0,0:0:0:0:
192,192,19937,1,0,0:0:0:0:
320,192,20107,1,0,0:0:0:0:
448,192,20448,1,0,0:0:0:0:
320,192,20448,1,0,0:0:0:0:
64,192,20619,1,0,0:0:0:0:
192,192,20619,1,0,0:0:0:0:
64,192,20959,1,0,0:0:0:0:
192,192,20959,1,0,0:0:0:0:
448,192,21130,1,0,0:0:0:0:
320,192,21130,1,0,0:0:0:0:
64,192,21300,1,0,0:0:0:0:
192,192,21300,1,0,0:0:0:0:
320,192,21641,1,0,0:0:0:0:
192,192,21641,1,0,0:0:0:0:
448,192,21812,1,0,0:0:0:0:
64,192,21982,1,0,0:0:0:0:
192,192,21982,1,0,0:0:0:0:
448,192,22323,1,0,0:0:0:0:
320,192,22323,1,0,0:0:0:0:
64,192,23857,1,0,0:0:0:0:
192,192,23857,1,0,0:0:0:0:
320,192,24028,1,0,0:0:0:0:
192,192,24198,1,0,0:0:0:0:
320,192,24369,1,0,0:0:0:0:
448,192,24539,1,0,0:0:0:0:
64,192,25050,1,0,0:0:0:0:
192,192,25220,1,0,0:0:0:0:
320,192,25391,1,0,0:0:0:0:
192,192,25561,1,0,0:0:0:0:
320,192,25732,1,0,0:0:0:0:
448,192,25902,1,0,0:0:0:0:
64,192,26584,1,0,0:0:0:0:
320,192,26584,1,0,0:0:0:0:
192,192,26755,1,0,0:0:0:0:
320,192,26925,1,0,0:0:0:0:
192,192,27095,1,0,0:0:0:0:
448,192,27266,1,0,0:0:0:0:
64,192,27777,1,0,0:0:0:0:
320,192,27948,1,0,0:0:0:0:
192,192,28118,1,0,0:0:0:0:
320,192,28289,1,0,0:0:0:0:
192,192,28459,1,0,0:0:0:0:
448,192,28630,1,0,0:0:0:0:
64,192,29312,1,0,0:0:0:0:
192,192,29312,1,0,0:0:0:0:
320,192,29482,1,0,0:0:0:0:
192,192,29653,1,0,0:0:0:0:
320,192,29823,1,0,0:0:0:0:
448,192,29994,1,0,0:0:0:0:
64,192,30505,1,0,0:0:0:0:
192,192,30675,1,0,0:0:0:0:
320,192,30846,1,0,0:0:0:0:
192,192,31016,1,0,0:0:0:0:
320,192,31187,1,0,0:0:0:0:
448,192,31357,1,0,0:0:0:0:
64,192,32039,1,0,0:0:0:0:
192,192,32039,1,0,0:0:0:0:
320,192,32209,1,0,0:0:0:0:
192,192,32380,1,0,0:0:0:0:
320,192,32550,1,0,0:0:0:0:
448,192,32721,1,0,0:0:0:0:
64,192,33403,1,0,0:0:0:0:
192,192,33403,1,0,0:0:0:0:
448,192,33573,128,0,33914:0:0:0:0:
320,192,33573,128,0,33914:0:0:0:0:
448,192,34084,1,0,0:0:0:0:
320,192,34084,1,0,0:0:0:0:
64,192,34255,128,0,34596:0:0:0:0:
192,192,34255,128,0,34596:0:0:0:0:
64,192,34766,1,0,0:0:0:0:
192,192,34766,1,0,0:0:0:0:
320,192,34937,1,0,0:0:0:0:
192,192,35107,1,0,0:0:0:0:
320,192,35278,1,0,0:0:0:0:
448,192,35448,1,0,0:0:0:0:
64,192,36130,1,0,0:0:0:0:
192,192,36130,1,0,0:0:0:0:
320,192,36300,1,0,0:0:0:0:
192,192,36471,1,0,0:0:0:0:
320,192,36641,1,0,0:0:0:0:
448,192,36812,1,0,0:0:0:0:
64,192,37494,1,0,0:0:0:0:
320,192,37494,1,0,0:0:0:0:
192,192,37664,1,0,0:0:0:0:
320,192,37834,1,0,0:0:0:0:
192,192,38005,1,0,0:0:0:0:
448,192,38175,1,0,0:0:0:0:
64,192,38857,1,0,0:0:0:0:
320,192,38857,1,0,0:0:0:0:
192,192,39028,1,0,0:0:0:0:
320,192,39198,1,0,0:0:0:0:
192,192,39369,1,0,0:0:0:0:
448,192,39539,1,0,0:0:0:0:
448,192,39709,1,0,0:0:0:0:
64,192,40221,1,0,0:0:0:0:
192,192,40221,1,0,0:0:0:0:
320,192,40391,1,0,0:0:0:0:
192,192,40562,1,0,0:0:0:0:
320,192,40732,1,0,0:0:0:0:
448,192,40903,1,0,0:0:0:0:
64,192,41584,1,0,0:0:0:0:
192,192,41584,1,0,0:0:0:0:
320,192,41755,1,0,0:0:0:0:
192,192,41925,1,0,0:0:0:0:
320,192,42096,1,0,0:0:0:0:
448,192,42266,1,0,0:0:0:0:
64,192,42948,1,0,0:0:0:0:
320,192,42948,1,0,0:0:0:0:
192,192,43119,1,0,0:0:0:0:
320,192,43289,1,0,0:0:0:0:
192,192,43459,1,0,0:0:0:0:
448,192,43630,1,0,0:0:0:0:
64,192,44312,1,0,0:0:0:0:
192,192,44312,1,0,0:0:0:0:
320,192,44482,128,0,44823:0:0:0:0:
448,192,44482,128,0,44823:0:0:0:0:
448,192,44994,1,0,0:0:0:0:
320,192,44994,1,0,0:0:0:0:
192,192,45164,128,0,45505:0:0:0:0:
64,192,45164,128,0,45505:0:0:0:0:
64,192,45675,1,0,0:0:0:0:
320,192,45675,1,0,0:0:0:0:
320,192,46016,1,0,0:0:0:0:
448,192,46357,1,0,0:0:0:0:
320,192,46357,1,0,0:0:0:0:
320,192,46698,1,0,0:0:0:0:
64,192,47039,1,0,0:0:0:0:
320,192,47039,1,0,0:0:0:0:
320,192,47380,1,0,0:0:0:0:
448,192,47721,1,0,0:0:0:0:
320,192,47721,1,0,0:0:0:0:
320,192,48062,1,0,0:0:0:0:
64,192,48403,1,0,0:0:0:0:
192,192,48403,1,0,0:0:0:0:
192,192,48744,1,0,0:0:0:0:
448,192,49084,1,0,0:0:0:0:
192,192,49084,1,0,0:0:0:0:
192,192,49425,1,0,0:0:0:0:
64,192,49766,1,0,0:0:0:0:
320,192,49766,1,0,0:0:0:0:
320,192,50107,1,0,0:0:0:0:
448,192,50448,1,0,0:0:0:0:
320,192,50448,1,0,0:0:0:0:
64,192,50619,1,0,0:0:0:0:
448,192,51812,1,0,0:0:0:0:
448,192,51982,1,0,0:0:0:0:
448,192,52153,1,0,0:0:0:0:
448,192,52323,1,0,0:0:0:0:
64,192,52494,1,0,0:0:0:0:
192,192,52494,1,0,0:0:0:0:
64,192,52834,1,0,0:0:0:0:
192,192,52834,1,0,0:0:0:0:
320,192,53175,128,0,53516:0:0:0:0:
448,192,53175,128,0,53516:0:0:0:0:
64,192,53857,1,0,0:0:0:0:
192,192,53857,1,0,0:0:0:0:
64,192,54198,1,0,0:0:0:0:
192,192,54198,1,0,0:0:0:0:
64,192,54539,128,0,54880:0:0:0:0:
448,192,54539,128,0,54880:0:0:0:0:
64,192,55221,1,0,0:0:0:0:
192,192,55221,1,0,0:0:0:0:
64,192,55562,1,0,0:0:0:0:
192,192,55562,1,0,0:0:0:0:
448,192,55903,1,0,0:0:0:0:
192,192,56243,128,0,57095:0:0:0:0:
320,192,56584,128,0,57096:0:0:0:0:
448,192,57266,128,0,57607:0:0:0:0:
64,192,57948,1,0,0:0:0:0:
320,192,58119,1,0,0:0:0:0:
64,192,58289,1,0,0:0:0:0:
320,192,58630,128,0,58971:0:0:0:0:
448,192,58630,128,0,58971:0:0:0:0:
64,192,59312,1,0,0:0:0:0:
320,192,59482,1,0,0:0:0:0:
64,192,59653,1,0,0:0:0:0:
64,192,59994,128,0,60334:0:0:0:0:
448,192,59994,128,0,60334:0:0:0:0:
64,192,60675,1,0,0:0:0:0:
320,192,60675,1,0,0:0:0:0:
64,192,61016,1,0,0:0:0:0:
320,192,61016,1,0,0:0:0:0:
448,192,61357,1,0,0:0:0:0:
320,192,61357,1,0,0:0:0:0:
192,192,61698,128,0,62550:0:0:0:0:
320,192,62039,128,0,62550:0:0:0:0:
448,192,62720,128,0,63061:0:0:0:0:
64,192,63403,1,0,0:0:0:0:
320,192,63573,1,0,0:0:0:0:
64,192,63744,1,0,0:0:0:0:
320,192,64084,128,0,64425:0:0:0:0:
448,192,64084,128,0,64425:0:0:0:0:
64,192,64766,1,0,0:0:0:0:
320,192,64937,1,0,0:0:0:0:
64,192,65107,1,0,0:0:0:0:
64,192,65448,128,0,65789:0:0:0:0:
448,192,65448,128,0,65789:0:0:0:0:
64,192,66130,1,0,0:0:0:0:
192,192,66130,1,0,0:0:0:0:
64,192,66471,1,0,0:0:0:0:
192,192,66471,1,0,0:0:0:0:
448,192,66812,1,0,0:0:0:0:
192,192,67152,128,0,68005:0:0:0:0:
320,192,67494,128,0,68005:0:0:0:0:
448,192,68175,128,0,68516:0:0:0:0:
64,192,68857,1,0,0:0:0:0:
64,192,69198,1,0,0:0:0:0:
192,192,69198,1,0,0:0:0:0:
448,192,69539,1,0,0:0:0:0:
64,192,69880,1,0,0:0:0:0:
192,192,69880,1,0,0:0:0:0:
320,192,70220,1,0,0:0:0:0:
64,192,70562,1,0,0:0:0:0:
192,192,70562,1,0,0:0:0:0:
448,192,70903,1,0,0:0:0:0:
64,192,71584,1,0,0:0:0:0:
320,192,71584,1,0,0:0:0:0:
64,192,71925,1,0,0:0:0:0:
320,192,71925,1,0,0:0:0:0:
448,192,72266,1,0,0:0:0:0:
64,192,72607,1,0,0:0:0:0:
320,192,72607,1,0,0:0:0:0:
320,192,72948,1,0,0:0:0:0:
192,192,72948,1,0,0:0:0:0:
320,192,73289,1,0,0:0:0:0:
192,192,73289,1,0,0:0:0:0:
448,192,73630,1,0,0:0:0:0:
64,192,74312,1,0,0:0:0:0:
192,192,74312,1,0,0:0:0:0:
64,192,74653,1,0,0:0:0:0:
192,192,74653,1,0,0:0:0:0:
448,192,74994,1,0,0:0:0:0:
320,192,75334,1,0,0:0:0:0:
320,192,75505,1,0,0:0:0:0:
64,192,75675,1,0,0:0:0:0:
192,192,75675,1,0,0:0:0:0:
64,192,76016,1,0,0:0:0:0:
192,192,76016,1,0,0:0:0:0:
448,192,76357,1,0,0:0:0:0:
192,192,77039,1,0,0:0:0:0:
320,192,77209,1,0,0:0:0:0:
192,192,77380,1,0,0:0:0:0:
448,192,77721,1,0,0:0:0:0:
320,192,77721,1,0,0:0:0:0:
64,192,77891,1,0,0:0:0:0:
192,192,77891,1,0,0:0:0:0:
64,192,78232,1,0,0:0:0:0:
192,192,78403,1,0,0:0:0:0:
320,192,78573,1,0,0:0:0:0:
192,192,78744,1,0,0:0:0:0:
448,192,79084,1,0,0:0:0:0:
320,192,79084,1,0,0:0:0:0:
64,192,79255,1,0,0:0:0:0:
192,192,79255,1,0,0:0:0:0:
64,192,79596,1,0,0:0:0:0:
320,192,79766,1,0,0:0:0:0:
192,192,79937,1,0,0:0:0:0:
320,192,80107,1,0,0:0:0:0:
448,192,80448,1,0,0:0:0:0:
320,192,80448,1,0,0:0:0:0:
64,192,80619,1,0,0:0:0:0:
192,192,80619,1,0,0:0:0:0:
64,192,80959,1,0,0:0:0:0:
320,192,81130,1,0,0:0:0:0:
192,192,81300,1,0,0:0:0:0:
320,192,81471,1,0,0:0:0:0:
320,192,81812,1,0,0:0:0:0:
192,192,81812,1,0,0:0:0:0:
192,192,81982,1,0,0:0:0:0:
320,192,81982,1,0,0:0:0:0:
192,192,82494,1,0,0:0:0:0:
320,192,82664,1,0,0:0:0:0:
192,192,82834,1,0,0:0:0:0:
448,192,83175,1,0,0:0:0:0:
320,192,83175,1,0,0:0:0:0:
64,192,83346,1,0,0:0:0:0:
192,192,83346,1,0,0:0:0:0:
64,192,83687,1,0,0:0:0:0:
192,192,83857,1,0,0:0:0:0:
320,192,84028,1,0,0:0:0:0:
192,192,84198,1,0,0:0:0:0:
448,192,84539,1,0,0:0:0:0:
320,192,84539,1,0,0:0:0:0:
64,192,84709,1,0,0:0:0:0:
192,192,84709,1,0,0:0:0:0:
64,192,85050,1,0,0:0:0:0:
320,192,85221,1,0,0:0:0:0:
192,192,85391,1,0,0:0:0:0:
320,192,85562,1,0,0:0:0:0:
448,192,85903,1,0,0:0:0:0:
320,192,85903,1,0,0:0:0:0:
64,192,86073,1,0,0:0:0:0:
192,192,86073,1,0,0:0:0:0:
320,192,86414,1,0,0:0:0:0:
448,192,86414,1,0,0:0:0:0:
192,192,86584,1,0,0:0:0:0:
64,192,86584,1,0,0:0:0:0:
448,192,86755,128,0,87095:0:0:0:0:
320,192,86755,128,0,87095:0:0:0:0:
448,192,87266,1,0,0:0:0:0:
320,192,87266,1,0,0:0:0:0:
192,192,87437,128,0,87778:0:0:0:0:
64,192,87437,128,0,87778:0:0:0:0:
320,192,87948,1,0,0:0:0:0:
64,192,88119,1,0,0:0:0:0:
320,192,88289,1,0,0:0:0:0:
320,192,88459,1,0,0:0:0:0:
448,192,88630,1,0,0:0:0:0:
448,192,88800,1,0,0:0:0:0:
64,192,89312,1,0,0:0:0:0:
320,192,89312,1,0,0:0:0:0:
320,192,89653,1,0,0:0:0:0:
320,192,89823,1,0,0:0:0:0:
448,192,89994,1,0,0:0:0:0:
448,192,90164,1,0,0:0:0:0:
64,192,90675,1,0,0:0:0:0:
192,192,90675,1,0,0:0:0:0:
320,192,90846,1,0,0:0:0:0:
192,192,91016,1,0,0:0:0:0:
320,192,91187,1,0,0:0:0:0:
448,192,91357,1,0,0:0:0:0:
64,192,91869,1,0,0:0:0:0:
192,192,92039,1,0,0:0:0:0:
320,192,92209,1,0,0:0:0:0:
192,192,92380,1,0,0:0:0:0:
320,192,92550,1,0,0:0:0:0:
448,192,92721,1,0,0:0:0:0:
64,192,93403,1,0,0:0:0:0:
320,192,93403,1,0,0:0:0:0:
192,192,93573,1,0,0:0:0:0:
320,192,93744,1,0,0:0:0:0:
192,192,93914,1,0,0:0:0:0:
448,192,94084,1,0,0:0:0:0:
64,192,94596,1,0,0:0:0:0:
320,192,94766,1,0,0:0:0:0:
192,192,94937,1,0,0:0:0:0:
320,192,95107,1,0,0:0:0:0:
192,192,95278,1,0,0:0:0:0:
448,192,95448,1,0,0:0:0:0:
64,192,96130,1,0,0:0:0:0:
192,192,96130,1,0,0:0:0:0:
320,192,96300,1,0,0:0:0:0:
192,192,96471,1,0,0:0:0:0:
320,192,96641,1,0,0:0:0:0:
448,192,96812,1,0,0:0:0:0:
64,192,97323,1,0,0:0:0:0:
192,192,97494,1,0,0:0:0:0:
320,192,97664,1,0,0:0:0:0:
192,192,97834,1,0,0:0:0:0:
320,192,98005,1,0,0:0:0:0:
448,192,98175,1,0,0:0:0:0:
64,192,98857,1,0,0:0:0:0:
192,192,98857,1,0,0:0:0:0:
320,192,99028,128,0,99198:0:0:0:0:
448,192,99028,128,0,99198:0:0:0:0:
192,192,99880,1,0,0:0:0:0:
64,192,99880,1,0,0:0:0:0:
320,192,100050,128,0,100221:0:0:0:0:
448,192,100050,128,0,100221:0:0:0:0:
320,192,100903,1,0,0:0:0:0:
448,192,100903,1,0,0:0:0:0:
192,192,101073,128,0,101244:0:0:0:0:
64,192,101073,128,0,101244:0:0:0:0:
64,192,101414,1,0,0:0:0:0:
192,192,101584,1,0,0:0:0:0:
320,192,101755,1,0,0:0:0:0:
192,192,101925,1,0,0:0:0:0:
320,192,102096,1,0,0:0:0:0:
448,192,102266,1,0,0:0:0:0:
64,192,102948,1,0,0:0:0:0:
192,192,102948,1,0,0:0:0:0:
320,192,103119,1,0,0:0:0:0:
192,192,103289,1,0,0:0:0:0:
320,192,103459,1,0,0:0:0:0:
448,192,103630,1,0,0:0:0:0:
64,192,104312,1,0,0:0:0:0:
320,192,104312,1,0,0:0:0:0:
192,192,104482,1,0,0:0:0:0:
320,192,104653,1,0,0:0:0:0:
192,192,104823,1,0,0:0:0:0:
448,192,104994,1,0,0:0:0:0:
64,192,105675,1,0,0:0:0:0:
320,192,105675,1,0,0:0:0:0:
192,192,105846,1,0,0:0:0:0:
320,192,106016,1,0,0:0:0:0:
192,192,106187,1,0,0:0:0:0:
448,192,106357,1,0,0:0:0:0:
448,192,106528,1,0,0:0:0:0:
64,192,107039,1,0,0:0:0:0:
192,192,107039,1,0,0:0:0:0:
320,192,107209,1,0,0:0:0:0:
192,192,107380,1,0,0:0:0:0:
320,192,107550,1,0,0:0:0:0:
448,192,107721,1,0,0:0:0:0:
64,192,108403,1,0,0:0:0:0:
192,192,108403,1,0,0:0:0:0:
320,192,108573,1,0,0:0:0:0:
192,192,108744,1,0,0:0:0:0:
320,192,108914,1,0,0:0:0:0:
448,192,109084,1,0,0:0:0:0:
320,192,109766,1,0,0:0:0:0:
64,192,109766,1,0,0:0:0:0:
192,192,109937,1,0,0:0:0:0:
320,192,110107,1,0,0:0:0:0:
192,192,110278,1,0,0:0:0:0:
448,192,110448,1,0,0:0:0:0:
64,192,111130,1,0,0:0:0:0:
192,192,111130,1,0,0:0:0:0:
320,192,111300,128,0,111641:0:0:0:0:
448,192,111300,128,0,111641:0:0:0:0:
448,192,111812,1,0,0:0:0:0:
320,192,111812,1,0,0:0:0:0:
192,192,111982,128,0,112323:0:0:0:0:
64,192,111982,128,0,112323:0:0:0:0:
320,192,112494,1,0,0:0:0:0:
64,192,112494,1,0,0:0:0:0:
320,192,112834,1,0,0:0:0:0:
64,192,112834,1,0,0:0:0:0:
320,192,113175,1,0,0:0:0:0:
64,192,113175,1,0,0:0:0:0:
320,192,113516,1,0,0:0:0:0:
64,192,113516,1,0,0:0:0:0:
320,192,113857,1,0,0:0:0:0:
64,192,113857,1,0,0:0:0:0:
320,192,114198,1,0,0:0:0:0:
64,192,114198,1,0,0:0:0:0:
320,192,114539,1,0,0:0:0:0:
64,192,114539,1,0,0:0:0:0:
320,192,114880,1,0,0:0:0:0:
64,192,114880,1,0,0:0:0:0:
320,192,115221,1,0,0:0:0:0:
192,192,115221,1,0,0:0:0:0:
320,192,115562,1,0,0:0:0:0:
192,192,115562,1,0,0:0:0:0:
320,192,115903,1,0,0:0:0:0:
192,192,115903,1,0,0:0:0:0:
320,192,116244,1,0,0:0:0:0:
192,192,116244,1,0,0:0:0:0:
448,192,116584,1,0,0:0:0:0:
320,192,116584,1,0,0:0:0:0:
448,192,116925,1,0,0:0:0:0:
320,192,116925,1,0,0:0:0:0:
448,192,117266,1,0,0:0:0:0:
320,192,117266,1,0,0:0:0:0:
448,192,117607,1,0,0:0:0:0:
320,192,117607,1,0,0:0:0:0:
448,192,118630,1,0,0:0:0:0:
448,192,118800,1,0,0:0:0:0:
448,192,118971,1,0,0:0:0:0:
448,192,119141,1,0,0:0:0:0:
320,192,119312,1,0,0:0:0:0:
192,192,119482,1,0,0:0:0:0:
320,192,119653,1,0,0:0:0:0:
320,192,119994,128,0,120334:0:0:0:0:
448,192,119994,128,0,120334:0:0:0:0:
320,192,120675,1,0,0:0:0:0:
192,192,120846,1,0,0:0:0:0:
320,192,121016,1,0,0:0:0:0:
64,192,121357,128,0,121698:0:0:0:0:
448,192,121357,128,0,121698:0:0:0:0:
64,192,122039,1,0,0:0:0:0:
192,192,122039,1,0,0:0:0:0:
64,192,122380,1,0,0:0:0:0:
192,192,122380,1,0,0:0:0:0:
448,192,122721,1,0,0:0:0:0:
192,192,122721,1,0,0:0:0:0:
192,192,123061,128,0,123914:0:0:0:0:
320,192,123403,128,0,123914:0:0:0:0:
448,192,124084,128,0,124425:0:0:0:0:
64,192,124766,1,0,0:0:0:0:
320,192,124937,1,0,0:0:0:0:
64,192,125107,1,0,0:0:0:0:
320,192,125448,128,0,125789:0:0:0:0:
448,192,125448,128,0,125789:0:0:0:0:
64,192,126130,1,0,0:0:0:0:
320,192,126300,1,0,0:0:0:0:
64,192,126471,1,0,0:0:0:0:
64,192,126812,128,0,127153:0:0:0:0:
448,192,126812,128,0,127153:0:0:0:0:
64,192,127494,1,0,0:0:0:0:
320,192,127494,1,0,0:0:0:0:
64,192,127834,1,0,0:0:0:0:
320,192,127834,1,0,0:0:0:0:
448,192,128175,1,0,0:0:0:0:
320,192,128175,1,0,0:0:0:0:
192,192,128516,128,0,129368:0:0:0:0:
320,192,128857,128,0,129369:0:0:0:0:
448,192,129539,128,0,129880:0:0:0:0:
64,192,130221,1,0,0:0:0:0:
320,192,130391,1,0,0:0:0:0:
64,192,130562,1,0,0:0:0:0:
320,192,130903,128,0,131244:0:0:0:0:
448,192,130903,128,0,131244:0:0:0:0:
64,192,131584,1,0,0:0:0:0:
320,192,131755,1,0,0:0:0:0:
64,192,131925,1,0,0:0:0:0:
64,192,132266,128,0,132607:0:0:0:0:
448,192,132266,128,0,132607:0:0:0:0:
64,192,132948,1,0,0:0:0:0:
192,192,132948,1,0,0:0:0:0:
64,192,133289,1,0,0:0:0:0:
192,192,133289,1,0,0:0:0:0:
448,192,133630,1,0,0:0:0:0:
192,192,133630,1,0,0:0:0:0:
192,192,133970,128,0,134823:0:0:0:0:
320,192,134312,128,0,134823:0:0:0:0:
448,192,134993,128,0,135334:0:0:0:0:
64,192,135675,1,0,0:0:0:0:
320,192,135675,1,0,0:0:0:0:
64,192,136016,1,0,0:0:0:0:
320,192,136016,1,0,0:0:0:0:
320,192,136357,1,0,0:0:0:0:
64,192,136357,1,0,0:0:0:0:
64,192,136698,1,0,0:0:0:0:
320,192,136698,1,0,0:0:0:0:
64,192,137039,1,0,0:0:0:0:
320,192,137039,1,0,0:0:0:0:
64,192,137380,1,0,0:0:0:0:
320,192,137380,1,0,0:0:0:0:
448,192,137721,1,0,0:0:0:0:
192,192,138403,1,0,0:0:0:0:
320,192,138403,1,0,0:0:0:0:
192,192,138744,1,0,0:0:0:0:
320,192,138744,1,0,0:0:0:0:
192,192,139084,1,0,0:0:0:0:
320,192,139084,1,0,0:0:0:0:
192,192,139425,1,0,0:0:0:0:
320,192,139425,1,0,0:0:0:0:
320,192,139766,1,0,0:0:0:0:
448,192,139766,1,0,0:0:0:0:
320,192,140107,1,0,0:0:0:0:
448,192,140107,1,0,0:0:0:0:
448,192,140448,1,0,0:0:0:0:
320,192,140448,1,0,0:0:0:0:
320,192,140789,1,0,0:0:0:0:
448,192,140789,1,0,0:0:0:0:
64,192,141130,1,0,0:0:0:0:
192,192,141130,1,0,0:0:0:0:
64,192,141471,1,0,0:0:0:0:
192,192,141471,1,0,0:0:0:0:
448,192,141812,1,0,0:0:0:0:
320,192,141812,1,0,0:0:0:0:
320,192,142153,1,0,0:0:0:0:
320,192,142323,1,0,0:0:0:0:
64,192,142494,1,0,0:0:0:0:
192,192,142494,1,0,0:0:0:0:
64,192,142834,1,0,0:0:0:0:
192,192,142834,1,0,0:0:0:0:
448,192,143175,1,0,0:0:0:0:
320,192,143175,1,0,0:0:0:0:
192,192,143857,1,0,0:0:0:0:
320,192,144028,1,0,0:0:0:0:
192,192,144198,1,0,0:0:0:0:
320,192,144539,1,0,0:0:0:0:
448,192,144539,1,0,0:0:0:0:
64,192,144709,1,0,0:0:0:0:
192,192,144709,1,0,0:0:0:0:
64,192,145050,1,0,0:0:0:0:
192,192,145221,1,0,0:0:0:0:
320,192,145391,1,0,0:0:0:0:
192,192,145562,1,0,0:0:0:0:
448,192,145903,1,0,0:0:0:0:
320,192,145903,1,0,0:0:0:0:
64,192,146073,1,0,0:0:0:0:
192,192,146073,1,0,0:0:0:0:
64,192,146414,1,0,0:0:0:0:
192,192,146584,1,0,0:0:0:0:
320,192,146755,1,0,0:0:0:0:
192,192,146925,1,0,0:0:0:0:
448,192,147266,1,0,0:0:0:0:
320,192,147266,1,0,0:0:0:0:
64,192,147437,1,0,0:0:0:0:
192,192,147437,1,0,0:0:0:0:
320,192,147778,1,0,0:0:0:0:
448,192,147778,1,0,0:0:0:0:
64,192,147948,1,0,0:0:0:0:
192,192,147948,1,0,0:0:0:0:
320,192,148289,1,0,0:0:0:0:
448,192,148289,1,0,0:0:0:0:
192,192,148459,1,0,0:0:0:0:
64,192,148630,1,0,0:0:0:0:
192,192,148800,1,0,0:0:0:0:
320,192,148971,1,0,0:0:0:0:
448,192,149141,1,0,0:0:0:0:
64,192,149312,1,0,0:0:0:0:
320,192,149482,1,0,0:0:0:0:
64,192,149653,1,0,0:0:0:0:
448,192,149994,1,0,0:0:0:0:
320,192,149994,1,0,0:0:0:0:
64,192,150164,1,0,0:0:0:0:
192,192,150164,1,0,0:0:0:0:
64,192,150505,1,0,0:0:0:0:
192,192,150675,1,0,0:0:0:0:
320,192,150846,1,0,0:0:0:0:
192,192,151016,1,0,0:0:0:0:
448,192,151357,1,0,0:0:0:0:
320,192,151357,1,0,0:0:0:0:
64,192,151528,1,0,0:0:0:0:
192,192,151528,1,0,0:0:0:0:
64,192,151869,1,0,0:0:0:0:
320,192,152039,1,0,0:0:0:0:
192,192,152209,1,0,0:0:0:0:
320,192,152380,1,0,0:0:0:0:
448,192,152721,1,0,0:0:0:0:
320,192,152721,1,0,0:0:0:0:
64,192,152891,1,0,0:0:0:0:
192,192,152891,1,0,0:0:0:0:
448,192,153232,1,0,0:0:0:0:
192,192,153403,1,0,0:0:0:0:
320,192,153573,1,0,0:0:0:0:
64,192,153914,1,0,0:0:0:0:
320,192,154084,1,0,0:0:0:0:
448,192,154084,1,0,0:0:0:0:
64,192,154255,1,0,0:0:0:0:
192,192,154255,1,0,0:0:0:0:
192,192,154766,128,0,157153:0:0:0:0:
320,192,157153,128,0,157494:0:0:0:0:
192,192,157494,128,0,158857:0:0:0:0:
320,192,158857,128,0,159198:0:0:0:0:
192,192,159198,128,0,159539:0:0:0:0:
320,192,159539,128,0,159880:0:0:0:0:
448,192,159880,128,0,160221:0:0:0:0:
192,192,160221,128,0,160903:0:0:0:0:
192,192,161244,128,0,162778:0:0:0:0:
320,192,162948,128,0,163971:0:0:0:0:
448,192,164312,1,0,0:0:0:0:
320,192,164397,1,0,0:0:0:0:
192,192,164482,1,0,0:0:0:0:
64,192,164567,1,0,0:0:0:0:
192,192,164653,1,0,0:0:0:0:
320,192,164738,1,0,0:0:0:0:
448,192,164823,1,0,0:0:0:0:
320,192,164908,1,0,0:0:0:0:
192,192,164994,1,0,0:0:0:0:
64,192,165079,1,0,0:0:0:0:
192,192,165164,1,0,0:0:0:0:
320,192,165249,1,0,0:0:0:0:
448,192,165334,1,0,0:0:0:0:
320,192,165420,1,0,0:0:0:0:
192,192,165505,1,0,0:0:0:0:
64,192,165675,128,0,167721:0:0:0:0:
448,192,167721,128,0,168062:0:0:0:0:
320,192,168062,128,0,168403:0:0:0:0:
192,192,168403,128,0,169425:0:0:0:0:
64,192,169596,1,0,0:0:0:0:
320,192,169766,1,0,0:0:0:0:
192,192,169937,1,0,0:0:0:0:
448,192,170107,1,0,0:0:0:0:
192,192,170278,1,0,0:0:0:0:
320,192,170448,1,0,0:0:0:0:
64,192,170619,1,0,0:0:0:0:
448,192,170789,1,0,0:0:0:0:
192,192,170959,1,0,0:0:0:0:
64,192,171130,128,0,173857:0:0:0:0:
64,192,176584,1,0,0:0:0:0:
320,192,176755,1,0,0:0:0:0:
192,192,176925,1,0,0:0:0:0:
320,192,177096,1,0,0:0:0:0:
448,192,177266,1,0,0:0:0:0:
64,192,177437,1,0,0:0:0:0:
320,192,177607,1,0,0:0:0:0:
320,192,178119,1,0,0:0:0:0:
192,192,178289,1,0,0:0:0:0:
320,192,178460,1,0,0:0:0:0:
448,192,178630,1,0,0:0:0:0:
64,192,178801,1,0,0:0:0:0:
320,192,178971,1,0,0:0:0:0:
64,192,179141,1,0,0:0:0:0:
448,192,179312,1,0,0:0:0:0:
64,192,179482,128,0,179994:0:0:0:0:
192,192,180164,128,0,180675:0:0:0:0:
320,192,180846,128,0,181357:0:0:0:0:
448,192,181528,128,0,182039:0:0:0:0:
64,192,183403,1,0,0:0:0:0:
320,192,183573,1,0,0:0:0:0:
64,192,183744,1,0,0:0:0:0:
320,192,183914,1,0,0:0:0:0:
448,192,184084,1,0,0:0:0:0:
64,192,184766,1,0,0:0:0:0:
320,192,184936,1,0,0:0:0:0:
64,192,185107,1,0,0:0:0:0:
320,192,185277,1,0,0:0:0:0:
448,192,185447,1,0,0:0:0:0:
64,192,186130,1,0,0:0:0:0:
320,192,186300,1,0,0:0:0:0:
64,192,186471,1,0,0:0:0:0:
320,192,186641,1,0,0:0:0:0:
448,192,186811,1,0,0:0:0:0:
64,192,187494,1,0,0:0:0:0:
320,192,187664,1,0,0:0:0:0:
64,192,187835,1,0,0:0:0:0:
320,192,188005,1,0,0:0:0:0:
448,192,188175,1,0,0:0:0:0:
64,192,188857,1,0,0:0:0:0:
320,192,189027,1,0,0:0:0:0:
64,192,189198,1,0,0:0:0:0:
320,192,189368,1,0,0:0:0:0:
448,192,189538,1,0,0:0:0:0:
64,192,190221,1,0,0:0:0:0:
320,192,190391,1,0,0:0:0:0:
64,192,190562,1,0,0:0:0:0:
320,192,190732,1,0,0:0:0:0:
448,192,190902,1,0,0:0:0:0:
64,192,191584,1,0,0:0:0:0:
320,192,191754,1,0,0:0:0:0:
64,192,191925,1,0,0:0:0:0:
320,192,192095,1,0,0:0:0:0:
448,192,192265,1,0,0:0:0:0:
64,192,192948,1,0,0:0:0:0:
320,192,193118,1,0,0:0:0:0:
64,192,193289,1,0,0:0:0:0:
320,192,193459,1,0,0:0:0:0:
448,192,193629,1,0,0:0:0:0:
448,192,193800,1,0,0:0:0:0:
448,192,194141,1,0,0:0:0:0:
64,192,194312,1,0,0:0:0:0:
192,192,194312,1,0,0:0:0:0:
64,192,194653,1,0,0:0:0:0:
192,192,194653,1,0,0:0:0:0:
448,192,194994,1,0,0:0:0:0:
192,192,194994,1,0,0:0:0:0:
64,192,195334,1,0,0:0:0:0:
192,192,195334,1,0,0:0:0:0:
64,192,195675,1,0,0:0:0:0:
192,192,195675,1,0,0:0:0:0:
64,192,196016,1,0,0:0:0:0:
192,192,196016,1,0,0:0:0:0:
448,192,196357,1,0,0:0:0:0:
320,192,196357,1,0,0:0:0:0:
192,192,197039,1,0,0:0:0:0:
320,192,197039,1,0,0:0:0:0:
192,192,197380,1,0,0:0:0:0:
320,192,197380,1,0,0:0:0:0:
448,192,197721,1,0,0:0:0:0:
320,192,197721,1,0,0:0:0:0:
320,192,198061,1,0,0:0:0:0:
192,192,198061,1,0,0:0:0:0:
64,192,198232,1,0,0:0:0:0:
192,192,198317,1,0,0:0:0:0:
320,192,198402,1,0,0:0:0:0:
448,192,198487,1,0,0:0:0:0:
320,192,198573,1,0,0:0:0:0:
192,192,198658,1,0,0:0:0:0:
64,192,198743,1,0,0:0:0:0:
448,192,198828,1,0,0:0:0:0:
320,192,198914,1,0,0:0:0:0:
192,192,198999,1,0,0:0:0:0:
64,192,199084,1,0,0:0:0:0:
192,192,199169,1,0,0:0:0:0:
320,192,199255,1,0,0:0:0:0:
448,192,199340,1,0,0:0:0:0:
64,192,199425,1,0,0:0:0:0:
192,192,199510,1,0,0:0:0:0:
320,192,199595,1,0,0:0:0:0:
448,192,199681,1,0,0:0:0:0:
64,192,199766,1,0,0:0:0:0:
192,192,199766,1,0,0:0:0:0:
64,192,200107,1,0,0:0:0:0:
192,192,200107,1,0,0:0:0:0:
448,192,200448,1,0,0:0:0:0:
320,192,200448,1,0,0:0:0:0:
64,192,200619,1,0,0:0:0:0:
192,192,200619,1,0,0:0:0:0:
64,192,200959,1,0,0:0:0:0:
192,192,200959,1,0,0:0:0:0:
320,192,201130,1,0,0:0:0:0:
448,192,201130,1,0,0:0:0:0:
64,192,201471,1,0,0:0:0:0:
320,192,201471,1,0,0:0:0:0:
448,192,201812,1,0,0:0:0:0:
320,192,201812,1,0,0:0:0:0:
64,192,201982,1,0,0:0:0:0:
192,192,201982,1,0,0:0:0:0:
64,192,202323,1,0,0:0:0:0:
192,192,202323,1,0,0:0:0:0:
320,192,202494,1,0,0:0:0:0:
448,192,202494,1,0,0:0:0:0:
320,192,202834,1,0,0:0:0:0:
448,192,202834,1,0,0:0:0:0:
448,192,203175,1,0,0:0:0:0:
320,192,203175,1,0,0:0:0:0:
64,192,203346,1,0,0:0:0:0:
192,192,203346,1,0,0:0:0:0:
64,192,203687,1,0,0:0:0:0:
320,192,203857,1,0,0:0:0:0:
192,192,204028,1,0,0:0:0:0:
448,192,204198,1,0,0:0:0:0:
64,192,204369,1,0,0:0:0:0:
320,192,204539,1,0,0:0:0:0:
192,192,204709,1,0,0:0:0:0:
320,192,204880,1,0,0:0:0:0:
64,192,205050,1,0,0:0:0:0:
192,192,205221,1,0,0:0:0:0:
320,192,205391,1,0,0:0:0:0:
192,192,205562,1,0,0:0:0:0:
448,192,205903,1,0,0:0:0:0:
320,192,205903,1,0,0:0:0:0:
64,192,206073,1,0,0:0:0:0:
192,192,206073,1,0,0:0:0:0:
64,192,206414,1,0,0:0:0:0:
192,192,206584,1,0,0:0:0:0:
320,192,206755,1,0,0:0:0:0:
192,192,206925,1,0,0:0:0:0:
448,192,207266,1,0,0:0:0:0:
320,192,207266,1,0,0:0:0:0:
64,192,207437,1,0,0:0:0:0:
192,192,207437,1,0,0:0:0:0:
64,192,207778,1,0,0:0:0:0:
320,192,207948,1,0,0:0:0:0:
192,192,208119,1,0,0:0:0:0:
320,192,208289,1,0,0:0:0:0:
448,192,208630,1,0,0:0:0:0:
320,192,208630,1,0,0:0:0:0:
64,192,208800,1,0,0:0:0:0:
192,192,208800,1,0,0:0:0:0:
320,192,209141,1,0,0:0:0:0:
448,192,209141,1,0,0:0:0:0:
192,192,209311,1,0,0:0:0:0:
64,192,209311,1,0,0:0:0:0:
448,192,209482,128,0,209823:0:0:0:0:
320,192,209482,128,0,209823:0:0:0:0:
320,192,209993,1,0,0:0:0:0:
448,192,209993,1,0,0:0:0:0:
192,192,210164,128,0,210505:0:0:0:0:
64,192,210164,128,0,210505:0:0:0:0:
192,192,210675,1,0,0:0:0:0:
448,192,210846,1,0,0:0:0:0:
64,192,211016,1,0,0:0:0:0:
320,192,211187,1,0,0:0:0:0:
192,192,211357,1,0,0:0:0:0:
448,192,211528,1,0,0:0:0:0:
320,192,211528,1,0,0:0:0:0:
64,192,211869,1,0,0:0:0:0:
192,192,211869,1,0,0:0:0:0:
448,192,212039,128,0,212721:0:0:0:0:
320,192,212039,128,0,212721:0:0:0:0:
448,192,213403,128,0,214084:0:0:0:0:
192,192,214766,1,0,0:0:0:0:
448,192,215107,1,0,0:0:0:0:
64,192,215448,1,0,0:0:0:0:
320,192,215789,1,0,0:0:0:0:
192,192,216129,128,0,216470:0:0:0:0:
448,192,216811,128,0,217152:0:0:0:0:
64,192,217494,128,0,218175:0:0:0:0:
64,192,218857,128,0,219539:0:0:0:0:
192,192,220221,1,0,0:0:0:0:
448,192,220562,1,0,0:0:0:0:
64,192,220903,1,0,0:0:0:0:
320,192,221244,1,0,0:0:0:0:
192,192,221584,128,0,221925:0:0:0:0:
448,192,222266,128,0,222607:0:0:0:0:
192,192,222948,128,0,223630:0:0:0:0:
192,192,226016,128,0,226698:0:0:0:0:
320,192,227380,128,0,227721:0:0:0:0:
64,192,228744,128,0,229084:0:0:0:0:
64,192,229426,1,0,0:0:0:0:
320,192,229765,1,0,0:0:0:0:
192,192,230106,128,0,230447:0:0:0:0:
448,192,230789,128,0,231130:0:0:0:0:
64,192,231471,128,0,231812:0:0:0:0:
448,192,232153,128,0,232494:0:0:0:0:
320,192,232835,128,0,233176:0:0:0:0:
192,192,234198,1,0,0:0:0:0:
448,192,234539,1,0,0:0:0:0:
64,192,234880,1,0,0:0:0:0:
320,192,235221,1,0,0:0:0:0:
192,192,235562,128,0,235903:0:0:0:0:
448,192,236244,128,0,236584:0:0:0:0:
64,192,236925,128,0,237266:0:0:0:0:
448,192,237607,128,0,237948:0:0:0:0:
64,192,238289,128,0,238971:0:0:0:0:
192,192,239653,1,0,0:0:0:0:
448,192,239994,1,0,0:0:0:0:
64,192,240335,1,0,0:0:0:0:
320,192,240676,1,0,0:0:0:0:
192,192,241016,128,0,241357:0:0:0:0:
448,192,241698,128,0,242039:0:0:0:0:
64,192,242380,128,0,242721:0:0:0:0:
448,192,243062,128,0,243403:0:0:0:0:
64,192,243744,128,0,244425:0:0:0:0:
192,192,245107,1,0,0:0:0:0:
448,192,245448,1,0,0:0:0:0:
64,192,245789,1,0,0:0:0:0:
320,192,246130,1,0,0:0:0:0:
192,192,246471,128,0,246812:0:0:0:0:
448,192,247153,128,0,247494:0:0:0:0:
64,192,247834,128,0,248175:0:0:0:0:
448,192,248516,128,0,248857:0:0:0:0:
320,192,249198,128,0,249539:0:0:0:0:
192,192,250562,1,0,0:0:0:0:
448,192,250903,1,0,0:0:0:0:
64,192,251244,1,0,0:0:0:0:
320,192,251585,1,0,0:0:0:0:
192,192,251925,128,0,252266:0:0:0:0:
448,192,252607,128,0,252948:0:0:0:0:
192,192,253289,128,0,253971:0:0:0:0:
192,192,254653,128,0,255334:0:0:0:0:
192,192,256016,1,0,0:0:0:0:
448,192,256357,1,0,0:0:0:0:
64,192,256698,1,0,0:0:0:0:
320,192,257039,1,0,0:0:0:0:
192,192,257380,128,0,257721:0:0:0:0:
448,192,258062,128,0,258403:0:0:0:0:
