osu file format v14

[General]
AudioFilename: ee324b56de627d84bf3c0ff51bf58a44f7876371.mp3
AudioLeadIn: 0
PreviewTime: 44644
Countdown: 1
SampleSet: Normal
StackLeniency: 0.7
Mode: 0
LetterboxInBreaks: 1
WidescreenStoryboard: 1

[Editor]
DistanceSpacing: 1
BeatDivisor: 2
GridSize: 4
TimelineZoom: 1

[Metadata]
Title:Monster
TitleUnicode:Monster
Artist:Skillet
ArtistUnicode:Skillet
Creator:SKAIII
Version:Normal
Source:
Tags:awake metal alternative hard rock
BeatmapID:604345
BeatmapSetID:186199

[Difficulty]
HPDrainRate:3
CircleSize:3
OverallDifficulty:3
ApproachRate:3
SliderMultiplier:1
SliderTickRate:1

[Events]
//Background and Video events
0,0,"Dark-monster-creature-fangs-evil-scary-creepy-spooky-halloween-wallpaper-..jpg",0,0
//Break Periods
2,66177,71648
2,131510,133504
//Storyboard Layer 0 (Background)
//Storyboard Layer 1 (Fail)
//Storyboard Layer 2 (Pass)
//Storyboard Layer 3 (Foreground)
//Storyboard Sound Samples

[TimingPoints]
200,444.444444444444,4,1,0,60,1,0
44644,-100,4,1,0,60,0,1
58866,-100,4,1,0,60,0,0
65977,-100,4,1,0,60,0,0
89088,-100,4,1,0,60,0,1
110866,-100,4,1,0,60,0,0
117533,-100,4,1,0,60,0,0
138866,-100,4,1,0,60,0,1
160199,-100,4,1,0,60,0,0
161977,-100,4,1,0,60,0,1
163755,-100,4,1,0,60,0,0
165533,-100,4,1,0,60,0,1
173977,-100,4,1,0,60,0,0

[Colours]
Combo1 : 255,255,174
Combo2 : 128,255,255
Combo3 : 128,255,128

[HitObjects]
88,308,7311,6,0,P|136:332|200:328,1,100,0|8,0:0|0:0,0:0:0:0:
280,348,8200,2,0,P|328:324|364:276,1,100,0|8,0:0|0:0,0:0:0:0:
448,244,9088,2,0,P|468:192|464:136,1,100,0|8,0:0|0:0,0:0:0:0:
440,52,9977,1,0,0:0:0:0:
372,124,10422,1,8,0:0:0:0:
300,56,10866,6,0,P|260:28|204:20,1,100,0|8,0:0|0:0,0:0:0:0:
216,120,11755,2,0,P|167:128|126:156,1,100,0|8,0:0|0:0,0:0:0:0:
56,228,12644,1,0,0:0:0:0:
124,300,13088,2,0,P|180:320|232:312,2,100,8|0|4,0:0|0:0|0:0,0:0:0:0:
188,224,14422,5,0,0:0:0:0:
280,188,14866,1,8,0:0:0:0:
376,212,15311,2,0,P|376:160|344:112,2,100,0|8|0,0:0|0:0|0:0,0:0:0:0:
280,188,16644,1,8,0:0:0:0:
184,160,17088,2,0,P|184:212|216:264,2,100,0|8|0,0:0|0:0|0:0,0:0:0:0:
260,96,18422,5,8,0:0:0:0:
356,128,18866,1,0,0:0:0:0:
444,76,19311,2,0,P|440:184|272:184,1,300,8|0,0:0|0:0,0:0:0:0:
356,128,21088,1,4,0:0:0:0:
296,48,21533,6,0,P|224:60|184:40,1,100,0|8,0:0|0:0,0:0:0:0:
100,52,22422,2,0,P|104:84|152:136,1,100,0|8,0:0|0:0,0:0:0:0:
228,192,23311,2,0,P|224:224|176:276,1,100,0|8,0:0|0:0,0:0:0:0:
116,348,24199,2,0,P|152:368|228:360,1,100,0|8,0:0|0:0,0:0:0:0:
280,296,25088,5,0,0:0:0:0:
380,312,25533,1,8,0:0:0:0:
340,220,25977,1,0,0:0:0:0:
436,196,26422,1,8,0:0:0:0:
368,124,26866,2,0,P|312:88|276:84,3,100,0|8|0|4,0:0|0:0|0:0|0:0,0:0:0:0:
180,100,28644,6,0,P|140:192|208:200,1,200
304,192,29977,1,8,0:0:0:0:
392,140,30422,2,0,P|436:65|352:39,1,200
260,80,31755,6,0,P|232:36|176:16,1,100,8|0,0:0|0:0,0:0:0:0:
92,36,32644,1,8,0:0:0:0:
52,128,33088,1,0,0:0:0:0:
76,224,33533,1,8,0:0:0:0:
164,272,33977,2,0,P|236:256|268:276,3,100,0|8|0|12,0:0|0:0|0:0|0:0,0:0:0:0:
344,316,35755,6,0,P|404:280|424:240,1,100,0|8,0:0|0:0,0:0:0:0:
328,216,36644,2,0,P|340:160|324:116,1,100,0|8,0:0|0:0,0:0:0:0:
240,168,37533,2,0,P|216:128|156:104,3,100,0|8|0|8,0:0|0:0|0:0|0:0,0:0:0:0:
68,108,39311,6,0,B|72:144|88:172|116:192|144:200|144:200|188:284,1,200
276,288,40644,1,8,0:0:0:0:
240,196,41088,2,0,B|216:148|216:148|244:126|252:96|252:96|282:64|344:56,1,200
388,144,42422,1,8,0:0:0:0:
256,192,42866,12,4,43755,0:0:0:0:
300,280,44644,6,0,P|252:248|196:236,1,100,0|8,0:0|0:0,0:0:0:0:
140,176,45533,2,0,P|196:144|240:148,1,100,0|8,0:0|0:0,0:0:0:0:
328,144,46422,2,0,B|384:112|384:112|412:76,2,100,0|8|0,0:0|0:0|0:0,0:0:0:0:
252,80,47755,1,8,0:0:0:0:
152,68,48199,6,0,P|88:56|56:28,2,100,0|8|0,0:0|0:0|0:0,0:0:0:0:
252,80,49533,2,8,L|220:184,1,100,8|0,0:0|0:0,0:0:0:0:
324,164,50422,2,0,L|292:268,1,100,8|0,0:0|0:0,0:0:0:0:
392,248,51311,2,0,L|360:352,1,100,4|0,0:0|0:0,0:0:0:0:
296,268,52199,6,0,P|200:244|188:248,1,100,8|0,0:0|0:0,0:0:0:0:
128,312,53088,2,0,P|78:311|35:287,1,100,8|0,0:0|0:0,0:0:0:0:
76,196,53977,2,0,P|108:136|64:8,1,200,8|4,0:0|0:0,0:0:0:0:
12,96,55311,6,4,P|60:96|116:104,1,100,4|8,0:0|0:0,0:0:0:0:
176,180,56199,2,0,P|224:180|280:172,1,100,0|8,0:0|0:0,0:0:0:0:
336,92,57088,2,0,P|376:156|376:184,3,100,0|8|0|4,0:0|0:0|0:0|0:0,0:0:0:0:
356,276,58866,5,0,0:0:0:0:
256,292,59311,1,8,0:0:0:0:
156,276,59755,1,0,0:0:0:0:
156,176,60199,1,8,0:0:0:0:
256,156,60644,2,0,B|262:125|262:125|248:93|248:93|256:56,2,100,0|8|0,0:0|0:0|0:0,0:0:0:0:
256,256,61977,1,4,0:0:0:0:
344,208,62422,5,0,0:0:0:0:
344,308,62866,1,8,0:0:0:0:
428,260,63311,1,0,0:0:0:0:
428,360,63755,1,8,0:0:0:0:
428,260,64199,6,0,B|445:215|436:164|436:164|414:126|368:84,1,200
272,84,65533,2,0,P|220:96|160:80,1,100,4|4,0:0|0:0,0:0:0:0:
256,104,73088,6,0,P|184:100|144:124,1,100,0|8,0:0|0:0,0:0:0:0:
80,172,73977,2,0,P|112:204|128:264,1,100,0|8,0:0|0:0,0:0:0:0:
188,336,74866,2,0,L|296:292,2,100,0|8|0,0:0|0:0|0:0,0:0:0:0:
88,316,76199,2,0,P|72:232|112:120,1,200,8|8,0:0|0:0,0:0:0:0:
204,92,77533,6,0,B|280:92|280:92|320:104,1,100,0|8,0:0|0:0,0:0:0:0:
364,180,78422,2,0,B|288:180|288:180|248:168,1,100,0|8,0:0|0:0,0:0:0:0:
168,212,79311,1,0,0:0:0:0:
208,304,79755,1,0,0:0:0:0:
304,328,80199,6,0,P|396:320|456:220,1,200,4|0,0:0|0:0,0:0:0:0:
404,152,81533,1,8,0:0:0:0:
504,148,81977,2,0,P|453:63|356:64,1,200
260,60,83311,6,0,P|205:67|144:48,1,100,8|0,0:0|0:0,0:0:0:0:
76,108,84199,1,8,0:0:0:0:
72,208,84644,1,0,0:0:0:0:
140,284,85088,1,8,0:0:0:0:
240,292,85533,6,0,P|304:260|328:228,1,100,4|8,0:0|0:0,0:0:0:0:
232,192,86422,2,0,P|271:132|276:92,1,100,0|8,0:0|0:0,0:0:0:0:
256,192,87311,12,0,88199,0:0:0:0:
256,248,89088,6,0,L|256:144,1,100,0|8,0:0|0:0,0:0:0:0:
256,48,89977,2,0,P|192:16|152:20,1,100,0|8,0:0|0:0,0:0:0:0:
84,76,90866,2,0,L|44:176,1,100,0|8,0:0|0:0,0:0:0:0:
148,168,91755,2,0,L|128:280,1,100,0|8,0:0|0:0,0:0:0:0:
192,344,92644,5,0,0:0:0:0:
292,356,93088,1,8,0:0:0:0:
384,320,93533,2,0,P|424:252|424:212,1,100,0|8,0:0|0:0,0:0:0:0:
432,132,94422,5,0,0:0:0:0:
352,72,94866,1,8,0:0:0:0:
256,40,95311,1,0,0:0:0:0:
160,72,95755,1,8,0:0:0:0:
80,132,96199,6,0,P|80:200|100:236,1,100,4|8,0:0|0:0,0:0:0:0:
164,296,97088,2,0,P|228:268|264:276,1,100,0|8,0:0|0:0,0:0:0:0:
352,300,97977,2,0,P|401:301|412:112,1,300,0|8,0:0|0:0,0:0:0:0:
380,208,99755,6,0,L|284:156,1,100,0|8,0:0|0:0,0:0:0:0:
204,112,100644,2,0,B|144:144|144:144|112:176,1,100,0|8,0:0|0:0,0:0:0:0:
96,256,101533,5,4,0:0:0:0:
180,308,101977,1,8,0:0:0:0:
280,316,102422,2,0,B|348:304|348:304|392:276,1,100,0|8,0:0|0:0,0:0:0:0:
448,220,103311,5,4,0:0:0:0:
472,124,103755,1,8,0:0:0:0:
448,28,104199,2,0,B|418:36|396:40|396:40|370:35|344:24,1,100,0|8,0:0|0:0,0:0:0:0:
248,32,105088,2,0,P|200:136|260:168,1,200
352,188,106422,6,0,P|328:232|280:264,2,100,8|0|8,0:0|0:0|0:0,0:0:0:0:
452,192,107755,1,0,0:0:0:0:
400,280,108199,1,8,0:0:0:0:
320,340,108644,2,0,P|244:360|208:344,1,100,4|8,0:0|0:0,0:0:0:0:
164,264,109533,2,0,P|212:248|263:257,2,100,0|8|4,0:0|0:0|0:0,0:0:0:0:
72,300,110866,6,0,L|44:200,1,100,8|0,0:0|0:0,0:0:0:0:
140,172,111755,1,8,0:0:0:0:
236,144,112199,2,0,L|344:104,3,100,0|8|0|8,0:0|0:0|0:0|0:0,0:0:0:0:
424,140,113977,5,4,0:0:0:0:
472,228,114422,2,0,P|428:280|388:296,1,100,8|0,0:0|0:0,0:0:0:0:
300,296,115311,2,0,P|256:271|228:231,1,100,8|0,0:0|0:0,0:0:0:0:
196,136,116199,1,8,0:0:0:0:
104,172,116644,1,0,0:0:0:0:
140,264,117088,1,8,0:0:0:0:
228,232,117533,6,0,P|288:216|340:236,2,100,4|8|0,0:0|0:0|0:0,0:0:0:0:
140,264,118866,1,8,0:0:0:0:
216,332,119311,6,0,P|276:348|328:328,2,100,0|8|0,0:0|0:0|0:0,0:0:0:0:
140,264,120644,1,8,0:0:0:0:
96,176,121088,6,0,P|56:127|3:113,1,100,0|8,0:0|0:0,0:0:0:0:
96,48,121977,2,0,P|154:41|212:68,1,100,0|8,0:0|0:0,0:0:0:0:
276,108,122866,6,0,P|323:122|372:114,3,100,0|8|0|8,0:0|0:0|0:0|0:0,0:0:0:0:
444,184,124644,2,0,P|420:264|304:272,1,200,4|0,0:0|0:0,0:0:0:0:
256,200,125977,1,8,0:0:0:0:
196,279,126422,2,0,P|101:272|68:184,1,200,4|0,0:0|0:0,0:0:0:0:
168,192,127755,5,8,0:0:0:0:
236,116,128199,1,4,0:0:0:0:
328,152,128644,1,8,0:0:0:0:
356,248,129088,1,0,0:0:0:0:
284,316,129533,1,8,0:0:0:0:
260,220,129977,6,0,L|236:112,3,100,4|8|0|8,0:0|0:0|0:0|0:0,0:0:0:0:
256,192,135311,12,0,137088,0:0:0:0:
304,296,138866,6,0,B|384:277|384:277|404:256,1,100,4|8,0:0|0:0,0:0:0:0:
448,176,139755,1,0,0:0:0:0:
408,84,140199,1,8,0:0:0:0:
316,48,140644,2,0,P|224:60|212:52,1,100,0|8,0:0|0:0,0:0:0:0:
128,24,141533,2,0,P|79:14|35:35,1,100,0|8,0:0|0:0,0:0:0:0:
96,116,142422,6,0,L|168:316,1,200,4|0,0:0|0:0,0:0:0:0:
256,344,143755,1,8,0:0:0:0:
348,304,144199,2,0,L|416:116,1,200,0|0,0:0|0:0,0:0:0:0:
384,20,145533,1,8,0:0:0:0:
292,60,145977,6,0,P|208:68|184:56,1,100,4|8,0:0|0:0,0:0:0:0:
104,24,146866,2,0,P|100:80|132:136,1,100,0|8,0:0|0:0,0:0:0:0:
64,204,147755,2,0,L|140:268,1,100,0|8,0:0|0:0,0:0:0:0:
220,332,148644,2,0,L|328:344,1,100,0|8,0:0|0:0,0:0:0:0:
280,252,149533,2,0,L|379:240,1,100,0|8,0:0|0:0,0:0:0:0:
324,160,150422,2,0,L|424:124,1,100,0|8,0:0|0:0,0:0:0:0:
352,48,151311,5,0,0:0:0:0:
256,24,151755,1,8,0:0:0:0:
160,48,152199,1,0,0:0:0:0:
93,126,152644,1,8,0:0:0:0:
68,224,153088,6,0,L|48:324,1,100,4|8,0:0|0:0,0:0:0:0:
148,340,153977,2,0,L|160:240,1,100,0|8,0:0|0:0,0:0:0:0:
256,208,154866,2,0,L|256:316,1,100,0|8,0:0|0:0,0:0:0:0:
364,340,155755,2,0,L|352:240,1,100,0|8,0:0|0:0,0:0:0:0:
444,224,156644,6,0,L|464:324,2,100,0|8|0,0:0|0:0|0:0,0:0:0:0:
372,152,157977,1,8,0:0:0:0:
344,56,158422,1,4,0:0:0:0:
256,104,158866,1,8,0:0:0:0:
168,56,159311,1,0,0:0:0:0:
140,152,159755,2,0,P|120:208|88:236,1,100,8|0,0:0|0:0,0:0:0:0:
256,344,161088,5,4,0:0:0:0:
421,234,161977,2,0,P|386:199|372:152,3,100,4|8|0|8,0:0|0:0|0:0|0:0,0:0:0:0:
364,52,163755,5,4,0:0:0:0:
256,220,164644,1,4,0:0:0:0:
148,52,165533,1,4,0:0:0:0:
108,144,165977,1,8,0:0:0:0:
108,244,166422,2,0,P|136:304|168:328,2,100,0|8|4,0:0|0:0|0:0,0:0:0:0:
192,192,167755,5,8,0:0:0:0:
244,108,168199,1,0,0:0:0:0:
328,160,168644,1,8,0:0:0:0:
276,244,169088,2,0,L|212:340,3,100,0|8|0|8,0:0|0:0|0:0|0:0,0:0:0:0:
168,256,170866,6,0,P|124:180|156:68,1,200,4|0,0:0|0:0,0:0:0:0:
256,112,172199,1,8,0:0:0:0:
362,75,172644,2,0,P|389:169|344:255,1,200,4|0,0:0|0:0,0:0:0:0:
256,308,173977,1,12,0:0:0:0:
