osu file format v13

[General]
AudioFilename: ee324b56de627d84bf3c0ff51bf58a44f7876371.mp3
AudioLeadIn: 0
PreviewTime: 44644
Countdown: 1
SampleSet: Normal
StackLeniency: 0.7
Mode: 0
LetterboxInBreaks: 1
WidescreenStoryboard: 0

[Editor]
DistanceSpacing: 1.5
BeatDivisor: 4
GridSize: 4
TimelineZoom: 1

[Metadata]
Title:Monster
TitleUnicode:Monster
Artist:Skillet
ArtistUnicode:Skillet
Creator:SKAIII
Version:Insane
Source:
Tags:awake metal alternative hard rock
BeatmapID:608947
BeatmapSetID:186199

[Difficulty]
HPDrainRate:6
CircleSize:3.5
OverallDifficulty:7
ApproachRate:8.5
SliderMultiplier:1.4
SliderTickRate:1

[Events]
//Background and Video events
0,0,"Dark-monster-creature-fangs-evil-scary-creepy-spooky-halloween-wallpaper-..jpg",0,0
//Break Periods
2,67755,70422
2,131755,135311
//Storyboard Layer 0 (Background)
//Storyboard Layer 1 (Fail)
//Storyboard Layer 2 (Pass)
//Storyboard Layer 3 (Foreground)
//Storyboard Sound Samples

[TimingPoints]
200,444.444444444444,4,1,0,60,1,0
7948,-66.6666666666667,4,1,0,60,0,0
44644,-66.6666666666667,4,1,0,60,0,1
58422,-66.6666666666667,4,1,0,60,0,0
65977,-66.6666666666667,4,1,0,60,0,0
86866,-50,4,1,0,60,0,0
89088,-66.6666666666667,4,1,0,60,0,1
110422,-66.6666666666667,4,1,0,60,0,0
117533,-66.6666666666667,4,1,0,60,0,0
138866,-66.6666666666667,4,1,0,60,0,1
160199,-66.6666666666667,4,1,0,60,0,0
161977,-66.6666666666667,4,1,0,60,0,1
163755,-66.6666666666667,4,1,0,60,0,0
163755,-66.6666666666667,4,1,0,60,0,0
165533,-66.6666666666667,4,1,0,60,0,1
165533,-66.6666666666667,4,1,0,60,0,1
173977,-66.6666666666667,4,1,0,60,0,0

[Colours]
Combo1 : 255,255,168
Combo2 : 128,255,255
Combo3 : 128,255,128

[HitObjects]
136,72,7311,5,0,0:0:0:0:
136,116,7533,1,0,0:0:0:0:
160,144,7756,1,0,0:0:0:0:
200,172,7977,2,8,B|220:200|220:200|220:232|152:224|152:308|144:352|188:360,1,210.000008010865,8|0,0:0|0:0,0:0:0:0:
256,312,8644,1,4,0:0:0:0:
376,72,9088,5,0,0:0:0:0:
376,116,9310,1,0,0:0:0:0:
352,144,9533,1,0,0:0:0:0:
312,172,9754,2,8,B|292:200|292:200|292:232|360:224|360:308|368:352|324:360,1,210.000008010865,8|0,0:0|0:0,0:0:0:0:
256,312,10421,1,4,0:0:0:0:
256,97,10866,5,0,0:0:0:0:
167,250,11088,1,0,0:0:0:0:
344,250,11311,1,0,0:0:0:0:
256,168,11533,2,0,B|240:208|240:208|272:240|272:240|240:272|240:272|272:304|272:304|256:332|256:332,1,210.000008010865,8|0,0:0|0:0,0:0:0:0:
256,331,12199,1,4,0:0:0:0:
332,144,12644,6,8,P|256:84|176:148,2,210.000008010865,0|8|0,0:0|0:0|0:0,0:0:0:0:
256,164,13977,1,8,0:0:0:0:
256,164,14422,5,0,0:0:0:0:
256,268,14644,2,0,P|336:272|440:220,1,105.000004005432,0|8,0:0|0:0,0:0:0:0:
456,220,15088,1,0,0:0:0:0:
476,116,15311,1,0,0:0:0:0:
376,148,15533,1,0,0:0:0:0:
396,44,15755,2,0,P|284:96|284:200,1,210.000008010865,8|0,0:0|0:0,0:0:0:0:
376,148,16422,5,0,0:0:0:0:
344,248,16644,1,8,0:0:0:0:
256,308,16866,1,0,0:0:0:0:
168,248,17088,1,0,0:0:0:0:
136,148,17311,1,0,0:0:0:0:
256,56,17533,2,0,L|256:276,1,210.000008010865,8|0,0:0|0:0,0:0:0:0:
204,344,18199,6,0,L|328:344,3,105.000004005432,0|8|0|0,0:0|0:0|0:0|0:0,0:0:0:0:
204,344,19311,1,8,0:0:0:0:
309,344,19533,1,0,0:0:0:0:
256,256,19755,1,0,0:0:0:0:
177,231,20199,2,0,P|254:171|332:232,2,210.000008010865,8|0|8,0:0|0:0|0:0,0:0:0:0:
256,256,21533,6,0,L|256:148,1,105.000004005432
344,148,21977,1,8,0:0:0:0:
308,48,22199,1,0,0:0:0:0:
204,48,22422,1,0,0:0:0:0:
168,148,22644,1,0,0:0:0:0:
136,236,22866,2,0,B|136:288|96:328|96:328|136:288|212:288,1,210.000008010865,8|0,0:0|0:0,0:0:0:0:
256,204,23533,5,0,0:0:0:0:
256,204,23755,1,8,0:0:0:0:
319,288,23977,1,0,0:0:0:0:
319,288,24199,2,0,B|376:288|416:328|416:328|376:288|376:236,1,210.000008010865,0|8,0:0|0:0,0:0:0:0:
264,64,25088,6,0,P|232:32|136:28,2,105.000004005432,0|0|8,0:0|0:0|0:0,0:0:0:0:
316,156,25755,1,0,0:0:0:0:
368,248,25977,2,0,P|400:280|496:284,2,105.000004005432,0|0|8,0:0|0:0|0:0,0:0:0:0:
268,220,26644,1,0,0:0:0:0:
332,144,26866,2,0,P|220:132|176:248,2,210.000008010865,0|8|0,0:0|0:0|0:0,0:0:0:0:
356,160,27866,1,0,0:0:0:0:
376,176,27977,1,0,0:0:0:0:
396,192,28088,1,0,0:0:0:0:
416,208,28199,1,12,0:0:0:0:
448,104,28644,6,0,L|364:32,1,105.000004005432,0|0,0:0|0:0,0:0:0:0:
288,104,29088,1,8,0:0:0:0:
184,120,29311,1,0,0:0:0:0:
108,192,29533,2,0,P|80:240|100:308,2,105.000004005432,0|0|8,0:0|0:0|0:0,0:0:0:0:
164,256,30199,1,0,0:0:0:0:
241,224,30422,6,0,P|247:276|220:320,2,105.000004005432,0|0|8,0:0|0:0|0:0,0:0:0:0:
196,128,31088,1,0,0:0:0:0:
244,32,31311,1,0,0:0:0:0:
308,116,31533,1,0,0:0:0:0:
356,20,31755,2,0,B|417:48|460:46|460:46|429:73|416:145,1,210.000008010865,8|0,0:0|0:0,0:0:0:0:
392,240,32422,5,0,0:0:0:0:
288,260,32644,1,8,0:0:0:0:
360,336,32866,1,0,0:0:0:0:
256,356,33088,2,0,B|160:356|160:356|120:340|76:268,1,210.000008010865,0|8,0:0|0:0,0:0:0:0:
84,156,33755,1,0,0:0:0:0:
188,152,33977,2,0,B|239:114|283:114|283:114|239:114|187:74,2,210.000008010865,0|8|0,0:0|0:0|0:0,0:0:0:0:
136,244,35088,5,0,0:0:0:0:
136,244,35199,1,0,0:0:0:0:
136,244,35311,1,4,0:0:0:0:
192,332,35533,1,4,0:0:0:0:
296,332,35755,2,0,B|348:332|348:332|416:304,1,105.000004005432,4|0,0:0|0:0,0:0:0:0:
488,264,36199,1,8,0:0:0:0:
412,208,36422,6,0,B|360:208|360:208|292:236,1,105.000004005432
256,140,36866,1,0,0:0:0:0:
256,140,37088,1,8,0:0:0:0:
104,232,37533,6,0,P|48:188|40:140,2,105.000004005432,0|0|8,0:0|0:0|0:0,0:0:0:0:
204,264,38199,1,0,0:0:0:0:
308,264,38422,1,0,0:0:0:0:
408,232,38644,2,0,P|464:188|472:140,1,105.000004005432,0|8,0:0|0:0,0:0:0:0:
200,48,39311,6,0,L|352:48,1,105.000004005432,0|0,0:0|0:0,0:0:0:0:
304,152,39755,2,0,L|199:152,1,105.000004005432,8|0,0:0|0:0,0:0:0:0:
152,248,40199,1,0,0:0:0:0:
256,264,40422,1,0,0:0:0:0:
360,248,40644,1,8,0:0:0:0:
305,339,40866,2,0,P|254:352|204:340,1,105.000004005432,0|0,0:0|0:0,0:0:0:0:
56,192,41533,5,8,0:0:0:0:
256,48,41977,1,0,0:0:0:0:
456,192,42422,1,8,0:0:0:0:
303,261,42866,2,0,B|256:296|256:352|256:352|256:296|208:264,1,210.000008010865,0|8,0:0|0:0,0:0:0:0:
256,192,43755,12,0,44644,0:0:0:0:
294,259,44866,5,0,0:0:0:0:
217,259,45088,1,8,0:0:0:0:
178,191,45311,1,0,0:0:0:0:
217,124,45533,1,0,0:0:0:0:
294,124,45755,1,0,0:0:0:0:
333,192,45977,1,8,0:0:0:0:
256,192,46422,5,0,0:0:0:0:
314,292,46644,1,0,0:0:0:0:
197,292,46866,1,8,0:0:0:0:
139,191,47089,1,0,0:0:0:0:
197,91,47311,1,0,0:0:0:0:
314,91,47533,1,0,0:0:0:0:
372,192,47755,1,8,0:0:0:0:
256,192,48199,5,0,0:0:0:0:
256,84,48422,1,0,0:0:0:0:
160,256,48644,1,8,0:0:0:0:
352,256,48866,1,0,0:0:0:0:
256,192,49088,1,0,0:0:0:0:
160,128,49533,6,0,P|140:88|96:44,2,105.000004005432,8|0|0,0:0|0:0|0:0,0:0:0:0:
352,128,50422,2,0,P|372:88|416:44,2,105.000004005432,8|0|0,0:0|0:0|0:0,0:0:0:0:
256,184,51311,1,8,0:0:0:0:
256,216,51755,1,0,0:0:0:0:
184,312,51977,5,0,0:0:0:0:
324,272,52199,1,8,0:0:0:0:
184,212,52422,1,0,0:0:0:0:
324,172,52644,1,0,0:0:0:0:
180,112,52866,1,0,0:0:0:0:
320,72,53088,2,0,P|408:132|388:240,1,210.000008010865,8|0,0:0|0:0,0:0:0:0:
328,304,53755,5,0,0:0:0:0:
228,344,53977,1,8,0:0:0:0:
128,308,54199,1,0,0:0:0:0:
84,212,54422,1,0,0:0:0:0:
124,116,54644,1,0,0:0:0:0:
216,68,54866,2,0,P|320:92|308:184,1,210.000008010865,8|0,0:0|0:0,0:0:0:0:
256,132,55533,1,0,0:0:0:0:
244,204,55755,6,0,P|264:252|324:272,1,105.000004005432,8|0,0:0|0:0,0:0:0:0:
420,256,56199,2,0,P|452:208|448:148,1,105.000004005432
344,156,56644,1,8,0:0:0:0:
344,156,56866,1,0,0:0:0:0:
343,156,57088,2,0,P|361:62|262:30,3,210.000008010865,4|12|4|12,0:0|0:0|0:0|0:0,0:0:0:0:
256,99,58866,5,0,0:0:0:0:
120,152,59311,1,8,0:0:0:0:
392,152,59755,1,0,0:0:0:0:
44,248,60199,1,8,0:0:0:0:
464,248,60643,1,0,0:0:0:0:
256,192,61088,2,8,L|256:312,2,105.000004005432,8|0|0,0:0|0:0|0:0,0:0:0:0:
256,100,61977,1,8,0:0:0:0:
255,284,62422,5,0,0:0:0:0:
392,232,62867,1,8,0:0:0:0:
120,232,63311,1,0,0:0:0:0:
468,136,63755,1,8,0:0:0:0:
48,136,64199,1,0,0:0:0:0:
256,192,64644,2,0,L|256:72,2,105.000004005432,8|0|0,0:0|0:0|0:0,0:0:0:0:
256,284,65533,1,8,0:0:0:0:
256,192,65977,5,4,0:0:0:0:
168,164,71311,6,0,B|196:132|196:132|256:152|312:132|312:132|368:192,2,210.000008010865,0|8|0,0:0|0:0|0:0,0:0:0:0:
152,184,72311,1,0,0:0:0:0:
140,208,72422,1,0,0:0:0:0:
136,232,72533,1,0,0:0:0:0:
136,260,72644,1,4,0:0:0:0:
208,280,73088,6,0,P|124:336|60:268,2,210.000008010865,0|8|0,0:0|0:0|0:0,0:0:0:0:
252,184,74199,1,0,0:0:0:0:
324,260,74422,2,0,P|356:216|288:84,1,210.000008010865,8|0,0:0|0:0,0:0:0:0:
184,112,75088,5,0,0:0:0:0:
324,260,75311,1,8,0:0:0:0:
217,91,75533,1,0,0:0:0:0:
295,279,75756,1,0,0:0:0:0:
256,84,75977,1,0,0:0:0:0:
256,300,76199,2,0,P|304:356|432:308,1,210.000008010865,8|0,0:0|0:0,0:0:0:0:
488,240,76866,5,0,0:0:0:0:
492,128,77088,1,8,0:0:0:0:
388,124,77311,1,0,0:0:0:0:
492,128,77533,2,0,P|440:32|328:32,1,210.000008010865,0|8,0:0|0:0,0:0:0:0:
256,212,78199,1,0,0:0:0:0:
112,60,78422,5,0,0:0:0:0:
400,60,78866,1,8,0:0:0:0:
256,336,79311,1,0,0:0:0:0:
256,232,79533,1,0,0:0:0:0:
256,204,79644,1,0,0:0:0:0:
256,176,79755,1,4,0:0:0:0:
208,84,79977,6,0,P|256:68|316:92,3,105.000004005432,0|0|0|8,0:0|0:0|0:0|0:0,0:0:0:0:
388,152,80866,1,0,0:0:0:0:
356,252,81088,1,0,0:0:0:0:
256,288,81311,1,0,0:0:0:0:
156,252,81533,2,0,B|120:216|120:216|120:148,2,105.000004005432,8|0|0,0:0|0:0|0:0,0:0:0:0:
256,288,82199,1,0,0:0:0:0:
256,288,82422,2,0,P|336:348|440:312,1,210.000008010865,8|0,0:0|0:0,0:0:0:0:
364,176,83088,1,0,0:0:0:0:
456,224,83311,2,0,P|446:110|328:76,1,210.000008010865,8|0,0:0|0:0,0:0:0:0:
256,56,83977,5,0,0:0:0:0:
188,140,84199,1,8,0:0:0:0:
188,244,84422,1,0,0:0:0:0:
256,328,84644,2,8,P|192:356|124:340,2,105.000004005432,0|0|8,0:0|0:0|0:0,0:0:0:0:
360,352,85311,1,0,0:0:0:0:
328,248,85533,6,0,P|348:200|347:147,1,105.000004005432,0|0,0:0|0:0,0:0:0:0:
308,80,85977,2,0,P|255:70|200:80,1,105.000004005432,8|0,0:0|0:0,0:0:0:0:
164,147,86422,2,0,P|163:200|184:248,1,105.000004005432,0|0,0:0|0:0,0:0:0:0:
384,263,86866,6,0,P|409:198|407:128,1,140,8|0,0:0|0:0,0:0:0:0:
324,52,87310,2,0,P|256:32|168:64,1,140,8|0,0:0|0:0,0:0:0:0:
104,128,87755,2,0,P|104:206|136:276,1,140,8|0,0:0|0:0,0:0:0:0:
408,128,88199,5,8,0:0:0:0:
256,49,88422,1,8,0:0:0:0:
104,128,88644,1,8,0:0:0:0:
352,316,88866,1,8,0:0:0:0:
160,316,89088,6,0,P|116:272|112:200,1,105.000004005432,8|0,0:0|0:0,0:0:0:0:
356,44,89533,2,0,P|400:88|404:160,1,105.000004005432,8|0,0:0|0:0,0:0:0:0:
102,128,89977,2,0,P|117:78|156:44,1,105.000004005432
405,231,90422,2,0,P|390:281|352:316,1,105.000004005432,8|0,0:0|0:0,0:0:0:0:
256,192,90866,5,0,0:0:0:0:
188,320,91088,1,0,0:0:0:0:
324,320,91311,1,8,0:0:0:0:
104,256,91533,1,0,0:0:0:0:
408,256,91755,1,0,0:0:0:0:
188,180,91977,1,0,0:0:0:0:
324,180,92199,2,0,P|432:124|432:32,1,210.000008010865,8|0,0:0|0:0,0:0:0:0:
172,76,92866,5,0,0:0:0:0:
340,76,93088,1,8,0:0:0:0:
308,196,93311,2,0,P|244:212|184:172,1,105.000004005432
256,99,93977,5,8,0:0:0:0:
166,245,94199,1,0,0:0:0:0:
345,245,94422,1,0,0:0:0:0:
256,60,94866,5,8,0:0:0:0:
128,268,95088,1,0,0:0:0:0:
384,268,95311,1,0,0:0:0:0:
257,326,95755,2,0,B|261:326|257:337|253:326|261:318|261:318|253:308|253:308|261:300|261:300|253:292|253:292|261:284|261:284|253:276|253:276|261:268|261:268|253:260|253:260|261:252|261:252|253:244|253:244|261:236|261:236|253:228|253:228|261:220|261:220|253:212|253:212|261:204|261:204|253:196|253:196|261:188|261:188|253:180|253:180|261:172|261:172|269:160,1,210.000008010865,8|0,0:0|0:0,0:0:0:0:
176,64,96422,5,0,0:0:0:0:
340,128,96644,1,8,0:0:0:0:
176,168,96866,1,0,0:0:0:0:
340,232,97088,1,0,0:0:0:0:
176,268,97311,1,0,0:0:0:0:
340,332,97533,2,0,P|424:300|432:180,1,210.000008010865,8|0,0:0|0:0,0:0:0:0:
376,108,98199,5,0,0:0:0:0:
284,60,98422,1,8,0:0:0:0:
180,60,98644,1,0,0:0:0:0:
112,140,98866,1,0,0:0:0:0:
100,244,99088,1,0,0:0:0:0:
196,196,99311,2,0,P|232:164|264:272,1,210.000008010865,8|0,0:0|0:0,0:0:0:0:
184,308,99977,5,0,0:0:0:0:
196,196,100199,1,8,0:0:0:0:
272,112,100422,1,0,0:0:0:0:
384,140,100644,2,0,P|448:216|384:296,1,210.000008010865,0|8,0:0|0:0,0:0:0:0:
119,293,101311,5,0,0:0:0:0:
392,293,101533,1,0,0:0:0:0:
120,264,101977,1,8,0:0:0:0:
392,264,102199,1,0,0:0:0:0:
260,48,102422,2,0,B|264:56|259:48|255:59|263:67|263:67|256:76|256:76|264:84|264:84|256:92|256:92|264:100|264:100|256:108|256:108|264:116|264:116|256:124|256:124|264:132|264:132|256:140|256:140|264:148|264:148|256:156|256:156|264:164|264:164|256:172|256:172|264:180|264:180|256:188|256:188|264:196|264:196|256:204|256:204|264:212|264:212|257:203,1,210.000008010865,0|8,0:0|0:0,0:0:0:0:
256,316,103088,5,0,0:0:0:0:
256,316,103199,1,0,0:0:0:0:
256,316,103311,1,0,0:0:0:0:
120,130,103533,2,0,P|113:79|80:40,1,105.000004005432,0|8,0:0|0:0,0:0:0:0:
391,130,103977,2,0,P|398:79|432:40,1,105.000004005432
256,192,104422,1,0,0:0:0:0:
168,236,104644,2,0,P|256:288|348:224,1,210.000008010865,8|0,0:0|0:0,0:0:0:0:
392,132,105311,5,0,0:0:0:0:
329,22,105534,1,8,0:0:0:0:
182,22,105756,1,0,0:0:0:0:
120,132,105978,1,0,0:0:0:0:
184,240,106200,1,0,0:0:0:0:
328,240,106422,2,0,P|440:212|456:328,1,210.000008010865,8|0,0:0|0:0,0:0:0:0:
376,344,107088,5,0,0:0:0:0:
136,344,107311,1,8,0:0:0:0:
256,324,107533,1,0,0:0:0:0:
256,180,107755,1,0,0:0:0:0:
128,224,108199,5,8,0:0:0:0:
40,148,108422,1,0,0:0:0:0:
152,116,108644,1,0,0:0:0:0:
384,224,109088,5,8,0:0:0:0:
472,148,109311,1,0,0:0:0:0:
360,116,109533,1,0,0:0:0:0:
256,56,109977,2,0,L|256:272,1,210.000008010865,8|0,0:0|0:0,0:0:0:0:
56,96,110866,5,8,0:0:0:0:
456,96,111311,1,0,0:0:0:0:
256,344,111755,1,8,0:0:0:0:
256,188,112199,1,0,0:0:0:0:
256,80,112644,5,8,0:0:0:0:
152,252,112866,1,0,0:0:0:0:
360,252,113088,1,0,0:0:0:0:
256,344,113533,1,8,0:0:0:0:
152,252,113977,6,0,P|128:196|80:160,2,105.000004005432,0|0|8,0:0|0:0|0:0,0:0:0:0:
360,252,114866,2,0,P|384:196|432:160,2,105.000004005432,0|0|8,0:0|0:0|0:0,0:0:0:0:
172,88,115755,2,0,B|240:68|256:28|256:28|272:68|340:88,1,210.000008010865,0|8,0:0|0:0,0:0:0:0:
256,148,116422,1,0,0:0:0:0:
256,148,116644,1,0,0:0:0:0:
168,176,117088,1,8,0:0:0:0:
344,176,117311,1,0,0:0:0:0:
256,272,117533,2,0,L|256:380,1,105.000004005432
168,220,117977,6,0,P|160:282|176:328,1,105.000004005432,8|0,0:0|0:0,0:0:0:0:
344,220,118422,2,0,P|351:282|336:328,1,105.000004005432
152,200,118866,6,0,P|142:275|161:329,1,105.000004005432,8|0,0:0|0:0,0:0:0:0:
363,200,119311,2,0,P|372:275|353:329,1,105.000004005432
130,180,119755,6,0,P|119:270|142:335,1,105.000004005432,8|0,0:0|0:0,0:0:0:0:
384,180,120200,2,0,P|395:270|372:335,1,105.000004005432,0|0,0:0|0:0,0:0:0:0:
104,152,120644,6,0,P|57:251|59:333,1,105.000004005432,8|0,0:0|0:0,0:0:0:0:
408,152,121088,2,0,P|454:251|452:333,1,105.000004005432,0|0,0:0|0:0,0:0:0:0:
308,324,121533,6,0,P|256:332|176:316,1,105.000004005432,8|0,0:0|0:0,0:0:0:0:
204,58,121977,2,0,P|256:52|308:60,1,105.000004005432
297,297,122422,6,0,P|256:304|192:291,1,105.000004005432,8|0,0:0|0:0,0:0:0:0:
194,91,122866,2,0,P|245:80|297:86,1,105.000004005432
308,192,123311,6,0,L|196:192,2,105.000004005432,8|0|0,0:0|0:0|0:0,0:0:0:0:
120,192,123977,5,0,0:0:0:0:
120,192,124088,1,0,0:0:0:0:
120,192,124199,1,4,0:0:0:0:
392,192,124422,1,0,0:0:0:0:
392,192,124533,1,0,0:0:0:0:
392,192,124644,1,4,0:0:0:0:
256,132,124866,6,0,L|256:20,1,105.000004005432,0|8,0:0|0:0,0:0:0:0:
380,104,125311,2,0,L|476:52,1,105.000004005432
132,104,125755,2,0,L|36:52,1,105.000004005432,0|8,0:0|0:0,0:0:0:0:
392,192,126199,6,0,L|504:192,1,105.000004005432
120,192,126644,2,0,L|8:192,1,105.000004005432,0|8,0:0|0:0,0:0:0:0:
384,284,127088,2,0,L|480:336,1,105.000004005432
136,284,127532,2,0,L|40:336,1,105.000004005432,0|8,0:0|0:0,0:0:0:0:
256,248,127977,1,0,0:0:0:0:
256,364,128199,5,8,0:0:0:0:
68,276,128422,1,8,0:0:0:0:
444,192,128644,1,8,0:0:0:0:
68,108,128866,1,8,0:0:0:0:
444,276,129088,1,8,0:0:0:0:
68,192,129310,1,8,0:0:0:0:
444,108,129533,2,0,P|380:56|244:40,1,210.000008010865,8|0,0:0|0:0,0:0:0:0:
148,185,130199,5,0,0:0:0:0:
148,185,130422,1,8,0:0:0:0:
363,185,130644,1,0,0:0:0:0:
363,185,130867,1,0,0:0:0:0:
257,37,131088,1,0,0:0:0:0:
257,37,131311,1,12,0:0:0:0:
256,192,137088,12,0,138422,0:0:0:0:
204,284,138866,6,0,P|256:288|308:284,1,105.000004005432
140,204,139311,1,8,0:0:0:0:
372,204,139533,1,0,0:0:0:0:
168,160,139755,1,0,0:0:0:0:
344,160,139977,1,0,0:0:0:0:
208,108,140199,2,0,B|232:88|256:16|256:16|280:88|304:112,1,210.000008010865,8|0,0:0|0:0,0:0:0:0:
168,160,140866,5,0,0:0:0:0:
344,160,141088,1,8,0:0:0:0:
344,312,141311,1,0,0:0:0:0:
168,312,141533,1,0,0:0:0:0:
256,44,141755,1,0,0:0:0:0:
256,232,141977,2,0,L|256:348,2,105.000004005432,8|0|0,0:0|0:0|0:0,0:0:0:0:
138,149,142644,5,0,0:0:0:0:
373,149,142866,1,8,0:0:0:0:
373,351,143089,1,0,0:0:0:0:
138,351,143311,1,0,0:0:0:0:
256,152,143755,5,8,0:0:0:0:
320,260,143977,1,0,0:0:0:0:
192,260,144199,1,0,0:0:0:0:
256,112,144644,5,8,0:0:0:0:
383,326,144866,1,0,0:0:0:0:
128,326,145088,1,0,0:0:0:0:
256,236,145533,1,8,0:0:0:0:
108,128,145977,6,0,B|112:76|112:76|68:32,1,105.000004005432
404,128,146422,2,0,B|400:76|400:76|444:32,1,105.000004005432,8|0,0:0|0:0,0:0:0:0:
256,60,146866,2,0,L|256:168,2,105.000004005432,0|0|8,0:0|0:0|0:0,0:0:0:0:
152,84,147755,5,0,0:0:0:0:
360,164,147977,1,0,0:0:0:0:
152,168,148199,1,8,0:0:0:0:
360,248,148421,1,0,0:0:0:0:
152,248,148644,1,0,0:0:0:0:
360,328,148866,1,0,0:0:0:0:
152,328,149088,2,0,P|76:276|112:176,1,210.000008010865,8|0,0:0|0:0,0:0:0:0:
256,40,149755,5,0,0:0:0:0:
403,177,149977,1,8,0:0:0:0:
108,177,150199,1,0,0:0:0:0:
256,92,150422,5,0,0:0:0:0:
403,229,150644,1,0,0:0:0:0:
108,229,150866,2,0,P|96:296|52:308,2,105.000004005432,8|0|0,0:0|0:0|0:0,0:0:0:0:
403,229,151755,2,0,P|416:296|460:308,2,105.000004005432,8|0|0,0:0|0:0|0:0,0:0:0:0:
256,64,152422,5,0,0:0:0:0:
256,64,152644,1,8,0:0:0:0:
200,140,152866,5,0,0:0:0:0:
256,156,152977,1,0,0:0:0:0:
312,140,153088,1,4,0:0:0:0:
412,64,153311,6,0,B|448:116|448:116|456:164,1,105.000004005432,0|8,0:0|0:0,0:0:0:0:
100,64,153755,2,0,B|64:116|64:116|56:164,1,105.000004005432
256,336,154199,1,0,0:0:0:0:
256,336,154422,1,8,0:0:0:0:
418,112,154644,6,0,B|423:175|423:175|406:220,1,105.000004005432
88,112,155088,2,0,B|82:175|82:175|99:220,1,105.000004005432,0|8,0:0|0:0,0:0:0:0:
256,248,155533,1,0,0:0:0:0:
208,172,155755,2,0,P|256:156|328:192,2,105.000004005432,0|0|8,0:0|0:0|0:0,0:0:0:0:
108,244,156422,6,0,P|76:296|84:344,1,105.000004005432
404,244,156866,2,0,P|436:296|428:344,1,105.000004005432,0|8,0:0|0:0,0:0:0:0:
256,328,157311,1,0,0:0:0:0:
256,204,157533,2,0,L|256:88,1,105.000004005432
112,32,157977,5,8,0:0:0:0:
400,32,158199,1,0,0:0:0:0:
256,99,158422,1,0,0:0:0:0:
112,68,158866,5,8,0:0:0:0:
400,68,159088,1,0,0:0:0:0:
256,216,159311,2,0,B|284:260|284:260|240:280|240:280|284:308|284:308|248:356,1,210.000008010865,0|8,0:0|0:0,0:0:0:0:
48,192,160199,5,0,0:0:0:0:
256,192,160422,1,0,0:0:0:0:
256,40,160644,1,8,0:0:0:0:
256,348,161088,5,0,0:0:0:0:
256,192,161311,1,0,0:0:0:0:
464,192,161533,1,8,0:0:0:0:
312,108,161977,5,0,0:0:0:0:
312,108,162199,2,0,P|264:92|160:196,1,210.000008010865
256,196,162866,1,0,0:0:0:0:
256,204,163311,1,8,0:0:0:0:
256,48,163755,5,0,0:0:0:0:
140,292,163977,1,0,0:0:0:0:
372,292,164199,1,8,0:0:0:0:
256,336,164644,5,0,0:0:0:0:
140,92,164866,1,0,0:0:0:0:
372,92,165088,1,8,0:0:0:0:
96,184,165533,5,0,0:0:0:0:
416,184,165755,2,0,P|296:228|256:176,1,210.000008010865
256,168,166422,1,0,0:0:0:0:
256,156,166866,1,8,0:0:0:0:
352,128,167311,6,0,L|436:56,1,105.000004005432
456,40,167755,1,8,0:0:0:0:
160,128,168199,2,0,L|76:56,1,105.000004005432
56,40,168643,1,8,0:0:0:0:
192,216,169088,2,0,L|160:320,1,105.000004005432
256,288,169533,1,8,0:0:0:0:
320,216,169755,2,0,L|350:316,1,105.000004005432
256,40,170422,1,8,0:0:0:0:
256,132,170644,5,8,0:0:0:0:
256,132,170755,1,8,0:0:0:0:
256,132,170866,2,8,L|256:240,2,105.000004005432,8|0|8,0:0|0:0|0:0,0:0:0:0:
152,88,171533,1,0,0:0:0:0:
360,88,171755,1,0,0:0:0:0:
108,168,171977,1,0,0:0:0:0:
404,168,172199,1,8,0:0:0:0:
256,132,172422,1,0,0:0:0:0:
256,220,172644,5,0,0:0:0:0:
256,220,172866,1,0,0:0:0:0:
188,336,173088,1,8,0:0:0:0:
188,336,173311,1,0,0:0:0:0:
324,336,173533,1,0,0:0:0:0:
324,336,173756,1,0,0:0:0:0:
256,132,173977,1,0,0:0:0:0:
