osu file format v9

[General]
AudioFilename: 12 lucy.mp3
AudioLeadIn: 3000
PreviewTime: 89323
Countdown: 0
SampleSet: Soft
StackLeniency: 0.7
Mode: 0
LetterboxInBreaks: 0

[Editor]
Bookmarks: 202895
DistanceSpacing: 1.4
BeatDivisor: 4
GridSize: 4

[Metadata]
Title:Lucy
Artist:Skillet
Creator:Blue Dragon
Version:Normal
Source:
Tags:awake

[Difficulty]
HPDrainRate:4
CircleSize:4
OverallDifficulty:4
ApproachRate:4
SliderMultiplier:1.2
SliderTickRate:1

[Events]
//Background and Video events
0,0,"awake.jpg"
//Break Periods
2,58663,60572
//Storyboard Layer 0 (Background)
//Storyboard Layer 1 (Fail)
//Storyboard Layer 2 (Pass)
//Storyboard Layer 3 (Foreground)
//Storyboard Sound Samples
//Background Colour Transformations
3,100,255,255,255

[TimingPoints]
178,857.142857142857,4,2,1,40,1,0
31035,-100,4,2,1,70,0,0
85892,-80,4,2,1,20,0,0
86749,-80,4,2,1,40,0,0
87606,-80,4,2,1,60,0,0
88463,-80,4,2,1,80,0,0
89320,-66.6666666666667,4,2,1,100,0,1
91892,-66.6666666666667,4,1,0,100,0,1
92749,-66.6666666666667,4,2,1,100,0,1
95320,-66.6666666666667,4,1,0,100,0,1
96177,-66.6666666666667,4,2,1,100,0,1
102820,-66.6666666666667,4,2,1,80,0,0
103035,-66.6666666666667,4,2,1,100,0,1
109892,-80,4,2,1,80,0,0
115892,-80,4,2,1,20,0,0
116106,-80,4,2,1,40,0,0
116320,-80,4,2,1,60,0,0
116535,-80,4,2,1,80,0,0
116749,-100,4,2,1,80,0,0
143320,-100,4,1,0,80,0,0
147606,-100,4,1,0,100,0,1
148035,-100,4,2,1,100,0,1
151035,-100,4,1,0,100,0,1
151463,-100,4,2,1,100,0,1
157892,-66.6666666666667,4,2,1,100,0,0
161320,-100,4,2,1,100,0,1
175035,-100,4,2,1,100,0,0
203106,-100,4,2,1,40,0,0
204177,857.142857142857,4,2,1,40,1,0

[Colours]
Combo1 : 44,173,29
Combo2 : 14,162,188
Combo3 : 228,107,192

[HitObjects]
256,80,177,1,2
384,192,1035,1,2
256,304,1892,1,2
128,192,2749,1,2
256,192,3606,5,2
328,232,4035,2,0,B|356:252|364:284,2,60,8|2|0
280,300,5320,2,0,B|220:312|224:336|168:348,1,120,2|2
108,192,7035,5,4
256,112,7892,1,2
404,192,8749,1,2
256,272,9606,1,2
188,116,10463,6,4,B|168:148|184:176,1,60,4|0
200,256,11320,1,2
272,216,11749,1,0
296,136,12177,1,2
416,20,13035,1,2
340,60,13463,1,0
408,108,13892,2,0,B|428:176|384:224,1,120,2|2
264,112,15606,5,2
188,260,16463,1,2
112,112,17320,1,2
188,148,17749,6,0,B|188:188,2,30,0|0|2
188,64,18606,1,0
112,28,19035,2,0,B|48:28,1,60,2|0
52,112,19892,2,0,B|116:112,1,60,2|0
112,196,20749,2,0,B|97:264|32:272,1,120,2|2
156,384,22463,2,0,B|171:316|236:308,1,120,2|2
405,307,24177,6,0,B|409:340|424:334|427:363,2,60,2|8|2
360,236,25463,1,0
432,192,25892,2,0,B|472:160|464:112,1,90,2|2
360,44,27177,5,0
384,124,27606,1,4
265,242,28463,1,2
176,100,29320,1,2
265,242,30177,2,0,B|241:306,2,60,2|0|4
348,252,31463,6,0,B|372:272|376:304,2,60,0|8|0
348,167,32749,1,8
164,168,33606,1,12
286,52,34463,6,0,B|226:52,2,60,2|0|2
256,128,35749,1,0
256,212,36177,2,4,B|236:276|272:276|256:332,1,120,8|4
92,360,37892,6,2,B|72:336|72:304,1,60
131,245,38749,2,2,B|192:228|192:256|252:240,1,120
384,136,40463,1,4
256,20,41320,5,2
200,84,41749,1,2
200,84,41963,1,0
200,84,42178,1,2
280,108,42606,2,0,B|260:168,1,60,0|4
340,192,43463,2,0,B|358:135,2,60,4|2|0
420,216,44749,6,2,B|416:252|440:272,1,60,2|0
504,220,45606,2,2,B|508:184|484:164,1,60,2|0
408,132,46463,1,8
408,132,47320,1,4
244,116,48178,6,2,B|240:80|264:60,1,60,2|0
328,112,49035,2,2,B|332:148|308:168,1,60,2|0
232,200,49892,1,8
232,200,50749,1,4
68,208,51606,6,0,B|48:232|52:264,1,60,2|0
51,263,52249,1,0
51,263,52463,1,2
104,328,52892,2,0,B|132:332|136:324|164:328,2,60,0|2|0
132,248,54178,1,2
428,196,55035,6,0,B|456:208|472:236,2,60,2|0|2
356,236,56320,1,0
356,152,56749,2,0,B|336:124|348:92,1,60,2|0
272,60,57606,1,2
432,104,58463,1,4
256,64,61892,5,4
336,40,62320,1,0
412,72,62749,2,0,B|436:136|396:184,1,120,10|2
340,120,64035,1,0
340,120,64249,2,0,B|293:104|256:132,1,90,2|2
308,196,65320,1,4
368,252,65749,1,0
288,276,66178,1,8
228,220,66606,6,0,B|196:240,2,30,0|0|2
168,160,67463,1,0
88,192,67892,1,8
116,272,68320,1,0
112,356,68749,1,2
192,336,69178,5,0
192,336,69392,1,0
192,336,69606,1,10
272,316,70035,1,0
352,348,70463,2,0,B|384:348|416:360,2,60,0|0|10
336,264,71749,1,0
404,216,72178,2,2,B|396:156|412:156|404:96,1,120,2|10
324,68,73463,1,0
248,104,73892,6,0,B|216:76,2,30,2|0|0
224,184,74749,1,8
244,264,75178,1,10
312,312,75606,5,14
396,308,76035,2,0,B|428:288,1,30
444,256,76463,2,2,B|464:200|440:136,1,120
364,176,77749,1,0
364,176,77963,1,0
364,176,78178,2,2,B|344:120|368:56,1,120,10|2
296,16,79463,1,0
228,64,79892,1,8
220,148,80320,6,0,B|212:168|196:176,4,30,0|0|2|0|2
148,104,81606,1,8
64,108,82035,1,0
24,184,82463,1,4
60,260,82892,6,0,B|64:292|56:320,2,60,0|2|0
132,216,84178,2,2,B|168:224|184:256,1,60,2|0
198,287,84820,1,0
236,304,85035,1,8
444,192,85892,5,8
256,96,86749,1,8
68,192,87606,1,8
256,288,88463,1,8
280,60,89320,5,12
334,129,89749,1,0
284,203,90177,1,8
198,179,90606,1,0
192,92,91035,2,4,B|104:64|104:120|16:92,1,179.999994635582
232,324,92749,5,12
178,255,93177,1,0
228,181,93606,1,8
314,205,94035,1,0
320,292,94463,2,4,B|408:320|408:264|496:292,1,179.999994635582
512,112,96177,5,2
444,52,96606,2,0,B|460:32|488:29,2,44.9999986588955,0|0|2
432,140,97463,2,0,B|435:161|456:176,2,44.9999986588955,0|0|2
356,91,98320,2,0,B|331:91|316:76,1,44.9999986588955,0|4
135,76,99392,6,0,B|108:116,1,44.9999986588955,0|12
72,196,100035,1,0
100,232,100249,1,0
108,276,100463,1,8
192,244,100892,1,0
220,280,101106,1,0
228,324,101320,2,6,B|264:356|316:344,2,89.9999973177911
288,256,102606,1,2
376,276,103035,6,0,B|424:296|464:260,2,89.9999973177911,6|0|8
404,190,104320,1,0
324,152,104749,2,4,B|340:104|404:77|460:104|480:144,1,179.999994635582,4|8
404,190,106035,1,0
344,256,106463,6,2,B|360:304|412:308,2,89.9999973177911,2|0|2
260,224,107749,1,0
172,240,108177,2,4,B|108:240|64:308|84:368,1,179.999994635582
172,360,109463,1,0
220,304,109892,5,2
284,340,110320,2,0,B|256:376,2,37.4999994412065,0|0|2
352,312,111177,1,0
348,236,111606,2,2,B|328:180|268:164,1,112.499998323619
132,100,113106,6,0,B|132:144,1,37.4999994412065,0|4
80,192,113749,1,4
132,244,114177,1,4
184,192,114606,1,0
132,140,115035,2,2,B|132:60,1,74.9999988824129
204,44,115892,2,8,B|248:32,4,37.4999994412065,8|8|8|8|12
256,108,117177,5,4
256,276,118035,2,0,B|256:240,2,30,0|0|2
324,224,118892,1,0
256,176,119320,1,4
96,228,120177,6,0,B|160:228,1,60,2|0
112,300,121035,2,8,B|96:300|96:300|64:300|54:283,1,60,8|0
24,208,121892,2,8,B|36:176|63:161,1,60,8|0
144,172,122749,1,4
220,204,123177,1,4
256,280,123606,6,2,B|264:300|256:320,2,30,2|0|2
315,220,124463,1,12
376,276,124892,1,0
456,248,125320,2,2,B|488:236|520:240,2,60,2|2|6
404,180,126606,1,0
452,112,127035,1,2
396,48,127463,6,0,B|380:40|364:40,1,30
328,60,127892,2,2,B|268:48|212:84,1,120
268,148,129177,2,0,B|280:184,1,30,0|2
312,200,129606,2,2,B|320:236|304:260,2,60,2|2|6
364,136,130892,5,0
440,172,131320,1,2
440,172,131535,1,0
440,172,131749,1,0
456,256,132177,2,2,B|444:288|416:304,3,60
336,312,133892,1,4
256,332,134320,6,0,B|220:336|200:364,2,60,0|2|0
256,248,135606,5,4
256,224,135820,1,0
256,200,136035,1,4
256,176,136249,1,0
256,152,136463,2,4,B|256:84,1,60,4|2
256,7,137320,1,8
332,44,137749,6,0,B|352:48|368:48,2,30,0|0|2
316,128,138606,1,0
400,112,139035,2,4,B|416:148|408:172,2,60
468,64,140320,1,0
488,144,140749,6,2,B|492:188|472:212,1,60
412,256,141606,1,12
356,320,142035,1,0
316,316,142249,1,0
276,312,142463,1,2
204,268,142892,2,2,B|176:248|144:256,1,60,2|0
87,314,143749,1,4
256,192,143963,12,0,146749
208,276,147606,5,4
245,95,148035,1,0
321,263,148463,1,10
161,172,148892,1,0
344,152,149320,1,12
344,152,150177,1,12
208,108,151035,5,4
245,288,151463,1,0
321,120,151892,1,10
161,211,152320,1,0
344,231,152749,1,12
344,231,153606,1,12
380,68,154463,6,2,B|412:64|436:80,1,60,2|0
464,112,155106,1,0
480,152,155320,2,2,B|480:184|456:208,1,60,2|0
376,220,156177,2,2,B|353:242|353:274,2,60,2|2|4
153,316,157892,6,2,B|104:316,1,44.9999986588955,2|0
108,253,158320,2,2,B|156:253,1,44.9999986588955,2|0
153,189,158749,2,2,B|104:189,1,44.9999986588955,2|0
108,126,159177,2,10,B|156:126,1,44.9999986588955,10|0
153,62,159606,2,6,B|61:62,2,89.9999973177911,6|6|14
312,8,161320,5,6
388,44,161749,1,0
420,120,162177,1,8
400,200,162606,1,0
340,260,163035,2,2,B|300:264|268:296|256:336,1,120,2|6
200,8,164749,5,6
124,44,165177,1,0
92,120,165606,1,8
112,200,166035,1,0
172,260,166463,2,2,B|212:264|244:296|256:336,1,120,2|6
256,168,168177,6,0,B|280:140|312:140,1,60,2|8
307,224,169035,2,0,B|334:224|358:196,1,60,2|8
380,160,169677,1,0
388,120,169892,2,0,B|420:80|464:80,1,90,2|8
476,248,171392,6,0,B|452:268,1,30,0|2
392,324,172035,2,2,B|356:316|324:332,1,60
292,340,172677,1,0
252,352,172892,2,2,B|216:360|184:344,1,60,2|8
252,192,174177,6,4,B|260:132,1,60
252,48,175035,5,8
332,28,175463,2,0,B|372:16,2,30,0|0|2
391,87,176320,2,0,B|431:75,2,30,0|0|2
368,168,177177,1,2
296,208,177606,1,6
260,48,178463,5,8
180,28,178892,2,0,B|140:16,2,30,0|0|2
121,87,179749,2,0,B|81:75,2,30,0|0|2
144,168,180606,1,2
216,208,181035,1,6
256,372,181892,5,8
256,288,182320,2,0,B|256:248,2,30,0|0|2
328,332,183177,2,0,B|368:336,1,30
400,336,183606,2,2,B|448:340|472:292,1,90
471,82,185320,5,2
388,96,185749,1,2
316,136,186177,1,2
248,188,186606,1,2
164,200,187035,1,4
72,60,187892,2,0,B|36:48|28:20,2,60,8|8|12
156,48,189177,6,0,B|188:36,2,30,0|0|2
128,128,190035,1,2
136,212,190463,2,4,B|124:244|92:248,2,60
204,160,191749,1,0
264,220,192177,6,0,B|296:212|320:232,1,60,0|2
312,316,193035,2,0,B|344:324|368:304,1,60,0|2
408,228,193892,2,4,B|432:204,4,30,4|8|4|8|4
356,164,195177,1,0
320,88,195606,6,2,B|264:56|200:80,1,120
148,144,196892,1,0
184,220,197320,2,2,B|240:252|304:228,1,120
352,164,198606,1,0
408,100,199035,5,4
432,180,199463,1,4
456,260,199892,1,4
480,340,200320,1,4
256,192,200749,12,4,203320
256,48,204177,5,2
256,144,205034,1,2
256,240,205891,1,2
256,336,206748,1,2
352,336,207605,6,0,B|381:321|408:336,1,60,2|0
444,260,208462,2,0,B|415:245|388:260,1,60,2|0
352,184,209319,2,0,B|381:169|408:184,2,60,2|0|2
256,48,211034,5,4
