osu file format v9

[General]
AudioFilename: 12 lucy.mp3
AudioLeadIn: 3000
PreviewTime: 89323
Countdown: 0
SampleSet: Soft
StackLeniency: 0.7
Mode: 0
LetterboxInBreaks: 0

[Editor]
Bookmarks: 202895
DistanceSpacing: 1.7
BeatDivisor: 4
GridSize: 4

[Metadata]
Title:Lucy
Artist:Skillet
Creator:Blue Dragon
Version:Easy
Source:
Tags:awake

[Difficulty]
HPDrainRate:1
CircleSize:3
OverallDifficulty:2
ApproachRate:3
SliderMultiplier:0.9
SliderTickRate:1

[Events]
//Background and Video events
0,0,"awake.jpg"
//Break Periods
2,58663,60452
//Storyboard Layer 0 (Background)
//Storyboard Layer 1 (Fail)
//Storyboard Layer 2 (Pass)
//Storyboard Layer 3 (Foreground)
//Storyboard Sound Samples
//Background Colour Transformations
3,100,255,255,255

[TimingPoints]
178,857.142857142857,4,2,1,40,1,0
31035,-100,4,2,1,70,0,0
85892,-80,4,2,1,20,0,0
86749,-80,4,2,1,40,0,0
87606,-80,4,2,1,60,0,0
88463,-80,4,2,1,80,0,0
89320,-66.6666666666667,4,2,1,100,0,1
91892,-66.6666666666667,4,1,0,100,0,1
92749,-66.6666666666667,4,2,1,100,0,1
95320,-66.6666666666667,4,1,0,100,0,1
96177,-66.6666666666667,4,2,1,100,0,1
102820,-66.6666666666667,4,2,1,80,0,0
103035,-66.6666666666667,4,2,1,100,0,1
109892,-80,4,2,1,80,0,0
116739,-100,4,2,1,80,0,0
143310,-100,4,1,0,80,0,0
147596,-100,4,1,0,100,0,1
148025,-100,4,2,1,100,0,1
151025,-100,4,1,0,100,0,1
151453,-100,4,2,1,100,0,1
157882,-66.6666666666667,4,2,1,100,0,0
161310,-100,4,2,1,100,0,1
175025,-100,4,2,1,100,0,0
203096,-100,4,2,1,40,0,0
204177,857.142857142857,4,2,1,40,1,0

[Colours]
Combo1 : 44,173,29
Combo2 : 14,162,188
Combo3 : 228,107,192

[HitObjects]
212,40,177,6,0,B|316:40,3,90,2|2|2|2
256,184,3606,1,2
256,260,4035,5,8
324,296,4463,2,0,B|296:344|244:336,1,90,2|2
188,292,5749,1,0
188,216,6178,1,2
256,80,7035,5,4
360,192,7892,1,2
256,304,8749,1,2
152,192,9606,1,2
43,83,10463,5,4
184,20,11320,2,2,B|228:20|228:36|272:36,1,90
380,144,13035,1,2
340,208,13463,5,0
276,164,13892,2,2,B|256:200|264:232|280:256,1,90
404,168,15606,2,2,B|424:204|416:236|400:260,1,90
256,292,17320,5,8
108,336,18177,2,0,B|88:336|84:348|64:348,2,45,2|0|2
32,204,19892,1,2
164,128,20749,2,2,B|168:156|192:180|232:176,1,90
229,23,22463,2,2,B|266:19|290:43|294:71,1,90
336,216,24177,6,0,B|376:248|424:228,1,90,2|2
388,156,25463,1,0
440,96,25892,2,0,B|400:64|352:84,1,90,2|2
308,144,27177,1,0
232,132,27606,1,4
240,284,28463,5,2
92,316,29320,6,0,B|88:292|96:272,1,45,2|0
152,220,30177,2,0,B|156:196|148:176,1,45,2|0
144,100,31035,5,12
296,100,31892,1,8
448,100,32749,2,12,B|458:144|448:188,1,90,8|12
447,342,34463,5,10
295,342,35320,1,8
143,342,36177,2,12,B|133:298|143:254,1,90,8|12
256,148,37892,5,10
332,16,38749,2,2,B|312:60|256:48,1,90
256,201,40463,1,2
292,348,41320,6,2,B|284:328|256:314|228:328|220:348,2,90
256,200,43892,1,4
256,48,44749,6,0,B|312:48,2,45,2|0|2
408,48,46463,2,4,B|424:96|400:136,1,90,10|4
400,287,48178,6,0,B|344:287,2,45,2|0|2
268,360,49892,2,4,B|225:332|220:285,1,90,10|4
256,140,51606,6,2,B|168:124,1,90
120,184,52892,1,0
124,260,53320,2,2,B|156:284|156:320,1,67.5
256,256,54606,5,8
213,184,55035,2,2,B|234:169|262:164|290:174|308:192,2,90
256,332,57606,1,2
256,332,58463,1,4
408,64,61892,5,12
464,116,62320,1,2
480,192,62749,1,10
328,192,63606,2,2,B|320:244|364:268,2,90,2|10|2
312,116,65749,1,0
256,64,66178,1,8
104,64,67035,5,2
116,140,67463,1,0
168,196,67892,2,8,B|212:224|212:280,1,90,8|12
272,316,69178,6,0,B|292:328|324:324,1,45,0|10
404,200,70463,1,2
430,271,70892,1,0
391,337,71320,1,8
298,215,72178,6,2,B|288:164|324:134,1,90,2|10
278,72,73463,1,0
220,122,73892,2,2,B|189:85|138:95,1,90,2|10
70,130,75178,1,8
79,205,75606,1,4
191,308,76463,5,10
328,240,77320,1,2
453,326,78178,1,10
438,250,78606,1,0
458,176,79035,6,2,B|480:132|457:87,1,90,2|10
394,47,80320,1,0
331,91,80749,2,2,B|309:133|331:177,1,90,2|10
309,250,82035,1,0
258,307,82463,6,2,B|207:318|216:336|167:349,1,90,2|10
107,316,83749,1,0
157,258,84178,2,2,B|195:248|186:230|237:219,1,90,2|10
256,145,85463,1,0
228,71,85892,6,8,B|283:71,6,56.2499991618097,8|8|8|8|8|8|12
39,80,89320,5,12
41,268,90177,1,2
87,334,90606,1,0
164,357,91035,2,2,B|236:368|295:336,1,134.999995976687,2|4
473,304,92749,5,12
471,116,93606,1,2
425,50,94035,1,0
348,27,94463,2,2,B|276:16|217:48,1,134.999995976687,2|4
55,51,96177,5,2
35,129,96606,1,0
39,209,97035,1,8
131,342,97892,2,0,B|148:272|116:212,1,134.999995976687,8|2
256,102,99606,5,12
308,264,100463,1,8
170,164,101320,1,8
341,164,102177,1,8
203,264,103035,5,12
63,346,103892,1,2
29,272,104320,1,0
68,201,104749,2,12,B|106:144|88:70,1,134.999995976687
308,119,106463,5,2
449,38,107320,1,2
483,112,107749,1,0
444,183,108177,2,12,B|406:240|424:314,1,134.999995976687
256,358,109892,5,2
256,224,110749,2,0,B|256:281,1,56.2499991618097,8|0
182,280,111606,1,2
330,280,112463,1,8
308,96,113320,6,2,B|256:59|204:96,3,112.499998323619,2|2|2|8
95,205,116749,5,12
41,259,117177,1,12
180,324,118035,5,0
256,332,118463,1,12
256,179,119320,1,12
364,72,120177,6,2,B|412:84|436:132,1,90
408,196,121463,1,0
380,268,121892,2,0,B|392:292|412:308,2,45,2|0|2
256,180,123606,5,12
256,104,124035,1,12
388,28,124892,5,0
388,104,125320,1,2
388,180,125749,1,2
388,256,126177,1,12
256,336,127035,6,2,B|304:356|344:344,1,90
420,332,128320,1,0
476,280,128749,2,2,B|504:240|492:192,1,90
474,119,130035,1,2
425,60,130463,1,4
278,14,131320,5,2
256,88,131749,2,8,B|256:136,3,45,0|8|8|4
256,286,133892,5,4
196,332,134320,1,0
120,320,134749,2,2,B|104:304|80:300,1,45
26,245,135606,5,12
51,172,136035,1,12
77,100,136463,1,12
208,20,137320,6,2,B|256:16|293:43,1,90
308,120,138606,1,0
376,160,139035,2,4,B|403:173|427:168,2,45
256,258,140749,5,14
256,28,142035,5,2
278,101,142463,2,12,B|234:101,1,45
256,252,143749,1,4
256,192,143963,12,4,147606
256,92,148463,5,2
256,92,148892,1,0
256,92,149320,2,2,B|256:184,1,90,2|6
256,335,151035,5,4
256,182,151892,5,2
256,182,152320,1,0
256,182,152749,2,2,B|256:90,1,90,2|6
112,40,154463,5,2
68,104,154892,1,0
84,180,155320,2,2,B|104:224|88:268,1,90
142,321,156606,1,8
217,333,157035,1,4
256,108,157892,6,0,B|256:24,4,67.4999979883433,6|2|4|2|8
256,222,160035,1,8
256,336,160463,1,12
408,336,161320,5,2
460,192,162177,1,2
408,48,163035,2,2,B|320:48,1,90,2|14
104,48,164749,5,2
52,192,165606,1,2
104,336,166463,2,2,B|192:336,1,90,2|14
144,192,168177,6,2,B|168:148|220:148,1,90
256,216,169463,1,8
294,148,169892,2,2,B|344:148|368:192,1,90
324,256,171177,1,0
300,328,171606,2,2,B|256:342|212:328,2,90
256,180,174177,6,0,B|256:128,2,45,8|0|4
332,188,175463,1,2
408,196,175892,1,2
483,206,176320,1,2
436,267,176749,2,0,B|351:298,1,90,0|4
256,204,178463,5,8
180,196,178892,1,2
104,188,179320,1,2
29,178,179749,1,2
76,117,180177,2,0,B|161:86,1,90,0|4
303,32,181892,6,2,B|352:30|380:68,1,90
364,143,183177,1,0
313,200,183606,2,2,B|264:202|236:164,1,90
252,88,184892,1,0
176,77,185320,6,2,B|122:87,4,45,2|0|2|0|6
76,193,187892,5,8
90,268,188320,1,8
143,323,188749,1,4
216,343,189177,1,2
296,343,189606,1,2
369,323,190035,1,0
422,268,190463,1,2
436,193,190892,1,2
422,116,191320,1,12
268,63,192177,6,0,B|221:74,1,45,2|0
247,146,193035,2,0,B|200:157,1,45,8|0
225,229,193892,2,0,B|178:240,2,45,2|0|2
77,268,195606,5,12
44,198,196035,1,0
57,122,196463,2,2,B|89:86|136:90,1,90
204,126,197749,1,0
274,95,198177,2,2,B|322:90|354:126,1,90
365,202,199463,2,0,B|350:252,3,45,0|2|0|2
256,192,200963,12,2,203320
28,192,204177,5,2
180,192,205034,1,2
332,192,205891,1,2
484,192,206748,1,2
368,316,207605,6,0,B|456:316,1,90,8|2
481,243,208891,1,0
455,171,209319,2,2,B|427:135|375:139,1,90
256,235,211034,5,4
