osu file format v5

[General]
AudioFilename: 11 - Looking For Angels.mp3
AudioLeadIn: 0
PreviewTime: -1
Countdown: 1
SampleSet: Normal
StackLeniency: 0.7
Mode: 0
LetterboxInBreaks: 1

[Metadata]
Title:Looking For Angels
Artist:Skillet
Creator:ChronoFox
Version:Easy
Source:
Tags:

[Difficulty]
HPDrainRate:5
CircleSize:5
OverallDifficulty:5
SliderMultiplier:2.5
SliderTickRate:4

[Events]
//Background and Video events
//Break Periods
//Storyboard Layer 0 (Background)
//Storyboard Layer 1 (Failing)
//Storyboard Layer 2 (Passing)
//Storyboard Layer 3 (Foreground)
//Storyboard Sound Samples
//Background Colour Transformations
3,100,163,162,255

[TimingPoints]
0,1000,4,1,0,100,1

[HitObjects]
64,128,750,2,0,B|448:128,1,375
320,128,2750,1,0
192,128,3500,1,0
192,160,3750,1,0
256,160,4000,1,0
320,160,5500,1,0
320,160,5750,1,0
320,160,6000,1,0
256,160,6500,1,0
256,64,7000,1,0
352,224,8000,1,0
320,192,8250,1,0
256,160,8750,1,0
224,192,9000,1,0
224,192,9250,1,0
480,128,10500,1,0
384,128,11000,1,0
320,128,11250,1,0
256,160,11750,1,0
128,160,12250,1,0
320,128,13250,1,0
128,256,14500,1,0
256,160,15250,1,0
160,352,16250,1,0
256,160,17250,1,0
160,352,18250,1,0
256,160,19500,1,0
32,96,20750,1,0
256,128,22000,1,0
352,384,23250,1,0
256,128,24750,1,0
480,192,26000,1,0
224,128,27250,1,0
512,192,28750,1,0
256,160,30000,1,0
512,160,31250,1,0
224,160,32750,1,0
320,160,34750,1,0
256,128,36000,1,0
320,128,37500,1,0
96,192,38750,1,0
352,128,40000,1,0
192,256,41000,1,0
352,128,42000,1,0
288,128,42250,1,0
192,160,42750,1,0
288,128,43250,1,0
384,256,44000,1,0
352,192,44250,1,0
288,160,44750,1,0
256,224,45000,1,0
320,32,46000,1,0
224,192,47000,1,0
256,160,47250,1,0
256,160,47500,1,0
384,96,48250,1,0
320,128,48750,1,0
224,192,49250,1,0
448,192,50250,5,0
288,160,51000,1,0
160,224,51750,1,0
256,160,52250,1,0
352,192,52750,1,0
256,160,53250,1,0
96,96,54000,1,0
224,128,54750,1,0
352,160,55500,1,0
320,160,55750,1,0
192,128,56500,1,0
224,160,56750,1,0
384,128,57500,1,0
320,160,58000,1,0
160,160,58750,1,0
256,128,59250,1,0
384,192,60000,1,0
288,128,60750,1,0
192,224,61250,1,0
192,192,64000,1,0
256,160,64250,1,0
256,160,64750,1,0
256,160,65000,1,0
256,160,65250,1,0
384,128,66750,5,0
384,128,67000,1,0
288,128,67500,1,0
320,128,67750,1,0
192,160,68250,1,0
384,224,69250,1,0
320,192,69750,1,0
256,160,70000,1,0
384,96,70750,1,0
192,192,72000,1,0
224,160,72250,1,0
288,128,72750,1,0
256,160,73000,1,0
384,96,73750,1,0
224,160,74500,1,0
128,96,75000,1,0
192,128,75500,1,0
256,128,75750,1,0
256,128,77250,1,0
352,128,77750,1,0
288,160,78000,1,0
224,160,78500,1,0
224,64,79000,1,0
384,192,80000,1,0
320,160,80500,1,0
288,128,80750,1,0
160,128,81250,1,0
320,128,82000,1,0
192,128,82750,1,0
320,128,83250,1,0
192,128,84000,1,0
320,128,84750,1,0
192,128,85250,1,0
320,128,86000,1,0
192,128,86750,1,0
320,128,87250,1,0
160,128,88000,1,0
416,192,89250,1,0
32,128,91250,5,0
192,128,92000,1,0
320,192,92750,1,0
384,32,93500,1,0
256,160,94250,1,0
416,96,95250,1,0
352,128,98750,1,0
256,128,99250,1,0
320,128,100750,1,0
192,128,101250,1,0
352,128,102000,1,0
224,128,102750,1,0
352,128,103250,1,0
192,128,104000,1,0
320,128,104750,1,0
192,128,105500,1,0
288,128,106000,1,0
288,160,108750,1,0
256,160,110750,1,0
160,160,111250,1,0
288,160,112000,1,0
352,32,112750,1,0
288,128,113250,1,0
160,192,114000,1,0
288,160,114750,1,0
192,128,115250,1,0
352,160,116000,1,0
224,160,116750,1,0
352,160,117500,1,0
256,160,118000,1,0
320,288,118750,1,0
224,224,119250,1,0
352,128,120000,1,0
224,160,120750,1,0
320,224,121250,1,0
256,96,122000,1,0
192,224,122750,1,0
96,160,123750,2,0,B,1,312.5
128,128,125500,2,0,B|288:128,1,187.5
160,128,130750,1,0
256,128,131250,1,0
256,128,131750,1,0
352,128,132000,1,0
224,192,133250,1,0
224,128,134000,1,0
352,128,134750,1,0
320,64,135250,1,0
224,160,136000,1,0
224,160,136250,1,0
320,160,136750,1,0
320,160,137000,1,0
416,128,137500,1,0
224,192,138500,1,0
288,128,139000,1,0
288,128,140250,5,0
288,224,141250,1,0
288,224,141500,1,0
192,160,142000,1,0
320,160,142750,1,0
320,96,144000,5,0
320,96,144250,1,0
256,128,144750,1,0
320,192,145000,1,0
192,192,145750,1,0
320,128,146750,1,0
320,128,147000,1,0
224,128,147250,1,0
224,224,148000,1,0
320,160,149250,5,0
320,160,149750,1,0
256,160,150000,1,0
224,128,150500,1,0
320,96,151000,1,0
192,160,152000,1,0
288,160,152750,1,0
224,96,153250,1,0
192,192,154000,1,0
288,128,154750,1,0
288,224,155250,1,0
192,160,156000,1,0
288,128,156500,1,0
288,256,157250,1,0
160,160,158000,1,0
288,128,158750,1,0
288,256,159250,1,0
160,160,160000,1,0
288,128,160750,1,0
256,256,161500,1,0
192,128,162750,1,0
288,96,163250,1,0
192,192,164750,1,0
224,96,165500,1,0
384,128,166000,1,0
288,192,166750,1,0
192,96,167250,1,0
384,64,168000,1,0
288,256,168750,1,0
192,96,169250,1,0
352,96,170000,1,0
256,288,170750,1,0
160,96,171250,1,0
320,96,172000,1,0
256,256,172750,1,0
160,96,173250,1,0
320,96,174000,1,0
288,192,174750,1,0
192,160,175250,1,0
192,160,175500,1,0
256,96,176000,1,0
352,96,176750,1,0
320,192,177250,1,0
224,160,178000,1,0
224,160,178250,1,0
256,96,178750,1,0
352,96,179250,1,0
320,224,180000,1,0
224,160,180750,1,0
224,160,181000,1,0
288,96,181250,1,0
352,96,182000,1,0
320,224,182750,1,0
224,160,183250,1,0
224,160,183500,1,0
320,96,184000,1,0
416,96,184750,1,0
352,224,185250,1,0
224,160,186000,1,0
224,160,186250,1,0
320,96,186750,1,0
416,96,187250,1,0
352,256,188000,1,0
224,160,188750,1,0
224,160,189000,1,0
320,96,189500,1,0
416,96,190000,1,0
384,256,190750,1,0
256,192,191250,1,0
256,192,191500,1,0
320,96,192000,1,0
416,96,192500,1,0
384,256,193250,1,0
224,192,194000,1,0
320,128,194500,1,0
352,224,195250,1,0
64,128,197750,2,0,B,2,312.5
192,128,202750,1,0
288,128,203000,1,0
352,64,203250,1,0
384,32,203500,1,0
352,192,204500,1,0
320,160,205500,5,0
288,160,206000,1,0
288,160,206250,1,0
224,96,206750,1,0
160,224,207250,1,0
288,160,208000,1,0
288,160,208250,1,0
288,160,208750,1,0
160,160,209750,5,0
256,96,210500,1,0
352,128,211000,1,0
320,224,211250,1,0
224,192,211750,1,0
192,160,212000,1,0
288,160,213250,1,0
288,160,213500,1,0
384,96,214000,1,0
224,64,214500,1,0
192,160,215000,1,0
288,160,216000,5,0
288,160,216250,1,0
384,128,216750,1,0
256,32,217000,1,0
160,128,217500,1,0
256,192,218750,1,0
256,192,219000,1,0
320,128,219250,1,0
192,96,219750,1,0
192,256,220250,1,0
320,128,221500,5,0
224,160,222000,1,0
224,160,222250,1,0
320,96,222750,1,0
224,96,223250,1,0
160,160,224000,1,0
288,160,224500,1,0
224,192,225000,1,0
320,160,225750,1,0
224,160,226750,1,0
224,160,227000,1,0
256,128,227250,1,0
288,96,227750,1,0
288,96,228000,1,0
192,96,228500,1,0
256,160,229250,1,0
256,160,229750,1,0
288,192,230250,5,0
352,160,231000,1,0
256,128,232000,1,0
256,128,232250,1,0
224,192,232750,1,0
320,96,233250,1,0
160,128,234750,1,0
160,128,235000,1,0
288,160,235250,1,0
320,96,235750,1,0
224,128,236250,1,0
256,192,237250,1,0
256,192,237750,1,0
288,160,238000,1,0
224,96,238500,1,0
192,128,238750,1,0
288,160,240000,5,0
224,160,240250,1,0
160,160,240750,1,0
128,160,241000,1,0
256,192,241750,1,0
320,128,242750,1,0
224,128,243250,1,0
256,192,244000,1,0
288,160,244750,1,0
288,160,245000,1,0
224,128,245250,1,0
192,192,246000,1,0
320,160,246500,1,0
256,192,247500,12,0,253500
