osu file format v9

[General]
AudioFilename: Skillet-hero.mp3
AudioLeadIn: 2000
PreviewTime: 89443
Countdown: 0
SampleSet: Normal
StackLeniency: 0.8
Mode: 0
LetterboxInBreaks: 0

[Editor]
DistanceSpacing: 1
BeatDivisor: 4
GridSize: 4

[Metadata]
Title:Hero
Artist:Skillet
Creator:tutuhaha
Version:Insane
Source:
Tags:Fate stay night Roddie

[Difficulty]
HPDrainRate:6
CircleSize:4
OverallDifficulty:6
ApproachRate:7
SliderMultiplier:1.8
SliderTickRate:1

[Events]
//Background and Video events
Video,0,"FSN.flv"
0,0,"BG.jpg"
//Break Periods
2,7460,19881
2,111192,112839
//Storyboard Layer 0 (Background)
//Storyboard Layer 1 (Fail)
//Storyboard Layer 2 (Pass)
//Storyboard Layer 3 (Foreground)
//Storyboard Sound Samples
//Background Colour Transformations
3,100,163,162,255

[TimingPoints]
500,422.535211267606,4,1,1,30,1,0
3880,-100,4,1,1,40,0,0
4725,-100,4,1,1,30,0,0
7260,-100,4,1,1,80,0,0
20781,-100,4,1,1,30,0,0
22471,-100,4,1,0,60,0,0
22577,-100,4,1,1,60,0,0
27542,-100,4,2,1,80,0,0
28387,-100,4,1,1,70,0,0
28492,-100,4,2,1,80,0,0
29232,-100,4,1,1,70,0,0
32612,-100,4,2,1,80,0,0
33457,-100,4,1,1,70,0,0
33563,-100,4,2,1,80,0,0
34302,-100,4,1,1,60,0,0
35992,-100,4,1,1,70,0,0
41063,-100,4,2,1,80,0,0
41908,-100,4,1,1,70,0,0
42014,-100,4,2,1,80,0,0
42753,-100,4,1,1,70,0,0
49514,-100,4,1,1,80,0,1
63035,-100,4,1,0,70,0,0
63140,-100,4,1,1,70,0,0
68105,-100,4,2,1,80,0,0
68950,-100,4,1,1,70,0,0
69056,-100,4,2,1,80,0,0
69795,-100,4,1,1,70,0,0
73176,-100,4,2,1,80,0,0
74021,-100,4,1,1,70,0,0
74126,-100,4,2,1,80,0,0
74866,-100,4,1,1,90,0,0
76556,-100,4,1,1,70,0,0
81626,-100,4,2,1,80,0,0
82471,-100,4,1,1,70,0,0
82577,-100,4,2,1,80,0,0
83316,-100,4,1,1,70,0,0
90077,-100,4,1,1,80,0,1
110359,-100,4,1,1,60,0,0
117119,-100,4,1,1,80,0,1
144161,-100,4,1,1,60,0,0
147542,-100,4,1,1,80,0,1
149232,-100,4,1,1,60,0,0
150922,-100,4,1,1,80,0,1
164443,-100,4,1,1,70,0,1
167823,-100,4,1,1,80,0,1
176274,-100,4,1,1,70,0,0
181345,-100,4,1,1,90,0,0

[Colours]
Combo1 : 108,0,217
Combo2 : 0,128,0
Combo3 : 0,0,119
Combo4 : 187,0,0

[HitObjects]
96,60,500,2,0,B|68:100|76:152,1,90,0|0
56,232,922,2,0,B|96:212|148:220,1,90
184,300,1345,2,0,B|368:300,1,180,8|0
340,212,1978,1,0
456,280,2190,6,0,B|456:232|424:192,1,90,0|0
456,112,2612,2,0,B|416:76|412:16,1,90
324,48,3035,2,0,B|132:48,1,180,8|0
56,24,3669,1,0
124,140,3880,5,8
164,220,4091,1,0
236,276,4302,1,0
324,292,4514,1,0
300,204,4725,6,0,B|416:200|448:304,2,180,8|0|0
256,128,5781,2,0,B|256:24,2,90
168,112,6415,5,8
168,112,6626,1,0
248,220,6838,1,0
248,220,7049,1,0
112,236,7260,1,4
80,136,20781,6,0,B|96:88|152:64,1,90,8|0
216,116,21204,2,0,B|200:164|144:188,1,90,0|0
80,228,21626,2,0,B|80:332,2,90
256,260,22471,5,4
256,260,22683,1,0
280,348,22894,2,0,B|360:320|392:208,1,180,0|8
340,140,23528,2,0,B|448:140,2,90
256,104,24161,6,0,B|208:28|88:24,1,180
32,80,24795,1,0
116,116,25007,2,0,B|188:204,1,90,8|0
108,248,25429,2,0,B|180:336,1,90
236,264,25852,6,0,B|280:192|404:192,1,180
420,276,26485,1,0
484,156,26697,2,0,B|428:64,1,90,8|0
352,104,27119,2,0,B|296:12,1,90
264,156,27542,5,4
176,140,27753,1,2
160,52,27964,2,0,B|108:68|92:108,1,90,8|2
8,140,28387,2,0,B|28:188|76:204,2,90,8|2|2
44,316,29232,5,4
44,316,29443,1,0
128,280,29654,2,0,B|232:280,1,90
276,348,30077,2,0,B|360:332|416:240,1,180,8|0
436,156,30711,1,0
348,164,30922,6,0,B|348:112|392:76,1,90
300,44,31345,2,0,B|188:44,1,90
124,68,31767,1,8
60,132,31978,1,0
40,220,32190,1,0
60,308,32401,1,0
136,196,32612,6,0,B|168:156|232:144,1,90,4|2
276,212,33035,2,0,B|332:208|376:252,1,90,8|2
396,320,33457,2,0,B|500:320,2,90,8|2|2
452,148,34302,5,4
452,148,34514,1,0
408,72,34725,1,0
408,72,34936,1,0
328,28,35147,2,0,B|216:28,1,90,8|0
188,104,35570,2,0,B|152:184|48:212,1,180,0|4
32,300,36204,5,0
204,244,36626,1,0
220,332,36838,2,0,B|276:312|300:264,2,90,8|0|0
184,156,37683,6,0,B|376:156,1,180
216,52,38528,1,8
132,80,38739,1,0
84,156,38950,1,0
96,244,39161,1,0
184,156,39373,6,0,B|300:156,1,90,4|0
288,244,39795,2,0,B|344:232|372:176,1,90
356,104,40218,2,0,B|448:112|496:212,1,180,8|0
432,272,40852,1,0
288,244,41063,6,0,B|192:244,1,90,4|2
120,200,41485,1,8
68,128,41697,1,2
52,40,41908,2,0,B|108:44|136:80,1,90,8|2
196,140,42330,2,0,B|244:168|308:160,1,90,2|8
404,108,42753,5,4
388,196,42964,1,0
344,276,43176,1,0
264,312,43387,1,0
216,236,43598,2,0,B|180:148|68:136,1,180,8|0
4,188,44232,1,0
36,56,44443,6,0,B|140:32,1,90
192,92,44866,2,0,B|296:68,1,90
368,64,45288,1,8
368,64,45711,5,0
432,128,45922,1,0
432,216,46133,2,0,B|416:264|368:288,1,90,4|0
288,260,46556,2,0,B|252:288|188:288,1,90
204,376,46978,2,0,B|212:292|124:212,1,180,8|0
72,148,47612,1,0
204,164,47823,6,0,B|296:152|356:48,2,180,4|0|8
204,72,48880,2,0,B|100:72,2,90
132,184,49514,6,0,B|168:280|288:300,1,180,4|0
352,308,50147,1,0
316,224,50359,2,0,B|408:160,1,90,8|0
328,108,50781,2,0,B|420:44,1,90
268,48,51204,6,0,B|160:52|100:148,1,180
44,296,52049,2,0,B|152:312|232:220,1,180,8|0
232,156,52683,1,0
300,272,52894,6,0,B|408:272,1,90,4|0
464,224,53316,1,0
408,156,53528,1,0
320,176,53739,2,0,B|324:88|420:24,2,180,8|0|4
188,56,55007,5,0
64,188,55429,1,8
64,188,55640,1,0
72,280,55852,1,8
72,280,56063,1,0
156,244,56274,6,0,B|208:320|324:328,1,180,4|0
392,368,56908,1,0
340,244,57119,2,0,B|296:216|288:160,1,90,8|0
332,92,57542,2,0,B|376:120|384:176,1,90
252,108,57964,6,0,B|140:124|64:44,2,180,0|0|8
148,252,59232,1,0
148,252,59443,1,0
200,324,59654,6,0,B|300:344|392:280,1,180,4|0
364,204,60288,1,0
468,292,60500,2,0,B|448:192|512:112,1,180,8|0
444,56,61133,1,0
324,120,61345,6,0,B|280:144|272:208,1,90,4|0
184,188,61767,2,0,B|172:240|116:272,1,90
64,204,62190,1,8
64,204,62612,1,8
44,116,62823,1,0
104,48,63035,6,0,B|208:48,1,90,4|0
248,120,63457,2,0,B|300:108|344:64,1,90
416,56,63880,1,8
460,136,64091,1,0
452,224,64302,1,0
452,224,64725,5,0
404,300,64936,2,0,B|300:300,2,90
360,220,65570,2,0,B|320:188|260:192,1,90,8|0
188,184,65992,2,0,B|184:128|136:88,1,90
80,48,66415,5,0
48,132,66626,1,0
56,224,66838,1,0
108,296,67049,1,0
188,340,67260,2,0,B|296:332|340:220,1,180,8|0
276,172,67894,1,0
408,200,68105,5,4
376,116,68316,1,2
312,52,68528,1,8
224,28,68739,1,2
152,84,68950,2,0,B|48:84,2,90,8|2|2
256,232,69795,5,4
256,232,70007,1,0
224,316,70218,2,0,B|284:320|320:292,1,90
392,256,70640,1,8
420,168,70852,1,0
396,80,71063,1,0
396,80,71485,6,0,B|284:80,1,90
236,136,71908,2,0,B|188:112|168:68,1,90
80,80,72330,1,8
52,164,72542,1,0
68,252,72753,1,0
124,320,72964,1,0
136,184,73176,6,0,B|160:232|216:240,1,90,4|2
268,300,73598,2,0,B|320:304|368:276,1,90,8|2
424,224,74021,1,8
444,136,74232,1,2
412,52,74443,1,2
256,144,74866,6,0,B|148:144,1,90,4|0
56,224,75288,2,0,B|152:224,1,90
180,308,75711,1,8
256,352,75922,1,0
344,356,76133,1,8
448,208,76556,5,4
448,208,76767,2,0,B|448:108|376:44,1,180
288,44,77401,2,0,B|240:24|188:40,1,90,8|0
128,92,77823,2,0,B|76:116|52:168,1,90
92,328,78457,5,0
148,256,78669,2,0,B|264:256,1,90
320,292,79091,2,0,B|424:264|448:168,1,180,8|0
504,108,79725,1,0
368,124,79936,6,0,B|328:96|312:48,1,90,4|0
224,56,80359,1,0
140,92,80570,1,0
88,164,80781,1,8
80,252,80992,1,0
116,336,81204,2,0,B|160:312|172:256,1,90
272,356,81626,5,4
268,268,81838,1,2
316,192,82049,1,8
400,164,82260,1,2
484,192,82471,2,0,B|492:140|464:100,2,90,8|2|2
332,96,83316,5,4
332,96,83528,2,0,B|128:96,1,180
64,80,84161,2,0,B|64:132|96:168,1,90,8|0
128,248,84584,2,0,B|108:296|52:308,2,90
216,268,85218,5,0
284,324,85429,1,0
372,344,85640,1,0
456,308,85852,2,0,B|456:208,1,90,8|0
376,176,86274,2,0,B|336:92,1,90,0|8
276,216,86697,6,0,B|200:168|200:48,1,180,4|0
112,40,87330,1,0
140,172,87542,2,0,B|180:264|148:352,1,180,8|0
240,352,88176,1,0
320,316,88387,5,0
320,316,88809,1,0
176,204,89232,1,8
236,136,89443,1,0
316,100,89654,1,8
404,92,89866,1,0
308,188,90077,6,0,B|240:108|120:120,1,180,4|0
80,60,90711,1,0
104,192,90922,1,8
160,264,91133,1,0
244,296,91345,1,0
332,300,91556,1,0
380,224,91767,6,0,B|396:136|504:92,2,180,0|0|8
308,172,92823,2,0,B|308:72,2,90
220,68,93457,5,4
152,128,93669,1,0
116,212,93880,1,0
104,300,94091,1,0
200,204,94302,2,0,B|248:284|360:280,1,180,8|0
352,188,94936,1,0
448,284,95147,6,0,B|508:188,1,90,4|0
428,148,95570,2,0,B|488:52,1,90,0|0
344,100,95992,1,8
344,100,96204,1,0
220,44,96415,1,8
220,44,96626,1,8
236,176,96838,6,0,B|196:272|84:276,2,180,4|0|8
280,252,97894,1,0
352,304,98105,1,0
440,324,98316,1,0
356,220,98528,6,0,B|440:172|448:64,2,180,0|0|8
312,144,99584,1,0
248,84,99795,1,0
160,68,100007,1,0
224,184,100218,6,0,B|192:224|136:232,1,90,4|0
84,168,100640,2,0,B|64:212|28:236,1,90
80,308,101063,2,0,B|184:304|256:372,1,180,8|0
332,332,101697,1,0
220,260,101908,6,0,B|276:196|392:200,1,180,4|0
444,136,102542,1,0
312,112,102753,2,0,B|320:64|360:28,2,90,8|0|8
236,160,103387,1,0
244,24,103598,6,0,B|136:24,1,90,4|0
124,108,104021,2,0,B|24:108,1,90
136,196,104443,1,8
184,272,104654,1,0
268,304,104866,1,0
360,304,105077,1,0
252,224,105288,6,0,B|332:168|336:48,2,180,0|0|8
188,160,106345,2,0,B|108:84,1,90
48,48,106767,1,0
92,176,106978,5,4
104,264,107190,1,0
176,320,107401,1,0
264,340,107612,1,0
348,312,107823,2,0,B|364:224|456:168,1,180,8|0
492,92,108457,1,0
368,148,108669,6,0,B|260:148,1,90
280,56,109091,2,0,B|164:56,1,90
200,192,109514,1,8
200,192,109725,1,0
108,292,109936,1,8
108,292,110147,1,8
64,164,110359,6,0,B|60:108|96:56,1,90
256,124,110781,1,0
184,48,110992,1,0
448,220,113739,6,0,B|452:276|416:328,1,90
256,260,114161,1,0
328,336,114373,1,0
256,260,115429,6,0,B|184:188,1,90
256,124,115852,2,0,B|328:196,1,90
312,52,116274,1,8
224,40,116485,1,0
144,84,116697,1,8
120,172,116908,1,0
72,296,117119,6,0,B|120:300|176:256,1,90,4|0
236,228,117542,1,0
268,144,117753,1,0
324,216,117964,2,0,B|396:292,1,90,8|0
444,212,118387,2,0,B|516:288,2,90
452,104,119021,5,0
396,32,119232,2,0,B|364:68|364:116,1,90
308,184,119654,1,8
228,228,119866,1,0
140,240,120077,1,0
52,232,120288,1,0
112,64,120711,5,0
120,152,120922,2,0,B|172:140|200:88,1,90
276,136,121345,2,0,B|328:132|368:164,2,90,8|0|0
320,288,121978,2,0,B|268:292|228:260,1,90,0|0
364,232,122401,5,0
448,200,122612,1,0
492,120,122823,1,0
500,32,123035,1,8
420,72,123246,1,0
332,84,123457,1,8
244,72,123669,1,0
260,204,123880,6,0,B|232:244|164:260,1,90,4|0
96,240,124302,1,0
28,180,124514,1,0
20,92,124725,2,0,B|116:48,1,90,8|0
160,124,125147,2,0,B|256:80,1,90
332,244,125781,5,0
336,332,125992,2,0,B|384:328|420:288,1,90
420,204,126415,1,8
372,128,126626,1,0
288,100,126838,1,8
200,116,127049,1,0
92,260,127471,5,0
136,340,127683,2,0,B|240:284,1,90
300,324,128105,2,0,B|300:220|176:184,1,180,8|0
116,156,128739,1,0
248,120,128950,6,0,B|336:60,1,90,4|0
392,124,129373,2,0,B|480:64,1,90
436,204,129795,1,8
388,280,130007,1,0
304,312,130218,1,8
212,308,130429,1,0
320,224,130640,6,0,B|284:132|164:116,1,180,4|0
112,60,131274,1,0
120,196,131485,2,0,B|100:240|48:260,2,90,8|0|0
196,244,132119,6,0,B|360:352,1,180
436,324,132753,1,0
484,248,132964,1,0
348,240,133176,2,0,B|336:196|280:164,1,90,8|0
312,84,133598,1,0
204,168,133809,6,0,B|96:172|40:72,1,180
128,40,134443,1,0
212,72,134654,1,0
300,176,134866,2,0,B|360:260,1,90,8|0
412,184,135288,1,0
408,320,135499,6,0,B|328:368|204:348,1,180
152,316,136133,1,0
96,248,136345,1,0
76,160,136556,1,8
100,72,136767,1,0
164,192,136978,2,0,B|240:260,1,90,8|0
212,116,137401,5,4
292,76,137612,1,0
380,68,137823,1,0
468,88,138035,1,0
352,152,138246,2,0,B|336:248|248:304,1,180,8|0
192,360,138880,1,0
196,224,139091,2,0,B|152:136|32:132,2,180,0|0|8
304,80,140359,5,0
304,80,140570,1,0
312,168,140781,2,0,B|364:156|388:116,1,90,4|0
456,180,141204,1,0
468,268,141415,1,0
336,244,141626,2,0,B|296:336|172:348,2,180,8|0|0
256,84,142894,5,0
112,192,143316,2,0,B|164:304,1,90,8|0
284,308,143739,2,0,B|246:226,1,90,8|0
256,192,144161,12,0,147119
256,192,147542,6,0,B|280:100|392:56,1,180,4|0
460,92,148176,1,0
356,176,148387,2,0,B|356:288,1,90,8|0
268,292,148809,2,0,B|268:384,2,90,0|0|4
256,48,150922,5,4
168,72,151133,1,0
104,136,151345,1,0
68,220,151556,1,0
192,168,151767,2,0,B|292:180|376:108,1,180,8|0
412,48,152401,1,0
424,184,152612,6,0,B|412:280|312:332,2,180,4|0|8
336,176,153669,1,0
252,212,153880,1,0
204,288,154091,1,0
184,156,154302,6,0,B|148:64|40:44,2,180,4|0|8
332,56,155570,1,0
312,144,155781,1,0
328,232,155992,2,0,B|392:312|512:300,1,180
412,144,156838,2,0,B|300:120|228:192,1,180,8|0
172,124,157471,1,0
216,252,157683,6,0,B|160:324|52:328,1,180,4|0
8,256,158316,1,0
136,208,158528,2,0,B|144:116|264:60,1,180,8|0
312,16,159161,1,0
284,148,159373,5,4
316,232,159584,1,0
376,300,159795,1,0
464,324,160007,1,0
408,200,160218,2,0,B|400:144|424:96,1,90,8|0
352,48,160640,2,0,B|248:48,1,90
252,184,161063,5,4
164,180,161274,1,0
84,144,161485,1,0
32,68,161697,1,0
16,204,161908,2,0,B|40:244|92:256,1,90,8|0
128,336,162330,2,0,B|176:352|232:336,1,90
256,164,162964,5,0
192,100,163176,2,0,B|232:72|280:80,1,90
360,48,163598,2,0,B|388:96|444:108,2,90,8|0|0
332,132,164232,2,0,B|356:220|460:264,1,180
488,176,164866,5,0
392,328,165288,1,8
256,208,165711,2,0,B|180:280,1,90
120,328,166133,5,0
120,328,166345,1,0
60,264,166556,1,0
60,264,166767,1,0
8,188,166978,2,0,B|40:96|160:72,1,180,8|8
220,32,167612,1,0
172,156,167823,6,0,B|200:200|260:208,1,90,4|0
276,288,168246,2,0,B|328:304|384:288,1,90
440,244,168669,1,8
460,156,168880,1,0
432,72,169091,1,0
352,32,169302,1,0
200,132,169725,5,0
152,56,169936,2,0,B|112:88|112:140,1,90
48,196,170359,1,8
128,236,170570,2,0,B|172:256|192:312,2,90
188,168,171204,1,0
256,108,171415,5,0
336,68,171626,1,0
424,56,171838,1,0
328,152,172049,2,0,B|384:232|504:232,1,180,8|0
492,320,172683,1,0
364,280,172894,6,0,B|280:232|176:268,1,180
152,344,173528,1,0
100,220,173739,1,8
128,136,173950,1,0
192,72,174161,1,0
280,48,174373,1,0
228,172,174584,6,0,B|264:136|328:128,1,90,4|0
368,196,175007,2,0,B|420:208|456:252,1,90
312,264,175429,2,0,B|140:328,1,180,8|0
24,192,176274,5,4
24,192,176485,1,0
128,44,176908,1,4
128,44,177119,2,0,B|216:72|240:180,1,180,8|4
212,308,177753,6,0,B|124:280|100:172,1,180,0|4
228,220,178387,2,0,B|416:220,1,180,0|8
468,152,179021,1,0
468,152,179443,5,0
388,112,179654,2,0,B|416:68|480:64,2,90,4|0|0
304,148,180288,1,0
224,188,180500,2,0,B|44:280,1,180,8|8
200,92,181345,6,0,B|108:48|28:120,2,180,0|0|0
256,264,182612,1,0
