osu file format v9

[General]
AudioFilename: Skillet-hero.mp3
AudioLeadIn: 2000
PreviewTime: 89443
Countdown: 0
SampleSet: Normal
StackLeniency: 0.8
Mode: 0
LetterboxInBreaks: 0

[Editor]
DistanceSpacing: 1
BeatDivisor: 4
GridSize: 4

[Metadata]
Title:Hero
Artist:Skillet
Creator:tutuhaha
Version:Easy
Source:
Tags:Fate stay night Roddie

[Difficulty]
HPDrainRate:2
CircleSize:3
OverallDifficulty:2
ApproachRate:3
SliderMultiplier:1.1
SliderTickRate:1

[Events]
//Background and Video events
Video,0,"FSN.flv"
0,0,"BG.jpg"
//Break Periods
2,7460,19341
2,110559,115679
2,144361,146102
//Storyboard Layer 0 (Background)
//Storyboard Layer 1 (Fail)
//Storyboard Layer 2 (Pass)
//Storyboard Layer 3 (Foreground)
//Storyboard Sound Samples
//Background Colour Transformations
3,100,163,162,255

[TimingPoints]
500,422.535211267606,4,1,1,30,1,0
3880,-100,4,1,1,40,0,0
4725,-100,4,1,1,30,0,0
7260,-100,4,1,1,80,0,0
20781,-100,4,1,1,30,0,0
22471,-100,4,1,0,60,0,0
22577,-100,4,1,1,60,0,0
27542,-100,4,2,1,80,0,0
28387,-100,4,1,1,70,0,0
28492,-100,4,2,1,80,0,0
29232,-100,4,1,1,70,0,0
32612,-100,4,2,1,80,0,0
33457,-100,4,1,1,70,0,0
33563,-100,4,2,1,80,0,0
34302,-100,4,1,1,60,0,0
35992,-100,4,1,1,70,0,0
41063,-100,4,2,1,80,0,0
41908,-100,4,1,1,70,0,0
42014,-100,4,2,1,80,0,0
42753,-100,4,1,1,70,0,0
49514,-100,4,1,1,80,0,1
63035,-100,4,1,0,70,0,0
63140,-100,4,1,1,70,0,0
68105,-100,4,2,1,80,0,0
68950,-100,4,1,1,70,0,0
69056,-100,4,2,1,80,0,0
69795,-100,4,1,1,70,0,0
73176,-100,4,2,1,80,0,0
74021,-100,4,1,1,70,0,0
74126,-100,4,2,1,80,0,0
74866,-100,4,1,1,90,0,0
76556,-100,4,1,1,70,0,0
81626,-100,4,2,1,80,0,0
82471,-100,4,1,1,70,0,0
82577,-100,4,2,1,80,0,0
83316,-100,4,1,1,70,0,0
90077,-100,4,1,1,80,0,1
110359,-100,4,1,1,60,0,0
117119,-100,4,1,1,80,0,1
144161,-100,4,1,1,60,0,0
147542,-100,4,1,1,80,0,1
149232,-100,4,1,1,60,0,0
150922,-100,4,1,1,80,0,1
164443,-100,4,1,1,70,0,1
167823,-100,4,1,1,80,0,1
176274,-100,4,1,1,70,0,0
181345,-100,4,1,1,90,0,0

[Colours]
Combo1 : 108,0,217
Combo2 : 0,128,0
Combo3 : 0,0,119
Combo4 : 187,0,0

[HitObjects]
72,80,500,2,0,B|200:80,1,110,0|0
216,184,1345,2,0,B|344:176|392:48,1,220,8|0
460,144,2612,1,0
420,248,3035,2,0,B|324:324,1,110,8|0
224,336,3880,6,0,B|172:224|240:112,1,220,0|8
308,48,5147,2,0,B|368:48,2,55
196,52,5992,1,0
96,100,6415,2,0,B|96:212,2,110,8|8|4
256,192,20781,12,4,22471
256,192,23316,6,0,B|368:192,1,110,8|0
436,108,24161,2,0,B|416:52|344:40,1,110
256,96,25007,1,8
256,96,25429,1,0
148,124,25852,6,0,B|80:212|136:332,1,220,0|8
208,248,27119,1,0
280,164,27542,2,0,B|308:112|276:48,2,110,4|2|8
328,264,28809,2,0,B|408:264,2,55,2|2|4
256,348,29654,5,0
224,244,30077,2,0,B|204:124|76:84,2,220,8|0|8
136,312,32190,1,0
64,228,32612,6,0,B|0:228,2,55,4|0|2
144,152,33457,2,0,B|208:152,2,55,8|0|2
208,60,34302,2,0,B|332:52|416:152,1,220,0|8
404,248,35570,1,0
364,352,35992,6,0,B|300:320|292:248,1,110,4|0
240,176,36838,2,0,B|4:176,2,220,8|0|8
296,80,38950,1,0
368,164,39373,6,0,B|432:140|452:76,2,110,4|0|8
296,248,40640,1,0
224,332,41063,2,0,B|156:332,2,55,4|0|2
172,236,41908,2,0,B|100:236,2,55,8|0|2
220,136,42753,6,0,B|284:40|424:52,1,220,4|8
444,156,44021,1,0
436,264,44443,2,0,B|372:248|340:192,1,110,0|0
256,264,45288,1,8
256,264,45711,1,0
176,340,46133,6,0,B|96:260|132:120,2,220,4|8|0
256,264,48246,1,0
256,152,48669,2,0,B|324:144|364:88,1,110,8|0
256,192,49514,12,4,51204
256,192,52049,6,0,B|492:192,1,220,8|4
440,88,53316,1,0
340,44,53739,2,0,B|216:44,1,110,8|0
128,88,54584,2,0,B|160:148|228:148,2,110,0|0|8
76,184,55852,1,0
64,292,56274,6,0,B|288:292,2,220,4|8|0
112,192,58387,1,0
216,152,58809,2,0,B|280:136|308:60,1,110,8|0
396,132,59654,6,0,B|432:256,1,110,4|0
320,264,60500,2,0,B|356:388,1,110,8|0
248,328,61345,2,0,B|204:224|56:200,1,220,4|8
52,96,62612,1,8
148,44,63035,6,0,B|268:44,2,110,4|0|8
120,148,64302,1,0
104,256,64725,2,0,B|236:252|280:132,1,220,0|8
332,48,65992,1,0
416,120,66415,6,0,B|416:236,1,110
320,288,67260,2,0,B|320:168,1,110,8|0
224,120,68105,2,0,B|104:120|36:236,1,220,4|8
108,312,69373,2,0,B|56:356,2,55,2|2|4
208,272,70218,5,0
308,224,70640,2,0,B|360:200|380:136,1,110,8|0
268,120,71485,2,0,B|40:120,1,220,0|8
112,208,72753,6,0,B|192:208,2,55,0|0|4
160,308,73598,1,2
268,336,74021,1,8
376,320,74443,1,2
456,244,74866,6,0,B|432:124|296:84,1,220,4|8
232,164,76133,1,0
236,276,76556,6,0,B|4:276,2,220,4|8|0
304,192,78669,2,0,B|324:132|392:104,2,110,0|8|0
196,188,79936,6,0,B|76:188,1,110,4|0
124,84,80781,2,0,B|256:84,1,110,8|0
328,140,81626,2,0,B|456:172|480:304,1,220,4|8
376,328,82894,2,0,B|376:388,2,55,2|2|4
300,248,83739,5,0
192,232,84161,1,8
84,252,84584,1,0
132,152,85007,2,0,B|192:48|328:48,1,220,0|8
404,116,86274,1,0
428,224,86697,6,0,B|316:284|208:216,1,220,4|8
144,304,87964,2,0,B|68:304,2,55,0|0|4
124,196,88809,1,0
184,104,89232,6,0,B|300:128|348:256,2,220,8|4|8
116,192,91345,1,0
144,300,91767,2,0,B|264:300,1,110
324,212,92612,2,0,B|192:212,1,110,8|0
268,116,93457,6,0,B|404:80|480:180,2,220,4|8|4
164,148,95570,1,0
108,240,95992,1,8
92,348,96415,1,0
200,324,96838,6,0,B|328:312|372:180,1,220,4|8
304,108,98105,1,0
228,188,98528,2,0,B|104:188,1,110
88,80,99373,2,0,B|212:80,1,110,8|0
304,108,100218,6,0,B|364:124|388:192,2,110,4|0|8
272,212,101485,2,0,B|204:212,2,55,0|0|4
340,300,102330,1,0
444,336,102753,1,8
444,336,103176,1,0
472,228,103598,6,0,B|448:100|316:80,1,220,4|8
256,168,104866,1,0
244,276,105288,2,0,B|180:264|152:204,2,110,0|0|8
328,348,106556,1,0
372,248,106978,2,0,B|376:116|256:60,1,220,4|8
140,244,108669,6,0,B|24:244,1,110
84,340,109514,2,0,B|208:340,2,110,8|0|4
256,144,117119,6,0,B|280:88|356:76,1,110,4|0
376,184,117964,2,0,B|336:300|208:312,1,220,8|4
104,308,119232,1,0
36,224,119654,2,0,B|36:112,1,110,8|0
136,64,120499,6,0,B|156:192|284:228,1,220,4|8
324,128,121767,2,0,B|448:128|452:128,2,110,0|4|0
360,232,123035,1,8
316,332,123457,1,0
212,368,123880,6,0,B|212:252,1,110,4|0
100,256,124725,2,0,B|88:124|208:52,1,220,8|4
256,152,125992,1,0
328,68,126415,2,0,B|426:126|414:258,1,220,8|4
332,328,127683,6,0,B|264:328,2,55,0|0|8
272,236,128528,2,0,B|200:236,2,55,0|0|4
216,140,129373,2,0,B|84:140,2,110,0|8|0
288,56,130640,6,0,B|408:56,1,110,4|0
412,164,131485,2,0,B|384:288|264:324,1,220,8|4
184,256,132753,2,0,B|116:256,2,55,0|0|8
192,148,133598,2,0,B|136:120|120:56,2,110,0|4|0
232,48,134866,6,0,B|372:40|440:148,1,220,8|4
404,236,136133,1,0
332,320,136556,1,8
224,332,136978,1,0
240,224,137401,6,0,B|112:232|48:120,1,220,4|8
136,60,138669,1,0
244,80,139091,2,0,B|472:80,2,220,0|0|4
176,164,141204,5,0
132,264,141626,2,0,B|260:272|316:164,1,220,8|0
396,96,142894,1,0
452,192,143316,2,0,B|452:324,2,110,8|0|4
256,120,147542,6,0,B|192:24|40:48,1,220,4|8
84,152,148809,1,0
116,256,149232,2,0,B|240:256,1,110,4|0
304,336,150077,2,0,B|424:316|464:184,1,220,0|4
376,128,151345,5,0
288,64,151767,2,0,B|176:64,1,110,8|0
108,148,152612,2,0,B|228:148,1,110,4|0
288,236,153457,2,0,B|164:236,1,110,8|0
220,336,154302,6,0,B|352:364|440:264,1,220,4|8
440,172,155570,1,0
348,116,155992,2,0,B|232:116,1,110,4|0
196,220,156838,6,0,B|68:192|44:60,2,220,8|4|8
256,312,158950,1,0
312,216,159373,2,0,B|436:216,1,110,4|0
460,112,160218,2,0,B|348:112,1,110,8|0
260,52,161063,6,0,B|132:72|96:208,1,220,4|8
116,296,162330,1,0
208,356,162753,2,0,B|208:232,1,110,4|0
308,196,163598,2,0,B|308:316,1,110,8|0
416,324,164443,6,0,B|504:240|480:112,1,220,4|8
384,72,165711,1,0
280,32,166133,2,0,B|152:32,1,110
108,124,166978,2,0,B|228:124,1,110,8|0
228,232,167823,6,0,B|160:344|20:336,2,220,4|8|4
256,124,169936,1,0
324,40,170359,2,0,B|388:40|448:80,2,110,8|0|4
352,148,171626,5,0
388,252,172049,2,0,B|432:360,1,110,8|0
320,344,172894,2,0,B|264:252|112:260,1,220,4|8
52,180,174161,1,0
104,84,174584,6,0,B|220:84,1,110,4|0
244,192,175429,2,0,B|356:192,1,110,8|0
408,288,176274,6,0,B|224:288,2,165,4|8|0
468,196,177964,2,0,B|432:68|300:48,1,220,0|8
256,144,179232,1,0
156,188,179654,6,0,B|40:188,1,110,4|0
84,292,180500,2,0,B|212:292,1,110,8|0
292,344,181345,2,0,B|296:232|408:168,1,220,4|8
468,76,182612,1,0
