osu file format v6

[General]
AudioFilename: Hero.mp3
AudioLeadIn: 0
PreviewTime: -1
Countdown: 1
SampleSet: Soft
StackLeniency: 0.7
Mode: 0
LetterboxInBreaks: 1

[Editor]
DistanceSpacing: 0.800000011920929
BeatDivisor: 6
GridSize: 16

[Metadata]
Title:Hero
Artist:Skillet
Creator:Ryuuzaki Aim Death
Version:Normal
Source:Dead Gaaru
Tags:

[Difficulty]
HPDrainRate:5
CircleSize:5
OverallDifficulty:5
SliderMultiplier:1.5
SliderTickRate:2

[Events]
//Background and Video events
Video,0,"Ravnica Pazzur Dead Gaaru.wmv"
//Break Periods
//Storyboard Layer 0 (Background)
//Storyboard Layer 1 (Fail)
//Storyboard Layer 2 (Pass)
//Storyboard Layer 3 (Foreground)
//Storyboard Sound Samples
//Background Colour Transformations
3,100,0,0,0

[TimingPoints]
0,999.600000000001,4,2,0,100,1,0

[Colours]
Combo1 : 0,0,0
Combo2 : 190,125,255
Combo3 : 0,185,0
Combo4 : 0,128,255

[HitObjects]
48,48,1249,1,0
144,136,1999,1,0
248,48,2665,1,0
472,344,3332,1,0
328,255,3998,1,0
32,176,4664,1,0
416,32,5331,1,0
400,32,5997,2,0,B|24:360|112:40|184:112|48:48|40:280,1,525
451,307,10245,5,0
383,312,10829,1,0
208,200,11495,1,0
208,200,12161,1,0
371,74,12828,1,0
256,208,13494,12,8,15243
56,52,15993,6,8,B|172:203,1,187.5
210,263,17992,1,8
43,49,18825,2,8,B|156:154|299:93|189:240|174:334|288:239|412:148|406:310|481:359|482:358,1,525
301,353,23157,6,8,B|497:208,1,225,0|0
469,142,25489,1,8
343,101,26156,5,8
185,121,26989,5,8
238,225,27655,1,8
296,165,28488,2,8,B|444:301,1,187.5
465,206,30487,1,8
232,77,31154,1,8
325,58,31820,1,4
268,140,32487,1,4
268,257,33153,1,4
34,87,33986,1,4
96,105,34652,1,4
354,268,35319,1,4
242,354,36152,1,4
101,278,36818,1,4
44,311,37651,6,4,B|254:92,1,300
237,122,40317,2,4,B|347:232,1,150
52,164,41816,2,4,B|284:37,1,225
50,100,43815,5,4
110,204,44482,1,4
172,98,45315,1,4
296,76,45981,1,4
251,172,46648,1,4
134,182,47147,1,4
180,72,47814,2,4,B|472:320,1,375
256,208,50979,12,4,53811
56,64,54644,5,4
85,164,55311,1,4
268,57,55977,1,4
166,49,56644,2,4,B|166:287,1,225
288,224,58809,5,4
54,60,59476,6,0,B|211:158|304:60|400:180|400:273,1,425
35,83,62974,1,0
145,73,63641,5,0
224,123,64307,1,0
64,244,64807,1,0
188,277,65307,2,0,B|411:167,1,225
44,123,67473,1,0
139,92,68306,2,0,B|363:277,1,275
256,208,70805,12,0,73304
50,72,73970,5,0
59,163,74803,2,0,B|200:37,1,175
296,70,76636,1,0
340,129,77302,6,0,B|115:327|24:196,1,350
76,128,80301,1,0
195,96,80967,1,0
318,83,81634,1,0
438,161,82133,1,0
396,252,82800,2,0,B|236:304|17:212|94:49|500:214,1,650
481,215,87631,2,0,B|352:41|151:63|48:196,1,500
57,61,91630,1,0
159,64,92129,1,0
131,176,92796,1,0
318,100,93462,1,0
445,80,94129,1,0
460,176,94795,2,0,B|188:300,1,275
208,231,97127,1,0
256,208,97960,12,0,99960
57,83,100459,5,0
88,209,100959,1,0
226,201,101626,1,0
94,124,102292,2,0,B|473:128,1,375
26,30,105457,6,0,B|62:115|39:226|-4:295|58:345|151:315|171:235|163:157|147:56|236:21|313:56|288:166|275:251|260:306|299:364|361:286|379:213|384:138|420:72|488:64|477:139|491:196|500:245|487:299|491:333|496:358|506:374,1,950
45,44,112455,1,0
132,84,113121,1,0
250,81,113621,1,0
364,116,114121,1,0
449,180,114787,2,0,B|136:311,1,325
50,325,117453,1,0
46,237,118286,1,0
41,136,118785,1,0
91,57,119452,1,0
302,72,120118,1,0
172,62,120785,1,0
413,86,121451,1,0
256,208,122117,12,0,123950
17,44,124450,6,0,B|477:45|-3:122|405:101|474:210|471:297|450:348|417:339|393:345|339:337|280:321|224:255|199:224|188:269|164:293|127:309|108:335|87:341|50:325|11:272|-13:213|22:164|46:161|121:169|195:209|225:145|229:119|242:95|253:57|303:25|357:17|416:41|444:79|467:120|501:181|489:233|477:257,1,1475
24,61,134946,1,0
103,96,135612,1,0
204,76,136278,1,0
362,91,136945,1,0
432,196,137611,1,0
354,270,138278,1,0
249,307,138777,1,0
139,285,139277,1,0
22,155,139777,2,0,B|348:55,1,325
369,134,142443,2,0,B|360:326|52:344|62:335,1,400
