osu file format v9

[General]
AudioFilename: 05 Eating Me Away.mp3
AudioLeadIn: 0
PreviewTime: 38120
Countdown: 0
SampleSet: Soft
StackLeniency: 0.7
Mode: 0
LetterboxInBreaks: 0
EpilepsyWarning: 1

[Editor]
DistanceSpacing: 0.8
BeatDivisor: 2
GridSize: 8

[Metadata]
Title:Eating Me Away
Artist:Skillet
Creator:rust45
Version:Gumming
Source:
Tags:rock grunge christian alien youth

[Difficulty]
HPDrainRate:3
CircleSize:3
OverallDifficulty:3
ApproachRate:4
SliderMultiplier:1.4
SliderTickRate:2

[Events]
//Background and Video events
0,0,"album-alien-youth.jpg"
//Break Periods
2,30938,37042
2,57638,67557
2,91491,98072
2,133926,140030
2,164441,170545
//Storyboard Layer 0 (Background)
//Storyboard Layer 1 (Fail)
//Storyboard Layer 2 (Pass)
//Storyboard Layer 3 (Foreground)
//Storyboard Sound Samples
//Background Colour Transformations
3,100,0,0,0

[TimingPoints]
7848,476.795931341386,4,2,0,70,1,0
38124,-100,4,1,0,60,0,0
68741,-100,4,1,0,40,0,0
107828,-100,4,1,0,60,0,0
108781,-100,4,1,0,40,0,0
109734,-100,4,1,0,70,0,0
110688,-100,4,1,0,45,0,0
111641,-100,4,1,0,70,0,0
112743,-100,4,1,0,60,0,0
152317,-100,4,1,0,0,0,0
152555,-100,4,1,0,60,0,0
162329,-100,4,2,0,0,0,0
164475,-100,4,1,0,60,0,0

[Colours]
Combo1 : 124,124,124
Combo2 : 67,107,67

[HitObjects]
184,296,7848,6,0,B|248:264|336:304,5,140,0|2|0|2|0|2
184,88,11662,6,0,B|248:120|336:80,5,140,0|2|0|2|0|2
464,112,15476,6,0,B|432:176|472:264,5,140,0|2|0|2|0|2
48,112,19291,6,0,B|80:176|40:264,5,140,0|2|0|2|0|2
296,40,23105,6,2,B|224:40,1,70
256,144,23820,1,0
216,344,25012,6,2,B|288:344,1,70
256,240,25727,1,0
256,72,26443,2,4,B|256:152,1,70
256,192,27396,12,4,30734
256,80,38362,5,4
256,192,38839,1,0
256,304,39316,1,8
448,192,40270,2,0,B|448:32|256:32,2,280,0|8|0
224,192,43130,5,0
112,192,43607,2,0,B|112:120|184:80|184:80,1,140,0|8
296,112,44561,1,0
320,224,45038,1,0
208,216,45514,1,8
256,112,45991,5,0
472,192,46945,1,8
248,168,47898,2,0,B|184:240|88:104|184:0|256:64,2,280,0|8|0
80,144,50521,5,2
80,200,50759,1,2
80,312,51236,2,0,B|232:312,1,140
336,312,52190,2,0,B|336:240,4,70
408,200,53620,6,2,B|288:80|160:200,1,280
256,192,55527,12,4,57434
49,185,68877,6,0,B|201:185,1,140
249,185,69593,1,8
416,192,70308,1,0
416,192,70546,2,0,B|432:112|336:48|224:112|252:197,1,280,0|2
248,248,71738,5,4
360,248,72215,1,4
192,248,72930,5,0
152,208,73169,1,0
120,160,73407,1,0
80,120,73645,2,8,B|10:120,1,70
8,232,74361,2,2,B|184:360,1,210
40,192,76268,5,0
96,192,76506,1,0
96,136,76745,2,0,B|144:136|144:136|184:104|248:128,4,140,8|0|8|0|8
152,40,79128,2,0,B|224:40,3,70
320,88,80320,5,4
296,200,80797,2,0,B|344:296,1,70,8|0
392,264,81274,2,0,B|432:192,1,70,8|0
432,144,81751,2,0,B|408:72,1,70,8|0
384,32,82228,5,4
384,200,82943,2,0,B|312:200,3,70
272,240,83896,5,2
216,240,84135,1,8
192,192,84373,1,8
80,168,84850,1,4
272,112,85804,5,2
240,152,86042,1,8
272,200,86280,1,8
376,152,86757,1,4
272,24,87472,5,0
272,24,87711,1,0
224,56,87949,2,0,B|344:144,1,140
504,168,89141,5,8
448,168,89380,1,8
336,168,89856,2,0,B|224:272,1,140,0|8
280,312,90572,2,0,B|384:216,1,140,0|8
424,184,91287,1,4
144,192,99392,5,0
256,192,99869,1,0
368,192,100346,1,8
368,192,101300,5,0
256,192,101776,1,0
144,192,102253,1,8
256,80,103207,5,0
256,192,103683,1,0
256,304,104160,1,8
256,304,105114,5,0
256,192,105591,1,0
256,80,106067,1,8
472,40,107021,5,0
384,104,107498,1,0
296,176,107975,2,0,B|240:224,3,70,8|0|0|0
192,240,108928,5,0
80,240,109405,1,0
136,144,109882,2,0,B|136:64,3,70,8|0|0|0
192,72,110835,5,0
304,72,111312,1,0
248,168,111789,2,0,B|248:248,3,70,8|0|0|0
256,192,112743,12,4,114650
256,192,115603,5,0
144,192,116080,1,8
144,80,116557,2,0,B|248:56|360:128|424:80,2,280,0|8|0
144,304,119418,5,0
256,304,119895,1,0
368,304,120371,1,8
368,192,120848,1,0
256,192,121325,1,0
144,192,121802,1,8
144,192,122279,6,0,B|432:192,1,280,0|8
256,336,124186,2,0,B|320:256|176:152|256:64,2,280,0|8|0
168,192,126808,6,0,B|224:128|232:120,1,70,2|8
312,192,127523,1,0
256,288,128000,1,0
224,176,128477,2,0,B|176:112,1,70,8|0
280,176,129192,2,0,B|336:112,1,70,8|0
256,32,129907,6,2,B|256:320,1,280
256,192,131814,12,4,133722
48,192,141350,5,0
160,192,141827,2,0,B|216:136,2,70,0|0|0
160,304,142781,2,0,B|264:200,1,140,0|0
312,200,143496,2,0,B|464:200,1,140
456,144,144211,2,0,B|312:56,1,140,0|0
224,72,145165,6,0,B|151:79|125:165,1,140,2|8
126,223,145880,2,0,B|151:305|224:312,1,140,2|8
288,311,146595,2,0,B|361:305|385:223,1,140,2|2
384,112,147549,5,8
384,112,147787,1,2
272,112,148264,1,8
272,112,148502,1,2
256,224,148979,5,0
256,336,149456,1,8
256,160,150886,5,0
256,48,151363,1,8
256,48,151601,2,8,B|337:24|400:72|381:167,1,210
256,192,152793,6,0,B|256:264,3,70,8|0|8|0
256,96,154224,1,2
144,96,154701,2,0,B|99:98|84:142,3,70,8|0|8|0
184,184,155893,1,4
256,352,156608,5,8
256,352,156846,1,0
256,352,157085,1,8
256,352,157323,2,0,B|256:120,1,210,0|8
256,32,158515,5,8
256,32,158753,1,0
256,32,158992,1,8
256,32,159230,2,0,B|256:248,1,210,0|8
152,192,160422,5,8
112,152,160661,1,0
72,191,160899,1,8
111,230,161137,2,0,B|102:336|272:336,1,210,0|8
256,192,162329,12,0,164237
256,304,171865,5,0
256,192,172342,1,0
256,80,172819,1,8
448,192,173772,2,0,B|448:352|256:352,2,280,0|8|0
224,192,176633,5,0
112,192,177110,2,0,B|112:264|184:304|184:304,1,140,0|8
324,263,178064,1,0
324,150,178540,1,0
212,150,179017,1,8
256,256,179494,5,0
472,192,180448,1,8
248,208,181401,2,0,B|184:136|88:272|184:376|256:312,2,280,0|8|0
80,208,184024,5,2
80,152,184262,1,2
80,40,184739,2,0,B|232:40,1,140
336,40,185692,2,0,B|336:112,4,70
232,80,187123,5,0
256,192,187600,1,0
256,192,188076,1,0
368,192,188553,1,8
368,80,189030,2,0,B|264:56|152:128|88:80,2,280,0|8|0
368,304,191891,5,0
256,304,192368,1,0
144,304,192844,1,8
144,192,193321,1,0
256,192,193798,1,0
368,192,194275,1,8
368,192,194752,6,0,B|80:192,1,280,0|8
256,336,196659,2,0,B|192:256|336:152|256:64,2,280,0|8|0
392,240,199281,6,0,B|336:176|328:168,1,70,2|8
248,240,199996,1,0
304,336,200473,1,0
336,224,200950,2,0,B|384:160,1,70,8|0
280,224,201665,2,0,B|224:160,1,70,8|0
304,80,202380,6,2,B|304:368,1,280
256,192,204287,12,4,206195
